osu file format v14

[General]
AudioFilename: Mastermind - Dreadnought.mp3
AudioLeadIn: 0
PreviewTime: 93766
Countdown: 0
SampleSet: None
StackLeniency: 0.7
Mode: 3
LetterboxInBreaks: 0
SpecialStyle: 0
WidescreenStoryboard: 1

[Editor]
Bookmarks: 23766,105016
DistanceSpacing: 2
BeatDivisor: 8
GridSize: 16
TimelineZoom: 2

[Metadata]
Title:Dreadnought
TitleUnicode:Dreadnought
Artist:Mastermind(xi+nora2r)
ArtistUnicode:Mastermind(xi+nora2r)
Creator:PyaKura
Version:Insane
Source:BMS
Tags:bof bofu 2015 bms of fighters ultimate daikeesen
BeatmapID:795406
BeatmapSetID:361643

[Difficulty]
HPDrainRate:8.5
CircleSize:7
OverallDifficulty:8
ApproachRate:5
SliderMultiplier:1.4
SliderTickRate:1

[Events]
//Background and Video events
0,0,"17956-spaceship-1920x1080-fantasy-wallpaper.jpg",0,0
Video,188,"[BOFU2015] [BMS] Mastermind(xi+nora2r) - Dreadnought.avi"
//Break Periods
//Storyboard Layer 0 (Background)
//Storyboard Layer 1 (Fail)
//Storyboard Layer 2 (Pass)
//Storyboard Layer 3 (Foreground)
//Storyboard Sound Samples

[TimingPoints]
16,312.5,4,3,1,17,1,0
16,-66.6666666666667,4,3,1,17,0,0
1266,-200,4,3,1,17,0,0
5953,-111.111111111111,4,3,1,17,0,0
5979,-1000,4,3,1,17,0,0
6005,-111.111111111111,4,3,1,17,0,0
6031,-1000,4,3,1,17,0,0
6057,-111.111111111111,4,3,1,17,0,0
6083,-1000,4,3,1,17,0,0
6109,-111.111111111111,4,3,1,17,0,0
6135,-1000,4,3,1,17,0,0
6161,-111.111111111111,4,3,1,17,0,0
6187,-1000,4,3,1,17,0,0
6213,-111.111111111111,4,3,1,17,0,0
6239,-1000,4,3,1,17,0,0
6266,-200,4,3,1,17,0,0
9391,-142.857142857143,4,3,1,17,0,0
9410,-333.333333333333,4,3,1,17,0,0
9430,-133.333333333333,4,3,1,17,0,0
9449,-400,4,3,1,17,0,0
9469,-125,4,3,1,17,0,0
9488,-500,4,3,1,17,0,0
9508,-117.647058823529,4,3,1,17,0,0
9527,-666.666666666667,4,3,1,17,0,0
9547,-111.111111111111,4,3,1,17,0,0
9586,-1000,4,3,1,17,0,0
9625,-111.111111111111,4,3,1,17,0,0
9664,-1000,4,3,1,17,0,0
9703,-111.111111111111,4,3,1,17,0,0
9729,-1000,4,3,1,17,0,0
9755,-111.111111111111,4,3,1,17,0,0
9781,-1000,4,3,1,17,0,0
9807,-111.111111111111,4,3,1,17,0,0
9833,-1000,4,3,1,17,0,0
9859,-111.111111111111,4,3,1,17,0,0
9898,-1000,4,3,1,17,0,0
9937,-111.111111111111,4,3,1,17,0,0
9976,-1000,4,3,1,17,0,0
10172,-200,4,3,1,17,0,0
10328,-1000,4,3,1,17,0,0
10641,-200,4,3,1,17,0,0
10680,-1000,4,3,1,17,0,0
10953,-200,4,3,1,17,0,0
11266,-1000,4,3,1,17,0,0
11305,-200,4,3,1,17,0,0
11383,-1000,4,3,1,17,0,0
11461,-200,4,3,1,17,0,0
11500,-1000,4,3,1,17,0,0
11539,-200,4,3,1,17,0,0
11656,-1000,4,3,1,17,0,0
11734,-200,4,3,1,17,0,0
11760,-1000,4,3,1,17,0,0
11786,-200,4,3,1,17,0,0
11812,-1000,4,3,1,17,0,0
11838,-200,4,3,1,17,0,0
11864,-1000,4,3,1,17,0,0
11891,-200,4,3,1,17,0,0
12086,-1000,4,3,1,17,0,0
12203,-200,4,3,1,17,0,0
12320,-1000,4,3,1,17,0,0
12359,-200,4,3,1,17,0,0
12437,-1000,4,3,1,17,0,0
12516,-100,4,3,1,17,0,0
13453,-58.8235294117647,4,3,1,17,0,0
13492,-333.333333333333,4,3,1,17,0,0
13531,-58.8235294117647,4,3,1,17,0,0
13570,-333.333333333333,4,3,1,17,0,0
13609,-58.8235294117647,4,3,1,17,0,0
13648,-333.333333333333,4,3,1,17,0,0
13687,-58.8235294117647,4,3,1,17,0,0
13726,-333.333333333333,4,3,1,17,0,0
13766,-100,4,3,1,22,0,0
23453,-250,4,3,1,22,0,0
23609,-62.5,4,3,1,22,0,0
23766,-100,4,3,1,27,0,0
32516,-66.6666666666667,4,3,1,27,0,0
32555,-200,4,3,1,27,0,0
32594,-66.6666666666667,4,3,1,27,0,0
32633,-200,4,3,1,27,0,0
32672,-66.6666666666667,4,3,1,27,0,0
32711,-200,4,3,1,27,0,0
32750,-66.6666666666667,4,3,1,27,0,0
32789,-200,4,3,1,27,0,0
32828,-66.6666666666667,4,3,1,27,0,0
32906,-200,4,3,1,27,0,0
32984,-66.6666666666667,4,3,1,27,0,0
33023,-200,4,3,1,27,0,0
33062,-66.6666666666667,4,3,1,27,0,0
33101,-200,4,3,1,27,0,0
33141,-66.6666666666667,4,3,1,27,0,0
33180,-200,4,3,1,27,0,0
33219,-66.6666666666667,4,3,1,27,0,0
33258,-200,4,3,1,27,0,0
33297,-66.6666666666667,4,3,1,27,0,0
33375,-200,4,3,1,27,0,0
33453,-500,4,3,1,27,0,0
33609,-55.5555555555556,4,3,1,27,0,0
33766,-100,4,3,1,27,0,0
39391,-71.4285714285714,4,3,1,27,0,0
39430,-166.666666666667,4,3,1,27,0,0
39469,-71.4285714285714,4,3,1,27,0,0
39508,-166.666666666667,4,3,1,27,0,0
39547,-71.4285714285714,4,3,1,27,0,0
39586,-166.666666666667,4,3,1,27,0,0
39625,-71.4285714285714,4,3,1,27,0,0
39664,-166.666666666667,4,3,1,27,0,0
39703,-71.4285714285714,4,3,1,27,0,0
39742,-166.666666666667,4,3,1,27,0,0
39781,-71.4285714285714,4,3,1,27,0,0
39820,-166.666666666667,4,3,1,27,0,0
39859,-71.4285714285714,4,3,1,27,0,0
39898,-166.666666666667,4,3,1,27,0,0
39937,-71.4285714285714,4,3,1,27,0,0
39976,-166.666666666667,4,3,1,27,0,0
40016,-100,4,3,1,27,0,0
43453,-66.6666666666667,4,3,1,27,0,0
43609,-200,4,3,1,27,0,0
43766,-100,4,3,1,27,0,0
48453,-71.4285714285714,4,3,1,27,0,0
48492,-166.666666666667,4,3,1,27,0,0
48531,-71.4285714285714,4,3,1,27,0,0
48570,-166.666666666667,4,3,1,27,0,0
48609,-71.4285714285714,4,3,1,27,0,0
48648,-166.666666666667,4,3,1,27,0,0
48687,-71.4285714285714,4,3,1,27,0,0
48726,-166.666666666667,4,3,1,27,0,0
48766,-100,4,3,1,27,0,0
49234,-62.5,4,3,1,27,0,0
49273,-250,4,3,1,27,0,0
49312,-62.5,4,3,1,27,0,0
49351,-250,4,3,1,27,0,0
49391,-100,4,3,1,27,0,0
50484,-66.6666666666667,4,3,1,27,0,0
50523,-200,4,3,1,27,0,0
50562,-100,4,3,1,27,0,0
52516,-66.6666666666667,4,3,1,27,0,0
52672,-200,4,3,1,27,0,0
52828,-66.6666666666667,4,3,1,27,0,0
52880,-200,4,3,1,27,0,0
52932,-66.6666666666667,4,3,1,27,0,0
52984,-200,4,3,1,27,0,0
53036,-66.6666666666667,4,3,1,27,0,0
53088,-200,4,3,1,27,0,0
53141,-66.6666666666667,4,3,1,27,0,0
53219,-200,4,3,1,27,0,0
53297,-66.6666666666667,4,3,1,27,0,0
53375,-200,4,3,1,27,0,0
53453,-500,4,3,1,27,0,0
53609,-55.5555555555556,4,3,1,27,0,0
53766,-200,4,3,1,27,0,0
62516,-166.666666666667,4,3,1,27,0,0
63766,-142.857142857143,4,3,1,27,0,0
65016,-133.333333333333,4,3,1,27,0,0
66266,-125,4,3,1,27,0,0
67516,-117.647058823529,4,3,1,27,0,0
68766,-111.111111111111,4,3,1,27,0,0
71266,-100,4,3,1,27,0,0
86266,-99.009900990099,4,3,1,27,0,0
87516,-98.0392156862745,4,3,1,27,0,0
88766,-97.0873786407767,4,3,1,27,0,0
90016,-96.1538461538461,4,3,1,27,0,0
90641,-95.2380952380952,4,3,1,27,0,0
91266,-250,4,3,1,27,0,0
91422,-62.5,4,3,1,27,0,0
91578,-100,4,3,1,27,0,0
93453,-58.8235294117647,4,3,1,27,0,0
93492,-333.333333333333,4,3,1,27,0,0
93531,-58.8235294117647,4,3,1,27,0,0
93570,-333.333333333333,4,3,1,27,0,0
93609,-58.8235294117647,4,3,1,27,0,0
93648,-333.333333333333,4,3,1,27,0,0
93687,-58.8235294117647,4,3,1,27,0,0
93726,-333.333333333333,4,3,1,27,0,0
93766,-100,4,3,1,27,0,1
98453,-66.6666666666667,4,3,1,27,0,1
98492,-200,4,3,1,27,0,1
98531,-66.6666666666667,4,3,1,27,0,1
98570,-200,4,3,1,27,0,1
98609,-66.6666666666667,4,3,1,27,0,1
98648,-200,4,3,1,27,0,1
98687,-66.6666666666667,4,3,1,27,0,1
98726,-200,4,3,1,27,0,1
98766,-100,4,3,1,27,0,1
101891,-62.5,4,3,1,27,0,1
102008,-250,4,3,1,27,0,1
102125,-62.5,4,3,1,27,0,1
102242,-250,4,3,1,27,0,1
102359,-62.5,4,3,1,27,0,1
102476,-250,4,3,1,27,0,1
102594,-62.5,4,3,1,27,0,1
102711,-250,4,3,1,27,0,1
102828,-62.5,4,3,1,27,0,1
102945,-250,4,3,1,27,0,1
103062,-62.5,4,3,1,27,0,1
103180,-250,4,3,1,27,0,1
103297,-62.5,4,3,1,27,0,1
103375,-250,4,3,1,27,0,1
103453,-100,4,3,1,27,0,1
103766,-500,4,3,1,27,0,1
103922,-55.5555555555556,4,3,1,27,0,1
104078,-111.111111111111,4,3,1,27,0,1
104391,-100,4,3,1,27,0,1
107620,-52.6315789473684,4,3,1,27,0,1
107672,-1000,4,3,1,27,0,1
107724,-100,4,3,1,27,0,1
107828,-52.6315789473684,4,3,1,27,0,1
107880,-1000,4,3,1,27,0,1
107932,-100,4,3,1,27,0,1
108036,-52.6315789473684,4,3,1,27,0,1
108088,-1000,4,3,1,27,0,1
108141,-100,4,3,1,27,0,1
108245,-52.6315789473684,4,3,1,27,0,1
108297,-1000,4,3,1,27,0,1
108349,-100,4,3,1,27,0,1
108453,-52.6315789473684,4,3,1,27,0,1
108505,-1000,4,3,1,27,0,1
108557,-100,4,3,1,27,0,1
108661,-52.6315789473684,4,3,1,27,0,1
108713,-1000,4,3,1,27,0,1
108766,-100,4,3,1,27,0,1
113453,-500,4,3,1,27,0,0
113609,-55.5555555555556,4,3,1,27,0,0
113766,-100,4,3,1,27,0,0
122984,-71.4285714285714,4,3,1,27,0,0
123023,-166.666666666667,4,3,1,27,0,0
123062,-71.4285714285714,4,3,1,27,0,0
123101,-166.666666666667,4,3,1,27,0,0
123141,-100,4,3,1,27,0,0
123453,-58.8235294117647,4,3,1,27,0,0
123492,-333.333333333333,4,3,1,27,0,0
123531,-58.8235294117647,4,3,1,27,0,0
123570,-333.333333333333,4,3,1,27,0,0
123609,-58.8235294117647,4,3,1,27,0,0
123648,-333.333333333333,4,3,1,27,0,0
123687,-58.8235294117647,4,3,1,27,0,0
123726,-333.333333333333,4,3,1,27,0,0
123766,-100,4,3,1,27,0,1
127620,-52.6315789473684,4,3,1,27,0,1
127672,-1000,4,3,1,27,0,1
127724,-100,4,3,1,27,0,1
127828,-52.6315789473684,4,3,1,27,0,1
127880,-1000,4,3,1,27,0,1
127932,-100,4,3,1,27,0,1
128036,-52.6315789473684,4,3,1,27,0,1
128088,-1000,4,3,1,27,0,1
128141,-100,4,3,1,27,0,1
128245,-52.6315789473684,4,3,1,27,0,1
128297,-1000,4,3,1,27,0,1
128349,-100,4,3,1,27,0,1
128453,-52.6315789473684,4,3,1,27,0,1
128505,-1000,4,3,1,27,0,1
128557,-100,4,3,1,27,0,1
128661,-52.6315789473684,4,3,1,27,0,1
128713,-1000,4,3,1,27,0,1
128766,-100,4,3,1,27,0,1
133453,-111.111111111111,4,3,1,27,0,0
133766,-100,4,3,1,27,0,0
134078,-76.9230769230769,4,3,1,27,0,0

[HitObjects]
36,192,1266,5,2,0:0:0:0:
182,192,1266,1,0,0:0:0:0:
329,192,1266,1,0,0:0:0:0:
475,192,1266,1,0,0:0:0:0:
402,192,2516,1,0,0:0:0:0:
256,192,3141,1,0,0:0:0:0:
329,192,3453,1,0,0:0:0:0:
475,192,3766,1,0,0:0:0:0:
402,192,4391,1,0,0:0:0:0:
329,192,5016,1,0,0:0:0:0:
402,192,5641,1,0,0:0:0:0:
256,192,6266,1,2,0:0:0:0:
109,192,6266,1,0,0:0:0:0:
36,192,6266,1,0,0:0:0:0:
182,192,7516,1,0,0:0:0:0:
402,192,8141,1,0,0:0:0:0:
256,192,8766,1,2,0:0:0:0:
36,192,8766,1,0,0:0:0:0:
109,192,8766,1,0,0:0:0:0:
402,192,10016,1,2,0:0:0:0:
182,192,10016,1,0,0:0:0:0:
256,192,10016,1,0,0:0:0:0:
36,192,10016,1,0,0:0:0:0:
475,192,11266,1,0,0:0:0:0:
36,192,13141,1,0,0:0:0:0:
182,192,13219,1,0,0:0:0:0:
329,192,13297,1,0,0:0:0:0:
475,192,13375,1,0,0:0:0:0:
256,192,13453,1,0,0:0:0:0:
36,192,13531,1,0,0:0:0:0:
329,192,13609,1,0,0:0:0:0:
109,192,13687,1,0,0:0:0:0:
402,192,13766,1,4,0:0:0:0:
256,192,13766,1,0,0:0:0:0:
475,192,13766,1,0,0:0:0:0:
182,192,13766,1,0,0:0:0:0:
329,192,14234,128,0,14312:0:0:0:0:
182,192,14703,128,0,14781:0:0:0:0:
475,192,15172,128,0,15250:0:0:0:0:
329,192,15641,128,0,15719:0:0:0:0:
475,192,15953,128,0,16031:0:0:0:0:
36,192,16266,1,4,0:0:0:0:
109,192,16266,1,0,0:0:0:0:
182,192,16578,128,0,16656:0:0:0:0:
256,192,17047,128,0,17125:0:0:0:0:
475,192,17516,128,0,17594:0:0:0:0:
402,192,17984,128,0,18062:0:0:0:0:
36,192,18297,128,0,18375:0:0:0:0:
109,192,18453,128,0,18531:0:0:0:0:
182,192,18609,128,0,18687:0:0:0:0:
475,192,18609,1,0,0:0:0:0:
402,192,18687,1,0,0:0:0:0:
36,192,18766,1,4,0:0:0:0:
329,192,18766,1,0,0:0:0:0:
256,192,18766,1,0,0:0:0:0:
109,192,18922,1,0,0:0:0:0:
475,192,18922,1,0,0:0:0:0:
402,192,19000,1,0,0:0:0:0:
182,192,19078,1,0,0:0:0:0:
329,192,19078,1,0,0:0:0:0:
36,192,19234,1,0,0:0:0:0:
109,192,19312,1,0,0:0:0:0:
182,192,19391,1,0,0:0:0:0:
475,192,19547,1,0,0:0:0:0:
402,192,19599,1,0,0:0:0:0:
329,192,19651,1,0,0:0:0:0:
36,192,19703,1,0,0:0:0:0:
256,192,19703,1,0,0:0:0:0:
109,192,19781,1,0,0:0:0:0:
182,192,19859,1,0,0:0:0:0:
329,192,20016,1,4,0:0:0:0:
402,192,20016,1,0,0:0:0:0:
475,192,20016,1,0,0:0:0:0:
256,192,20172,1,0,0:0:0:0:
182,192,20328,1,0,0:0:0:0:
36,192,20328,1,0,0:0:0:0:
329,192,20484,1,0,0:0:0:0:
402,192,20562,1,0,0:0:0:0:
36,192,20641,1,0,0:0:0:0:
475,192,20641,1,0,0:0:0:0:
109,192,20680,1,0,0:0:0:0:
182,192,20719,1,0,0:0:0:0:
256,192,20758,1,0,0:0:0:0:
329,192,20797,1,0,0:0:0:0:
475,192,20875,1,0,0:0:0:0:
256,192,20953,1,0,0:0:0:0:
402,192,21031,1,0,0:0:0:0:
182,192,21109,1,0,0:0:0:0:
329,192,21187,1,0,0:0:0:0:
36,192,21266,1,4,0:0:0:0:
109,192,21266,1,0,0:0:0:0:
475,192,21266,1,0,0:0:0:0:
475,192,21422,1,8,0:0:0:0:
109,192,21578,1,0,0:0:0:0:
329,192,21656,1,0,0:0:0:0:
182,192,21734,1,0,0:0:0:0:
402,192,21812,1,0,0:0:0:0:
109,192,21891,1,4,0:0:0:0:
36,192,21891,1,0,0:0:0:0:
475,192,21891,1,0,0:0:0:0:
36,192,22047,1,8,0:0:0:0:
329,192,22125,1,0,0:0:0:0:
182,192,22203,1,0,0:0:0:0:
475,192,22281,1,0,0:0:0:0:
109,192,22359,1,0,0:0:0:0:
182,192,22437,1,0,0:0:0:0:
256,192,22516,1,0,0:0:0:0:
329,192,22594,1,0,0:0:0:0:
36,192,22672,1,0,0:0:0:0:
109,192,22750,1,0,0:0:0:0:
182,192,22828,1,0,0:0:0:0:
256,192,22906,1,0,0:0:0:0:
329,192,22984,1,0,0:0:0:0:
402,192,23062,1,0,0:0:0:0:
475,192,23141,1,0,0:0:0:0:
402,192,23193,1,0,0:0:0:0:
329,192,23245,1,0,0:0:0:0:
256,192,23297,1,0,0:0:0:0:
182,192,23349,1,0,0:0:0:0:
109,192,23401,1,0,0:0:0:0:
36,192,23453,1,0,0:0:0:0:
475,192,23453,1,0,0:0:0:0:
36,192,23766,1,0,0:0:0:0:
256,192,23766,1,0,0:0:0:0:
475,192,23766,1,0,0:0:0:0:
402,192,23844,1,0,0:0:0:0:
329,192,23922,1,0,0:0:0:0:
109,192,23922,1,0,0:0:0:0:
256,192,24000,1,0,0:0:0:0:
36,192,24078,1,8,0:0:0:0:
182,192,24078,1,0,0:0:0:0:
475,192,24078,1,0,0:0:0:0:
402,192,24156,1,0,0:0:0:0:
329,192,24234,1,0,0:0:0:0:
109,192,24234,1,0,0:0:0:0:
256,192,24312,1,0,0:0:0:0:
36,192,24391,1,0,0:0:0:0:
402,192,24391,1,0,0:0:0:0:
109,192,24469,1,0,0:0:0:0:
182,192,24547,1,0,0:0:0:0:
329,192,24547,1,0,0:0:0:0:
256,192,24625,1,0,0:0:0:0:
109,192,24703,1,8,0:0:0:0:
402,192,24703,1,0,0:0:0:0:
182,192,24781,1,0,0:0:0:0:
256,192,24859,1,0,0:0:0:0:
475,192,24859,1,0,0:0:0:0:
329,192,24937,1,0,0:0:0:0:
36,192,25016,1,4,0:0:0:0:
182,192,25016,1,0,0:0:0:0:
402,192,25016,1,0,0:0:0:0:
256,192,25094,1,0,0:0:0:0:
329,192,25172,1,0,0:0:0:0:
109,192,25172,1,0,0:0:0:0:
182,192,25250,1,0,0:0:0:0:
256,192,25328,1,8,0:0:0:0:
402,192,25328,1,0,0:0:0:0:
36,192,25406,1,0,0:0:0:0:
109,192,25484,1,0,0:0:0:0:
475,192,25484,1,0,0:0:0:0:
182,192,25562,1,0,0:0:0:0:
329,192,25641,1,0,0:0:0:0:
256,192,25641,1,0,0:0:0:0:
402,192,25719,1,0,0:0:0:0:
475,192,25797,1,0,0:0:0:0:
182,192,25797,1,0,0:0:0:0:
109,192,25875,1,0,0:0:0:0:
329,192,25953,1,8,0:0:0:0:
256,192,25992,1,0,0:0:0:0:
182,192,26031,1,0,0:0:0:0:
109,192,26070,1,0,0:0:0:0:
36,192,26109,1,0,0:0:0:0:
475,192,26109,1,0,0:0:0:0:
402,192,26148,1,0,0:0:0:0:
329,192,26187,1,0,0:0:0:0:
256,192,26226,1,0,0:0:0:0:
109,192,26266,1,4,0:0:0:0:
36,192,26266,1,0,0:0:0:0:
182,192,26266,128,0,26578:0:0:0:0:
402,192,26422,1,0,0:0:0:0:
329,192,26578,1,0,0:0:0:0:
475,192,26578,1,0,0:0:0:0:
109,192,26578,1,0,0:0:0:0:
256,192,26734,1,0,0:0:0:0:
402,192,26734,1,0,0:0:0:0:
36,192,26891,1,4,0:0:0:0:
182,192,26891,1,0,0:0:0:0:
329,192,26891,1,0,0:0:0:0:
109,192,27047,1,0,0:0:0:0:
402,192,27047,1,0,0:0:0:0:
256,192,27125,1,0,0:0:0:0:
182,192,27203,1,0,0:0:0:0:
475,192,27203,1,0,0:0:0:0:
329,192,27281,1,0,0:0:0:0:
256,192,27359,1,0,0:0:0:0:
36,192,27359,1,0,0:0:0:0:
402,192,27437,1,0,0:0:0:0:
109,192,27437,1,0,0:0:0:0:
182,192,27516,1,4,0:0:0:0:
329,192,27516,1,0,0:0:0:0:
475,192,27516,1,0,0:0:0:0:
256,192,27594,1,0,0:0:0:0:
402,192,27672,1,0,0:0:0:0:
36,192,27672,1,0,0:0:0:0:
329,192,27750,1,0,0:0:0:0:
109,192,27750,1,0,0:0:0:0:
475,192,27828,1,0,0:0:0:0:
182,192,27828,1,0,0:0:0:0:
402,192,27906,1,0,0:0:0:0:
256,192,27984,1,0,0:0:0:0:
36,192,27984,1,0,0:0:0:0:
329,192,28062,1,0,0:0:0:0:
109,192,28062,1,0,0:0:0:0:
182,192,28141,1,4,0:0:0:0:
475,192,28141,1,0,0:0:0:0:
402,192,28219,1,0,0:0:0:0:
329,192,28297,1,0,0:0:0:0:
256,192,28297,1,0,0:0:0:0:
182,192,28375,1,0,0:0:0:0:
475,192,28375,1,0,0:0:0:0:
109,192,28453,1,0,0:0:0:0:
402,192,28453,1,0,0:0:0:0:
36,192,28531,1,0,0:0:0:0:
329,192,28531,1,0,0:0:0:0:
256,192,28609,1,0,0:0:0:0:
475,192,28609,1,0,0:0:0:0:
182,192,28687,1,0,0:0:0:0:
402,192,28687,1,0,0:0:0:0:
36,192,28766,1,4,0:0:0:0:
109,192,28766,1,0,0:0:0:0:
329,192,28766,1,0,0:0:0:0:
256,192,28766,1,0,0:0:0:0:
36,192,28922,1,0,0:0:0:0:
109,192,28922,1,0,0:0:0:0:
329,192,28922,1,0,0:0:0:0:
182,192,29078,1,4,0:0:0:0:
475,192,29078,1,0,0:0:0:0:
256,192,29078,1,0,0:0:0:0:
402,192,29078,1,0,0:0:0:0:
182,192,29234,1,0,0:0:0:0:
475,192,29234,1,0,0:0:0:0:
256,192,29234,1,0,0:0:0:0:
36,192,29391,1,4,0:0:0:0:
402,192,29391,1,0,0:0:0:0:
329,192,29391,1,0,0:0:0:0:
109,192,29391,1,0,0:0:0:0:
36,192,29547,1,0,0:0:0:0:
402,192,29547,1,0,0:0:0:0:
329,192,29547,1,0,0:0:0:0:
109,192,29703,1,4,0:0:0:0:
475,192,29703,1,0,0:0:0:0:
182,192,29703,1,0,0:0:0:0:
256,192,29703,1,0,0:0:0:0:
109,192,29859,1,0,0:0:0:0:
475,192,29859,1,0,0:0:0:0:
182,192,29859,1,0,0:0:0:0:
256,192,30016,1,4,0:0:0:0:
36,192,30016,1,0,0:0:0:0:
402,192,30016,1,0,0:0:0:0:
182,192,30094,1,0,0:0:0:0:
109,192,30172,1,8,0:0:0:0:
329,192,30172,1,0,0:0:0:0:
256,192,30250,1,0,0:0:0:0:
182,192,30328,1,4,0:0:0:0:
402,192,30328,1,0,0:0:0:0:
36,192,30328,1,0,0:0:0:0:
329,192,30406,1,0,0:0:0:0:
109,192,30484,1,8,0:0:0:0:
256,192,30484,1,0,0:0:0:0:
182,192,30562,1,0,0:0:0:0:
329,192,30641,1,4,0:0:0:0:
36,192,30641,1,0,0:0:0:0:
402,192,30641,1,0,0:0:0:0:
109,192,30680,1,0,0:0:0:0:
182,192,30719,1,0,0:0:0:0:
256,192,30758,1,0,0:0:0:0:
475,192,30797,1,4,0:0:0:0:
402,192,30836,1,0,0:0:0:0:
329,192,30875,1,0,0:0:0:0:
256,192,30914,1,0,0:0:0:0:
36,192,30953,1,4,0:0:0:0:
109,192,30992,1,0,0:0:0:0:
182,192,31031,1,0,0:0:0:0:
256,192,31070,1,0,0:0:0:0:
475,192,31109,1,4,0:0:0:0:
402,192,31148,1,0,0:0:0:0:
329,192,31187,1,0,0:0:0:0:
256,192,31226,1,0,0:0:0:0:
182,192,31266,1,4,0:0:0:0:
36,192,31344,1,0,0:0:0:0:
256,192,31422,1,0,0:0:0:0:
109,192,31500,1,0,0:0:0:0:
329,192,31578,1,0,0:0:0:0:
182,192,31656,1,0,0:0:0:0:
402,192,31734,1,0,0:0:0:0:
256,192,31812,1,0,0:0:0:0:
475,192,31891,1,0,0:0:0:0:
329,192,31969,1,0,0:0:0:0:
36,192,32047,1,0,0:0:0:0:
109,192,32099,1,0,0:0:0:0:
182,192,32151,1,0,0:0:0:0:
256,192,32203,1,0,0:0:0:0:
475,192,32281,1,0,0:0:0:0:
402,192,32359,1,0,0:0:0:0:
329,192,32437,1,0,0:0:0:0:
182,192,32516,1,0,0:0:0:0:
109,192,32516,1,0,0:0:0:0:
329,192,32594,1,0,0:0:0:0:
402,192,32594,1,0,0:0:0:0:
182,192,32672,1,0,0:0:0:0:
109,192,32672,1,0,0:0:0:0:
329,192,32750,1,0,0:0:0:0:
402,192,32750,1,0,0:0:0:0:
182,192,32828,1,0,0:0:0:0:
109,192,32828,1,0,0:0:0:0:
329,192,32984,1,0,0:0:0:0:
402,192,32984,1,0,0:0:0:0:
182,192,33062,1,0,0:0:0:0:
109,192,33062,1,0,0:0:0:0:
329,192,33141,1,0,0:0:0:0:
402,192,33141,1,0,0:0:0:0:
182,192,33219,1,0,0:0:0:0:
109,192,33219,1,0,0:0:0:0:
329,192,33297,1,0,0:0:0:0:
402,192,33297,1,0,0:0:0:0:
256,192,33453,1,8,0:0:0:0:
36,192,33453,1,0,0:0:0:0:
475,192,33453,1,0,0:0:0:0:
329,192,33766,128,0,34703:0:0:0:0:
182,192,33766,1,0,0:0:0:0:
109,192,34078,1,0,0:0:0:0:
182,192,34391,1,0,0:0:0:0:
109,192,34469,1,0,0:0:0:0:
36,192,34547,1,0,0:0:0:0:
109,192,34625,1,0,0:0:0:0:
182,192,34703,128,0,34859:0:0:0:0:
475,192,34703,1,0,0:0:0:0:
402,192,34859,128,0,35016:0:0:0:0:
109,192,35016,128,0,35953:0:0:0:0:
329,192,35016,1,0,0:0:0:0:
402,192,35328,1,0,0:0:0:0:
329,192,35406,1,0,0:0:0:0:
256,192,35484,1,0,0:0:0:0:
182,192,35562,1,0,0:0:0:0:
256,192,35641,1,0,0:0:0:0:
329,192,35719,1,0,0:0:0:0:
402,192,35797,1,0,0:0:0:0:
475,192,35875,1,0,0:0:0:0:
329,192,35953,128,0,36266:0:0:0:0:
36,192,35953,1,0,0:0:0:0:
182,192,36266,128,0,36969:0:0:0:0:
402,192,36266,1,0,0:0:0:0:
475,192,36578,1,0,0:0:0:0:
329,192,36891,1,0,0:0:0:0:
256,192,36969,1,0,0:0:0:0:
182,192,37047,1,0,0:0:0:0:
256,192,37125,1,0,0:0:0:0:
329,192,37203,128,0,37359:0:0:0:0:
36,192,37203,1,0,0:0:0:0:
402,192,37359,128,0,37516:0:0:0:0:
109,192,37516,128,0,37828:0:0:0:0:
256,192,37516,1,0,0:0:0:0:
182,192,37828,1,0,0:0:0:0:
109,192,37906,1,0,0:0:0:0:
36,192,37984,1,0,0:0:0:0:
109,192,38062,1,0,0:0:0:0:
182,192,38141,128,0,38766:0:0:0:0:
329,192,38141,1,0,0:0:0:0:
402,192,38219,1,0,0:0:0:0:
475,192,38297,1,0,0:0:0:0:
402,192,38375,1,0,0:0:0:0:
109,192,38453,128,0,38766:0:0:0:0:
256,192,38453,1,0,0:0:0:0:
475,192,38609,1,0,0:0:0:0:
402,192,38661,1,0,0:0:0:0:
329,192,38713,1,0,0:0:0:0:
256,192,38766,128,0,39078:0:0:0:0:
36,192,38766,1,4,0:0:0:0:
36,192,39078,128,0,39391:0:0:0:0:
475,192,39078,1,0,0:0:0:0:
402,192,39391,1,0,0:0:0:0:
182,192,39469,1,0,0:0:0:0:
402,192,39547,1,0,0:0:0:0:
182,192,39625,1,0,0:0:0:0:
402,192,39703,1,0,0:0:0:0:
182,192,39781,1,0,0:0:0:0:
402,192,39859,1,0,0:0:0:0:
182,192,39937,1,0,0:0:0:0:
329,192,40016,128,0,40328:0:0:0:0:
475,192,40016,1,0,0:0:0:0:
109,192,40328,128,0,40641:0:0:0:0:
256,192,40328,1,0,0:0:0:0:
402,192,40406,1,0,0:0:0:0:
182,192,40484,1,0,0:0:0:0:
329,192,40562,1,0,0:0:0:0:
475,192,40641,1,0,0:0:0:0:
256,192,40719,1,0,0:0:0:0:
36,192,40797,1,0,0:0:0:0:
182,192,40875,1,0,0:0:0:0:
329,192,40953,128,0,41266:0:0:0:0:
402,192,40953,1,0,0:0:0:0:
182,192,41266,1,4,0:0:0:0:
36,192,41266,1,0,0:0:0:0:
256,192,41266,128,0,41578:0:0:0:0:
475,192,41422,1,0,0:0:0:0:
109,192,41422,1,0,0:0:0:0:
402,192,41500,1,0,0:0:0:0:
329,192,41578,1,0,0:0:0:0:
109,192,41734,1,0,0:0:0:0:
182,192,41786,1,0,0:0:0:0:
256,192,41838,1,0,0:0:0:0:
36,192,41891,1,4,0:0:0:0:
475,192,41891,128,0,42203:0:0:0:0:
329,192,41891,1,0,0:0:0:0:
402,192,42047,1,0,0:0:0:0:
182,192,42047,1,0,0:0:0:0:
329,192,42125,1,0,0:0:0:0:
256,192,42203,1,0,0:0:0:0:
109,192,42203,1,0,0:0:0:0:
182,192,42281,1,0,0:0:0:0:
36,192,42359,1,0,0:0:0:0:
475,192,42359,1,0,0:0:0:0:
402,192,42437,1,0,0:0:0:0:
109,192,42437,1,0,0:0:0:0:
329,192,42516,1,4,0:0:0:0:
182,192,42516,1,0,0:0:0:0:
256,192,42516,1,0,0:0:0:0:
36,192,42672,1,0,0:0:0:0:
475,192,42672,1,0,0:0:0:0:
109,192,42750,1,0,0:0:0:0:
402,192,42750,1,0,0:0:0:0:
182,192,42828,1,4,0:0:0:0:
329,192,42828,1,0,0:0:0:0:
256,192,42828,1,0,0:0:0:0:
36,192,42984,1,0,0:0:0:0:
475,192,42984,1,0,0:0:0:0:
329,192,43062,1,0,0:0:0:0:
182,192,43062,1,0,0:0:0:0:
109,192,43141,1,8,0:0:0:0:
402,192,43141,1,0,0:0:0:0:
109,192,43297,1,0,0:0:0:0:
402,192,43297,1,0,0:0:0:0:
36,192,43453,1,4,0:0:0:0:
475,192,43453,1,0,0:0:0:0:
329,192,43453,1,0,0:0:0:0:
182,192,43453,1,0,0:0:0:0:
182,192,43766,128,0,44391:0:0:0:0:
475,192,43766,1,0,0:0:0:0:
402,192,43922,1,0,0:0:0:0:
329,192,44078,1,0,0:0:0:0:
402,192,44234,1,0,0:0:0:0:
36,192,44391,1,0,0:0:0:0:
109,192,44547,1,0,0:0:0:0:
329,192,44547,1,0,0:0:0:0:
256,192,44625,128,0,44703:0:0:0:0:
182,192,44703,1,0,0:0:0:0:
329,192,44859,128,0,44937:0:0:0:0:
109,192,44859,1,0,0:0:0:0:
475,192,45016,128,0,45328:0:0:0:0:
36,192,45016,1,0,0:0:0:0:
182,192,45172,1,0,0:0:0:0:
402,192,45328,128,0,45432:0:0:0:0:
36,192,45328,1,0,0:0:0:0:
109,192,45432,128,0,45641:0:0:0:0:
256,192,45484,1,0,0:0:0:0:
329,192,45536,128,0,45641:0:0:0:0:
182,192,45641,128,0,45745:0:0:0:0:
475,192,45641,1,0,0:0:0:0:
36,192,45745,1,0,0:0:0:0:
402,192,45797,1,0,0:0:0:0:
329,192,45875,128,0,45953:0:0:0:0:
256,192,45953,128,0,46266:0:0:0:0:
109,192,45953,1,0,0:0:0:0:
402,192,46109,1,0,0:0:0:0:
329,192,46266,128,0,46969:0:0:0:0:
182,192,46266,1,0,0:0:0:0:
36,192,46422,1,0,0:0:0:0:
182,192,46578,1,0,0:0:0:0:
109,192,46734,1,0,0:0:0:0:
256,192,46891,1,0,0:0:0:0:
475,192,46891,1,0,0:0:0:0:
182,192,46969,1,0,0:0:0:0:
109,192,47047,1,0,0:0:0:0:
36,192,47047,1,0,0:0:0:0:
475,192,47125,128,0,47203:0:0:0:0:
256,192,47203,1,0,0:0:0:0:
402,192,47359,128,0,47516:0:0:0:0:
182,192,47359,1,0,0:0:0:0:
329,192,47516,128,0,47828:0:0:0:0:
109,192,47516,1,0,0:0:0:0:
36,192,47672,1,0,0:0:0:0:
182,192,47828,128,0,48036:0:0:0:0:
475,192,47828,1,0,0:0:0:0:
402,192,47932,128,0,48036:0:0:0:0:
36,192,47984,1,0,0:0:0:0:
256,192,48036,128,0,48141:0:0:0:0:
109,192,48141,128,0,48453:0:0:0:0:
329,192,48141,1,0,0:0:0:0:
402,192,48297,1,0,0:0:0:0:
36,192,48453,128,0,48766:0:0:0:0:
475,192,48453,1,0,0:0:0:0:
329,192,48453,1,0,0:0:0:0:
256,192,48531,1,0,0:0:0:0:
475,192,48609,1,0,0:0:0:0:
109,192,48609,1,0,0:0:0:0:
182,192,48687,1,0,0:0:0:0:
256,192,48766,1,4,0:0:0:0:
402,192,48766,1,0,0:0:0:0:
475,192,48766,128,0,49234:0:0:0:0:
182,192,48922,1,0,0:0:0:0:
256,192,49078,1,0,0:0:0:0:
329,192,49234,1,0,0:0:0:0:
109,192,49234,1,0,0:0:0:0:
402,192,49312,1,0,0:0:0:0:
475,192,49391,128,0,50484:0:0:0:0:
256,192,49391,1,0,0:0:0:0:
36,192,49547,1,0,0:0:0:0:
256,192,49703,1,0,0:0:0:0:
109,192,49703,1,0,0:0:0:0:
109,192,49859,1,0,0:0:0:0:
256,192,49859,1,0,0:0:0:0:
182,192,50016,1,4,0:0:0:0:
329,192,50016,1,0,0:0:0:0:
36,192,50016,1,0,0:0:0:0:
256,192,50172,1,0,0:0:0:0:
182,192,50328,1,0,0:0:0:0:
402,192,50484,1,0,0:0:0:0:
36,192,50484,1,0,0:0:0:0:
475,192,50562,128,0,51266:0:0:0:0:
182,192,50641,1,4,0:0:0:0:
329,192,50797,1,0,0:0:0:0:
36,192,50953,1,0,0:0:0:0:
182,192,50953,1,0,0:0:0:0:
256,192,51057,1,0,0:0:0:0:
36,192,51109,1,0,0:0:0:0:
402,192,51161,1,0,0:0:0:0:
109,192,51266,1,4,0:0:0:0:
36,192,51266,1,0,0:0:0:0:
329,192,51266,1,0,0:0:0:0:
182,192,51344,1,0,0:0:0:0:
402,192,51422,1,0,0:0:0:0:
475,192,51422,1,0,0:0:0:0:
329,192,51500,1,0,0:0:0:0:
109,192,51578,1,4,0:0:0:0:
36,192,51578,1,0,0:0:0:0:
182,192,51656,1,0,0:0:0:0:
402,192,51734,1,0,0:0:0:0:
475,192,51734,1,0,0:0:0:0:
329,192,51812,1,0,0:0:0:0:
36,192,51891,1,4,0:0:0:0:
109,192,51891,1,0,0:0:0:0:
182,192,51969,1,0,0:0:0:0:
256,192,51969,1,0,0:0:0:0:
329,192,52047,1,0,0:0:0:0:
402,192,52047,1,0,0:0:0:0:
109,192,52125,1,0,0:0:0:0:
182,192,52125,1,0,0:0:0:0:
402,192,52203,1,0,0:0:0:0:
475,192,52203,1,0,0:0:0:0:
329,192,52281,1,0,0:0:0:0:
256,192,52281,1,0,0:0:0:0:
182,192,52359,1,0,0:0:0:0:
109,192,52359,1,0,0:0:0:0:
402,192,52437,1,0,0:0:0:0:
329,192,52437,1,0,0:0:0:0:
256,192,52516,1,4,0:0:0:0:
182,192,52516,1,0,0:0:0:0:
36,192,52516,1,0,0:0:0:0:
402,192,52828,1,8,0:0:0:0:
109,192,52828,1,0,0:0:0:0:
109,192,52932,1,8,0:0:0:0:
402,192,52932,1,0,0:0:0:0:
182,192,53036,1,8,0:0:0:0:
329,192,53036,1,0,0:0:0:0:
182,192,53141,1,8,0:0:0:0:
329,192,53141,1,0,0:0:0:0:
182,192,53297,1,8,0:0:0:0:
329,192,53297,1,0,0:0:0:0:
109,192,53453,1,4,0:0:0:0:
256,192,53453,1,0,0:0:0:0:
402,192,53453,1,0,0:0:0:0:
36,192,53766,128,0,54859:0:0:0:0:
402,192,53766,128,0,56266:0:0:0:0:
256,192,53766,1,0,0:0:0:0:
109,192,54859,128,0,55641:0:0:0:0:
182,192,55641,128,0,56266:0:0:0:0:
256,192,56266,128,0,57203:0:0:0:0:
475,192,56266,128,0,58766:0:0:0:0:
109,192,57203,128,0,57516:0:0:0:0:
402,192,57516,128,0,58141:0:0:0:0:
329,192,58141,128,0,58766:0:0:0:0:
36,192,58766,128,0,61266:0:0:0:0:
256,192,58766,128,0,60016:0:0:0:0:
109,192,60016,128,0,60641:0:0:0:0:
182,192,60641,128,0,61266:0:0:0:0:
256,192,61266,128,0,61891:0:0:0:0:
475,192,61266,128,0,62516:0:0:0:0:
182,192,61891,128,0,63141:0:0:0:0:
36,192,62516,128,0,63766:0:0:0:0:
402,192,62516,128,0,63766:0:0:0:0:
256,192,63141,128,0,63766:0:0:0:0:
475,192,63766,128,0,66266:0:0:0:0:
329,192,63766,128,0,64391:0:0:0:0:
109,192,63766,1,0,0:0:0:0:
109,192,64391,128,0,65016:0:0:0:0:
182,192,65016,128,0,65641:0:0:0:0:
256,192,65641,128,0,66266:0:0:0:0:
109,192,66266,128,0,68766:0:0:0:0:
329,192,66266,128,0,66891:0:0:0:0:
182,192,66891,128,0,67203:0:0:0:0:
256,192,67203,128,0,67516:0:0:0:0:
402,192,67516,128,0,68141:0:0:0:0:
475,192,68141,128,0,68766:0:0:0:0:
36,192,68766,128,0,70016:0:0:0:0:
182,192,68766,128,0,70016:0:0:0:0:
402,192,68766,128,0,70016:0:0:0:0:
256,192,70016,128,0,70328:0:0:0:0:
109,192,70016,128,0,71266:0:0:0:0:
475,192,70016,1,0,0:0:0:0:
329,192,70328,128,0,70641:0:0:0:0:
475,192,70641,128,0,70875:0:0:0:0:
402,192,70875,128,0,71109:0:0:0:0:
329,192,71109,128,0,71266:0:0:0:0:
256,192,71266,128,0,72203:0:0:0:0:
109,192,72203,1,0,0:0:0:0:
402,192,72203,1,0,0:0:0:0:
36,192,72516,128,0,73141:0:0:0:0:
475,192,72516,128,0,73141:0:0:0:0:
329,192,72516,1,0,0:0:0:0:
256,192,72568,1,0,0:0:0:0:
182,192,72620,1,0,0:0:0:0:
402,192,72672,1,0,0:0:0:0:
329,192,72750,1,0,0:0:0:0:
109,192,72828,1,0,0:0:0:0:
182,192,72906,1,0,0:0:0:0:
402,192,72984,1,0,0:0:0:0:
329,192,73062,1,0,0:0:0:0:
109,192,73141,1,8,0:0:0:0:
182,192,73193,1,0,0:0:0:0:
402,192,73245,1,0,0:0:0:0:
329,192,73297,1,0,0:0:0:0:
109,192,73349,1,0,0:0:0:0:
182,192,73401,1,0,0:0:0:0:
475,192,73453,1,8,0:0:0:0:
402,192,73505,1,0,0:0:0:0:
329,192,73557,1,0,0:0:0:0:
182,192,73609,1,0,0:0:0:0:
109,192,73661,1,0,0:0:0:0:
36,192,73713,1,0,0:0:0:0:
475,192,73766,1,4,0:0:0:0:
402,192,73766,1,0,0:0:0:0:
256,192,73766,1,0,0:0:0:0:
109,192,73922,1,0,0:0:0:0:
329,192,73922,1,0,0:0:0:0:
182,192,74000,1,0,0:0:0:0:
475,192,74078,1,8,0:0:0:0:
36,192,74078,1,0,0:0:0:0:
402,192,74234,1,0,0:0:0:0:
182,192,74234,1,0,0:0:0:0:
256,192,74312,1,0,0:0:0:0:
475,192,74391,1,0,0:0:0:0:
109,192,74391,1,0,0:0:0:0:
256,192,74547,1,0,0:0:0:0:
36,192,74547,1,0,0:0:0:0:
329,192,74625,1,0,0:0:0:0:
475,192,74703,1,0,0:0:0:0:
182,192,74703,1,0,0:0:0:0:
109,192,74859,1,0,0:0:0:0:
329,192,74859,1,0,0:0:0:0:
402,192,74937,1,0,0:0:0:0:
256,192,75016,1,8,0:0:0:0:
475,192,75016,1,0,0:0:0:0:
36,192,75016,1,0,0:0:0:0:
182,192,75094,1,0,0:0:0:0:
329,192,75172,1,0,0:0:0:0:
109,192,75172,1,0,0:0:0:0:
256,192,75250,1,0,0:0:0:0:
402,192,75328,1,8,0:0:0:0:
36,192,75328,1,0,0:0:0:0:
329,192,75406,1,0,0:0:0:0:
182,192,75484,1,0,0:0:0:0:
475,192,75484,1,0,0:0:0:0:
402,192,75562,1,0,0:0:0:0:
36,192,75641,1,0,0:0:0:0:
256,192,75641,1,0,0:0:0:0:
329,192,75719,1,0,0:0:0:0:
475,192,75797,1,0,0:0:0:0:
182,192,75797,1,0,0:0:0:0:
256,192,75875,1,0,0:0:0:0:
402,192,75953,1,0,0:0:0:0:
109,192,75953,1,0,0:0:0:0:
182,192,76031,1,0,0:0:0:0:
36,192,76109,1,0,0:0:0:0:
329,192,76109,1,0,0:0:0:0:
109,192,76187,1,0,0:0:0:0:
256,192,76266,1,4,0:0:0:0:
402,192,76266,1,0,0:0:0:0:
475,192,76266,1,0,0:0:0:0:
109,192,76422,1,0,0:0:0:0:
329,192,76422,1,0,0:0:0:0:
256,192,76500,1,0,0:0:0:0:
402,192,76578,1,8,0:0:0:0:
36,192,76578,1,0,0:0:0:0:
109,192,76734,1,0,0:0:0:0:
182,192,76734,1,0,0:0:0:0:
256,192,76812,1,0,0:0:0:0:
329,192,76891,1,0,0:0:0:0:
475,192,76891,1,0,0:0:0:0:
402,192,77047,1,0,0:0:0:0:
182,192,77047,1,0,0:0:0:0:
109,192,77125,1,0,0:0:0:0:
256,192,77203,1,0,0:0:0:0:
475,192,77203,1,0,0:0:0:0:
109,192,77359,1,0,0:0:0:0:
402,192,77359,1,0,0:0:0:0:
36,192,77437,1,0,0:0:0:0:
182,192,77516,1,8,0:0:0:0:
329,192,77516,1,0,0:0:0:0:
475,192,77516,1,0,0:0:0:0:
256,192,77594,1,0,0:0:0:0:
109,192,77672,1,8,0:0:0:0:
402,192,77672,1,0,0:0:0:0:
182,192,77750,1,0,0:0:0:0:
36,192,77828,1,8,0:0:0:0:
329,192,77828,1,0,0:0:0:0:
402,192,77906,1,0,0:0:0:0:
109,192,77984,1,0,0:0:0:0:
256,192,77984,1,0,0:0:0:0:
329,192,78062,1,0,0:0:0:0:
182,192,78141,1,0,0:0:0:0:
475,192,78141,1,0,0:0:0:0:
402,192,78219,1,0,0:0:0:0:
329,192,78297,1,0,0:0:0:0:
36,192,78297,1,0,0:0:0:0:
256,192,78375,1,0,0:0:0:0:
329,192,78453,1,0,0:0:0:0:
182,192,78453,1,0,0:0:0:0:
256,192,78531,1,0,0:0:0:0:
182,192,78609,1,0,0:0:0:0:
475,192,78609,1,0,0:0:0:0:
109,192,78687,1,0,0:0:0:0:
402,192,78766,1,4,0:0:0:0:
36,192,78766,1,0,0:0:0:0:
256,192,78766,1,0,0:0:0:0:
182,192,78844,1,0,0:0:0:0:
109,192,78922,1,0,0:0:0:0:
475,192,78922,1,0,0:0:0:0:
256,192,79000,1,0,0:0:0:0:
182,192,79078,1,8,0:0:0:0:
402,192,79078,1,0,0:0:0:0:
256,192,79234,1,0,0:0:0:0:
36,192,79234,1,0,0:0:0:0:
402,192,79312,1,0,0:0:0:0:
329,192,79391,1,0,0:0:0:0:
182,192,79391,1,0,0:0:0:0:
109,192,79469,1,0,0:0:0:0:
36,192,79547,1,0,0:0:0:0:
402,192,79547,1,0,0:0:0:0:
182,192,79625,1,0,0:0:0:0:
109,192,79703,1,0,0:0:0:0:
475,192,79703,1,0,0:0:0:0:
329,192,79859,1,0,0:0:0:0:
182,192,79859,1,0,0:0:0:0:
402,192,79937,1,0,0:0:0:0:
475,192,80016,1,4,0:0:0:0:
36,192,80016,1,0,0:0:0:0:
256,192,80016,1,0,0:0:0:0:
182,192,80094,1,0,0:0:0:0:
109,192,80172,1,8,0:0:0:0:
329,192,80172,1,0,0:0:0:0:
475,192,80172,1,0,0:0:0:0:
256,192,80250,1,0,0:0:0:0:
182,192,80328,1,8,0:0:0:0:
36,192,80328,1,0,0:0:0:0:
402,192,80328,1,0,0:0:0:0:
109,192,80484,1,8,0:0:0:0:
329,192,80484,1,0,0:0:0:0:
182,192,80562,1,0,0:0:0:0:
36,192,80641,1,8,0:0:0:0:
475,192,80641,1,0,0:0:0:0:
256,192,80797,1,0,0:0:0:0:
109,192,80797,1,0,0:0:0:0:
329,192,80875,1,0,0:0:0:0:
182,192,80953,1,0,0:0:0:0:
475,192,80953,128,0,81031:0:0:0:0:
402,192,81031,128,0,81109:0:0:0:0:
36,192,81109,128,0,81187:0:0:0:0:
256,192,81109,1,0,0:0:0:0:
109,192,81187,128,0,81266:0:0:0:0:
329,192,81187,1,0,0:0:0:0:
182,192,81266,128,0,81344:0:0:0:0:
402,192,81266,1,0,0:0:0:0:
475,192,81266,1,4,0:0:0:0:
402,192,81422,1,8,0:0:0:0:
256,192,81422,1,0,0:0:0:0:
329,192,81578,1,8,0:0:0:0:
182,192,81578,1,0,0:0:0:0:
36,192,81578,128,0,81656:0:0:0:0:
109,192,81656,128,0,81734:0:0:0:0:
256,192,81734,1,0,0:0:0:0:
475,192,81734,128,0,81812:0:0:0:0:
182,192,81812,1,0,0:0:0:0:
402,192,81812,128,0,81891:0:0:0:0:
109,192,81891,1,4,0:0:0:0:
329,192,81891,128,0,81969:0:0:0:0:
36,192,81891,1,0,0:0:0:0:
109,192,82047,1,8,0:0:0:0:
256,192,82047,1,0,0:0:0:0:
329,192,82203,1,8,0:0:0:0:
182,192,82203,1,0,0:0:0:0:
475,192,82203,128,0,82281:0:0:0:0:
402,192,82281,128,0,82359:0:0:0:0:
36,192,82359,128,0,82437:0:0:0:0:
256,192,82359,1,0,0:0:0:0:
109,192,82437,128,0,82516:0:0:0:0:
329,192,82437,1,0,0:0:0:0:
182,192,82516,128,0,82594:0:0:0:0:
402,192,82516,128,0,82828:0:0:0:0:
475,192,82516,1,8,0:0:0:0:
36,192,82672,1,0,0:0:0:0:
109,192,82828,128,0,83141:0:0:0:0:
182,192,82828,1,8,0:0:0:0:
329,192,82828,1,0,0:0:0:0:
475,192,82984,1,0,0:0:0:0:
182,192,83141,128,0,83219:0:0:0:0:
329,192,83141,128,0,83219:0:0:0:0:
256,192,83141,1,0,0:0:0:0:
475,192,83297,128,0,83375:0:0:0:0:
36,192,83297,128,0,83375:0:0:0:0:
256,192,83297,1,0,0:0:0:0:
109,192,83453,1,0,0:0:0:0:
182,192,83531,1,0,0:0:0:0:
256,192,83609,1,0,0:0:0:0:
329,192,83687,1,0,0:0:0:0:
109,192,83766,128,2,85641:0:0:0:0:
402,192,83766,128,0,85641:0:0:0:0:
36,192,83766,1,0,0:0:0:0:
475,192,83766,1,0,0:0:0:0:
329,192,85641,1,0,0:0:0:0:
256,192,85797,1,0,0:0:0:0:
182,192,85953,1,0,0:0:0:0:
109,192,86109,1,0,0:0:0:0:
36,192,86266,1,0,0:0:0:0:
109,192,86344,1,0,0:0:0:0:
182,192,86422,1,0,0:0:0:0:
256,192,86500,1,0,0:0:0:0:
329,192,86578,1,0,0:0:0:0:
402,192,86656,1,0,0:0:0:0:
475,192,86734,1,0,0:0:0:0:
402,192,86812,1,0,0:0:0:0:
329,192,86891,1,0,0:0:0:0:
256,192,86969,1,0,0:0:0:0:
182,192,87047,1,0,0:0:0:0:
109,192,87125,1,0,0:0:0:0:
36,192,87203,1,0,0:0:0:0:
109,192,87281,1,0,0:0:0:0:
182,192,87359,1,0,0:0:0:0:
256,192,87437,1,0,0:0:0:0:
329,192,87516,1,0,0:0:0:0:
402,192,87594,1,0,0:0:0:0:
475,192,87672,1,0,0:0:0:0:
182,192,87750,1,0,0:0:0:0:
109,192,87828,1,0,0:0:0:0:
36,192,87906,1,0,0:0:0:0:
475,192,87984,1,0,0:0:0:0:
402,192,88062,1,0,0:0:0:0:
329,192,88141,1,0,0:0:0:0:
36,192,88219,1,0,0:0:0:0:
109,192,88297,1,0,0:0:0:0:
182,192,88375,1,0,0:0:0:0:
329,192,88453,1,0,0:0:0:0:
402,192,88531,1,0,0:0:0:0:
475,192,88609,1,0,0:0:0:0:
182,192,88687,1,0,0:0:0:0:
109,192,88766,1,0,0:0:0:0:
402,192,88844,1,0,0:0:0:0:
329,192,88922,1,0,0:0:0:0:
109,192,89000,1,0,0:0:0:0:
182,192,89078,1,0,0:0:0:0:
329,192,89156,1,0,0:0:0:0:
402,192,89234,1,0,0:0:0:0:
182,192,89312,1,0,0:0:0:0:
109,192,89391,1,0,0:0:0:0:
402,192,89469,1,0,0:0:0:0:
182,192,89547,1,0,0:0:0:0:
329,192,89625,1,0,0:0:0:0:
109,192,89703,1,0,0:0:0:0:
402,192,89781,1,0,0:0:0:0:
182,192,89859,1,0,0:0:0:0:
329,192,89937,1,0,0:0:0:0:
36,192,90016,1,0,0:0:0:0:
109,192,90068,1,0,0:0:0:0:
182,192,90120,1,0,0:0:0:0:
475,192,90172,1,0,0:0:0:0:
402,192,90224,1,0,0:0:0:0:
329,192,90276,1,0,0:0:0:0:
182,192,90328,1,0,0:0:0:0:
109,192,90380,1,0,0:0:0:0:
36,192,90432,1,0,0:0:0:0:
329,192,90484,1,0,0:0:0:0:
402,192,90536,1,0,0:0:0:0:
475,192,90588,1,0,0:0:0:0:
256,192,90641,1,0,0:0:0:0:
182,192,90680,1,0,0:0:0:0:
109,192,90719,1,0,0:0:0:0:
36,192,90758,1,0,0:0:0:0:
329,192,90797,1,0,0:0:0:0:
402,192,90836,1,0,0:0:0:0:
475,192,90875,1,0,0:0:0:0:
36,192,90914,1,0,0:0:0:0:
109,192,90953,1,0,0:0:0:0:
182,192,90992,1,0,0:0:0:0:
475,192,91031,1,0,0:0:0:0:
402,192,91070,1,0,0:0:0:0:
329,192,91109,1,0,0:0:0:0:
182,192,91148,1,0,0:0:0:0:
109,192,91187,1,0,0:0:0:0:
36,192,91226,1,0,0:0:0:0:
256,192,91266,1,0,0:0:0:0:
36,192,91578,1,8,0:0:0:0:
475,192,91578,1,0,0:0:0:0:
402,192,91578,1,0,0:0:0:0:
182,192,91656,1,0,0:0:0:0:
329,192,91734,1,0,0:0:0:0:
475,192,91812,1,0,0:0:0:0:
36,192,91891,1,0,0:0:0:0:
256,192,91891,1,0,0:0:0:0:
109,192,91969,1,0,0:0:0:0:
329,192,91969,1,0,0:0:0:0:
182,192,92047,1,0,0:0:0:0:
402,192,92047,1,0,0:0:0:0:
256,192,92125,1,0,0:0:0:0:
475,192,92125,1,0,0:0:0:0:
329,192,92203,1,0,0:0:0:0:
109,192,92281,1,0,0:0:0:0:
256,192,92359,1,0,0:0:0:0:
36,192,92437,1,0,0:0:0:0:
329,192,92516,1,0,0:0:0:0:
475,192,92594,1,0,0:0:0:0:
256,192,92672,1,0,0:0:0:0:
402,192,92750,1,0,0:0:0:0:
182,192,92828,1,0,0:0:0:0:
329,192,92906,1,0,0:0:0:0:
109,192,92984,1,0,0:0:0:0:
256,192,93062,1,0,0:0:0:0:
36,192,93141,1,0,0:0:0:0:
109,192,93219,1,0,0:0:0:0:
182,192,93297,1,0,0:0:0:0:
256,192,93375,1,0,0:0:0:0:
402,192,93453,1,0,0:0:0:0:
109,192,93453,1,0,0:0:0:0:
329,192,93531,1,0,0:0:0:0:
182,192,93531,1,0,0:0:0:0:
36,192,93609,1,0,0:0:0:0:
475,192,93609,1,0,0:0:0:0:
109,192,93687,1,0,0:0:0:0:
402,192,93687,1,0,0:0:0:0:
256,192,93766,128,0,93922:0:0:0:0:
182,192,93766,1,0,0:0:0:0:
329,192,93766,1,4,0:0:0:0:
36,192,93922,1,0,0:0:0:0:
256,192,94078,128,0,94234:0:0:0:0:
182,192,94078,1,0,0:0:0:0:
402,192,94078,1,0,0:0:0:0:
329,192,94234,128,0,94391:0:0:0:0:
109,192,94234,1,0,0:0:0:0:
36,192,94391,1,0,0:0:0:0:
475,192,94391,1,0,0:0:0:0:
329,192,94547,128,0,94703:0:0:0:0:
256,192,94547,1,0,0:0:0:0:
182,192,94703,128,0,94859:0:0:0:0:
36,192,94703,1,0,0:0:0:0:
475,192,94703,1,0,0:0:0:0:
329,192,94859,128,0,95016:0:0:0:0:
109,192,94859,1,0,0:0:0:0:
475,192,95016,128,0,95172:0:0:0:0:
36,192,95016,1,0,0:0:0:0:
256,192,95016,1,0,0:0:0:0:
182,192,95172,1,0,0:0:0:0:
402,192,95328,128,0,95484:0:0:0:0:
329,192,95328,1,0,0:0:0:0:
36,192,95328,1,0,0:0:0:0:
182,192,95484,1,0,0:0:0:0:
329,192,95641,128,0,95797:0:0:0:0:
475,192,95641,1,0,0:0:0:0:
36,192,95641,1,0,0:0:0:0:
182,192,95797,1,0,0:0:0:0:
402,192,95953,128,0,96109:0:0:0:0:
256,192,95953,1,0,0:0:0:0:
109,192,95953,1,0,0:0:0:0:
475,192,96109,1,0,0:0:0:0:
109,192,96266,128,0,96422:0:0:0:0:
182,192,96266,1,0,0:0:0:0:
329,192,96266,1,0,0:0:0:0:
402,192,96422,1,0,0:0:0:0:
109,192,96578,128,0,96734:0:0:0:0:
36,192,96578,1,0,0:0:0:0:
329,192,96578,1,0,0:0:0:0:
182,192,96734,128,0,96891:0:0:0:0:
475,192,96734,1,0,0:0:0:0:
402,192,96891,1,0,0:0:0:0:
256,192,96891,1,0,0:0:0:0:
182,192,97047,128,0,97203:0:0:0:0:
36,192,97047,1,0,0:0:0:0:
109,192,97203,128,0,97359:0:0:0:0:
402,192,97203,1,0,0:0:0:0:
475,192,97203,1,0,0:0:0:0:
182,192,97359,128,0,97516:0:0:0:0:
256,192,97359,1,0,0:0:0:0:
329,192,97516,128,0,97672:0:0:0:0:
475,192,97516,1,0,0:0:0:0:
36,192,97516,1,0,0:0:0:0:
182,192,97672,1,0,0:0:0:0:
475,192,97828,128,0,97984:0:0:0:0:
109,192,97828,1,0,0:0:0:0:
256,192,97828,1,0,0:0:0:0:
329,192,97984,1,0,0:0:0:0:
402,192,98141,128,0,98297:0:0:0:0:
182,192,98141,1,0,0:0:0:0:
36,192,98141,1,0,0:0:0:0:
256,192,98297,1,0,0:0:0:0:
109,192,98453,1,0,0:0:0:0:
402,192,98453,1,0,0:0:0:0:
182,192,98531,1,0,0:0:0:0:
329,192,98531,1,0,0:0:0:0:
36,192,98609,1,0,0:0:0:0:
475,192,98609,1,0,0:0:0:0:
109,192,98687,1,0,0:0:0:0:
402,192,98687,1,0,0:0:0:0:
256,192,98766,128,0,98922:0:0:0:0:
329,192,98766,1,4,0:0:0:0:
182,192,98766,1,0,0:0:0:0:
402,192,98922,1,0,0:0:0:0:
182,192,99078,128,0,99234:0:0:0:0:
475,192,99078,1,0,0:0:0:0:
36,192,99078,1,0,0:0:0:0:
109,192,99078,1,0,0:0:0:0:
329,192,99234,128,0,99391:0:0:0:0:
256,192,99234,1,0,0:0:0:0:
182,192,99391,1,0,0:0:0:0:
109,192,99391,1,0,0:0:0:0:
402,192,99391,1,0,0:0:0:0:
329,192,99547,128,0,99703:0:0:0:0:
256,192,99547,1,0,0:0:0:0:
109,192,99703,128,0,99859:0:0:0:0:
182,192,99703,1,0,0:0:0:0:
36,192,99703,1,0,0:0:0:0:
475,192,99703,1,0,0:0:0:0:
256,192,99859,128,0,100016:0:0:0:0:
329,192,99859,1,0,0:0:0:0:
402,192,100016,128,0,100172:0:0:0:0:
182,192,100016,1,0,0:0:0:0:
36,192,100016,1,0,0:0:0:0:
475,192,100016,1,0,0:0:0:0:
329,192,100172,1,0,0:0:0:0:
182,192,100328,128,0,100484:0:0:0:0:
256,192,100328,1,0,0:0:0:0:
36,192,100328,1,0,0:0:0:0:
475,192,100328,1,0,0:0:0:0:
329,192,100484,1,0,0:0:0:0:
475,192,100641,128,0,100797:0:0:0:0:
256,192,100641,1,0,0:0:0:0:
109,192,100641,1,0,0:0:0:0:
402,192,100641,1,0,0:0:0:0:
329,192,100797,1,0,0:0:0:0:
36,192,100797,1,0,0:0:0:0:
256,192,100849,1,0,0:0:0:0:
182,192,100901,1,0,0:0:0:0:
109,192,100953,1,0,0:0:0:0:
402,192,100953,128,0,101109:0:0:0:0:
182,192,101109,1,0,0:0:0:0:
329,192,101109,128,0,101266:0:0:0:0:
36,192,101266,1,4,0:0:0:0:
109,192,101266,1,0,0:0:0:0:
256,192,101266,1,0,0:0:0:0:
182,192,101422,1,0,0:0:0:0:
475,192,101422,1,0,0:0:0:0:
256,192,101500,1,0,0:0:0:0:
109,192,101578,1,0,0:0:0:0:
36,192,101578,1,0,0:0:0:0:
329,192,101578,1,0,0:0:0:0:
475,192,101734,1,0,0:0:0:0:
256,192,101734,1,0,0:0:0:0:
182,192,101734,1,0,0:0:0:0:
329,192,101812,1,0,0:0:0:0:
475,192,101891,1,4,0:0:0:0:
36,192,101891,1,0,0:0:0:0:
109,192,101891,1,0,0:0:0:0:
402,192,101891,1,0,0:0:0:0:
182,192,102125,1,4,0:0:0:0:
256,192,102125,1,0,0:0:0:0:
402,192,102125,1,0,0:0:0:0:
36,192,102125,1,0,0:0:0:0:
109,192,102359,1,4,0:0:0:0:
182,192,102359,1,0,0:0:0:0:
329,192,102359,1,0,0:0:0:0:
402,192,102359,1,0,0:0:0:0:
256,192,102594,1,4,0:0:0:0:
109,192,102594,1,0,0:0:0:0:
475,192,102594,1,0,0:0:0:0:
329,192,102594,1,0,0:0:0:0:
329,192,102828,1,4,0:0:0:0:
36,192,102828,1,0,0:0:0:0:
182,192,102828,1,0,0:0:0:0:
475,192,102828,1,0,0:0:0:0:
109,192,103062,1,4,0:0:0:0:
256,192,103062,1,0,0:0:0:0:
329,192,103062,1,0,0:0:0:0:
402,192,103062,1,0,0:0:0:0:
182,192,103297,1,4,0:0:0:0:
256,192,103297,1,0,0:0:0:0:
402,192,103297,1,0,0:0:0:0:
475,192,103297,1,0,0:0:0:0:
36,192,103453,1,0,0:0:0:0:
329,192,103453,128,0,103609:0:0:0:0:
109,192,103531,1,8,0:0:0:0:
475,192,103609,1,8,0:0:0:0:
182,192,103609,128,0,103766:0:0:0:0:
402,192,103687,1,0,0:0:0:0:
256,192,103766,1,0,0:0:0:0:
182,192,104078,1,4,0:0:0:0:
36,192,104078,1,0,0:0:0:0:
329,192,104078,1,0,0:0:0:0:
475,192,104078,1,0,0:0:0:0:
475,192,104391,1,0,0:0:0:0:
182,192,104391,1,0,0:0:0:0:
402,192,104469,1,0,0:0:0:0:
329,192,104547,1,0,0:0:0:0:
109,192,104547,1,0,0:0:0:0:
256,192,104625,1,0,0:0:0:0:
36,192,104703,1,0,0:0:0:0:
475,192,104703,1,0,0:0:0:0:
109,192,104781,1,0,0:0:0:0:
182,192,104859,1,0,0:0:0:0:
329,192,104859,1,0,0:0:0:0:
256,192,104937,1,0,0:0:0:0:
402,192,105016,1,0,0:0:0:0:
36,192,105016,1,0,0:0:0:0:
329,192,105094,1,0,0:0:0:0:
475,192,105172,1,0,0:0:0:0:
182,192,105172,1,0,0:0:0:0:
402,192,105250,1,0,0:0:0:0:
109,192,105328,1,0,0:0:0:0:
329,192,105328,1,0,0:0:0:0:
36,192,105406,1,0,0:0:0:0:
182,192,105484,1,0,0:0:0:0:
475,192,105484,1,0,0:0:0:0:
109,192,105562,1,0,0:0:0:0:
402,192,105641,1,0,0:0:0:0:
256,192,105641,1,0,0:0:0:0:
475,192,105719,1,0,0:0:0:0:
329,192,105797,1,0,0:0:0:0:
182,192,105797,1,0,0:0:0:0:
402,192,105875,1,0,0:0:0:0:
109,192,105953,1,0,0:0:0:0:
256,192,105953,1,0,0:0:0:0:
182,192,106031,1,0,0:0:0:0:
36,192,106109,1,0,0:0:0:0:
475,192,106109,1,0,0:0:0:0:
109,192,106187,1,0,0:0:0:0:
402,192,106266,1,4,0:0:0:0:
329,192,106266,1,0,0:0:0:0:
256,192,106266,1,0,0:0:0:0:
36,192,106422,1,0,0:0:0:0:
475,192,106422,1,0,0:0:0:0:
109,192,106500,1,0,0:0:0:0:
402,192,106500,1,0,0:0:0:0:
182,192,106578,1,4,0:0:0:0:
329,192,106578,1,0,0:0:0:0:
182,192,106734,1,8,0:0:0:0:
329,192,106734,1,0,0:0:0:0:
256,192,106734,1,0,0:0:0:0:
36,192,106891,1,0,0:0:0:0:
109,192,106969,1,0,0:0:0:0:
182,192,107047,1,8,0:0:0:0:
329,192,107047,1,0,0:0:0:0:
475,192,107047,1,0,0:0:0:0:
182,192,107203,1,4,0:0:0:0:
329,192,107203,1,0,0:0:0:0:
475,192,107203,1,0,0:0:0:0:
36,192,107359,1,8,0:0:0:0:
256,192,107359,1,0,0:0:0:0:
109,192,107437,1,8,0:0:0:0:
329,192,107437,1,0,0:0:0:0:
182,192,107516,128,0,107620:0:0:0:0:
402,192,107516,128,0,107620:0:0:0:0:
256,192,107724,128,0,107828:0:0:0:0:
475,192,107724,128,0,107828:0:0:0:0:
402,192,107932,128,0,108036:0:0:0:0:
109,192,107932,128,0,108036:0:0:0:0:
329,192,108141,128,0,108245:0:0:0:0:
36,192,108141,128,0,108245:0:0:0:0:
402,192,108349,128,0,108453:0:0:0:0:
182,192,108349,128,0,108453:0:0:0:0:
256,192,108557,128,0,108661:0:0:0:0:
36,192,108557,128,0,108661:0:0:0:0:
182,192,108766,128,0,109703:0:0:0:0:
475,192,108766,1,4,0:0:0:0:
402,192,108766,1,0,0:0:0:0:
109,192,108766,1,0,0:0:0:0:
329,192,108844,1,0,0:0:0:0:
256,192,108922,1,0,0:0:0:0:
109,192,109000,1,0,0:0:0:0:
475,192,109078,1,0,0:0:0:0:
36,192,109078,1,0,0:0:0:0:
402,192,109078,1,0,0:0:0:0:
329,192,109156,1,0,0:0:0:0:
256,192,109234,1,0,0:0:0:0:
109,192,109312,1,0,0:0:0:0:
475,192,109391,1,0,0:0:0:0:
36,192,109391,1,0,0:0:0:0:
402,192,109391,1,0,0:0:0:0:
329,192,109469,1,0,0:0:0:0:
256,192,109547,1,0,0:0:0:0:
109,192,109625,1,0,0:0:0:0:
475,192,109703,1,0,0:0:0:0:
36,192,109703,1,0,0:0:0:0:
402,192,109781,1,0,0:0:0:0:
329,192,109859,1,0,0:0:0:0:
402,192,109937,1,0,0:0:0:0:
256,192,110016,128,0,110953:0:0:0:0:
36,192,110016,1,0,0:0:0:0:
475,192,110016,1,4,0:0:0:0:
109,192,110094,1,0,0:0:0:0:
182,192,110172,1,0,0:0:0:0:
402,192,110250,1,0,0:0:0:0:
475,192,110328,1,0,0:0:0:0:
36,192,110328,1,0,0:0:0:0:
109,192,110406,1,0,0:0:0:0:
329,192,110484,1,0,0:0:0:0:
402,192,110562,1,0,0:0:0:0:
475,192,110641,1,0,0:0:0:0:
36,192,110641,1,0,0:0:0:0:
109,192,110719,1,0,0:0:0:0:
182,192,110797,1,0,0:0:0:0:
329,192,110875,1,0,0:0:0:0:
402,192,110953,1,0,0:0:0:0:
36,192,110953,1,0,0:0:0:0:
109,192,111005,1,0,0:0:0:0:
182,192,111057,1,0,0:0:0:0:
475,192,111109,1,0,0:0:0:0:
256,192,111109,1,0,0:0:0:0:
402,192,111187,1,0,0:0:0:0:
36,192,111187,1,0,0:0:0:0:
329,192,111266,128,0,111891:0:0:0:0:
109,192,111266,1,4,0:0:0:0:
182,192,111344,1,0,0:0:0:0:
36,192,111422,1,0,0:0:0:0:
475,192,111422,1,0,0:0:0:0:
256,192,111500,1,0,0:0:0:0:
109,192,111578,1,0,0:0:0:0:
402,192,111578,1,0,0:0:0:0:
182,192,111656,1,0,0:0:0:0:
36,192,111734,1,0,0:0:0:0:
256,192,111734,1,0,0:0:0:0:
109,192,111812,1,0,0:0:0:0:
475,192,111891,128,0,112516:0:0:0:0:
182,192,111891,1,4,0:0:0:0:
329,192,111969,1,0,0:0:0:0:
109,192,112047,1,0,0:0:0:0:
402,192,112125,1,0,0:0:0:0:
256,192,112203,1,0,0:0:0:0:
182,192,112242,1,0,0:0:0:0:
109,192,112281,1,0,0:0:0:0:
36,192,112320,1,0,0:0:0:0:
402,192,112359,1,0,0:0:0:0:
329,192,112398,1,0,0:0:0:0:
256,192,112437,1,0,0:0:0:0:
182,192,112476,1,0,0:0:0:0:
109,192,112516,128,0,113141:0:0:0:0:
402,192,112516,1,4,0:0:0:0:
329,192,112594,1,0,0:0:0:0:
256,192,112672,1,0,0:0:0:0:
182,192,112750,1,0,0:0:0:0:
475,192,112828,1,4,0:0:0:0:
402,192,112906,1,0,0:0:0:0:
329,192,112984,1,0,0:0:0:0:
256,192,113062,1,0,0:0:0:0:
36,192,113141,128,0,113453:0:0:0:0:
182,192,113141,1,0,0:0:0:0:
475,192,113141,1,8,0:0:0:0:
182,192,113297,1,8,0:0:0:0:
475,192,113297,1,0,0:0:0:0:
256,192,113453,1,4,0:0:0:0:
329,192,113453,1,0,0:0:0:0:
402,192,113453,1,0,0:0:0:0:
109,192,113766,128,0,115016:0:0:0:0:
475,192,113766,1,0,0:0:0:0:
329,192,113922,1,0,0:0:0:0:
475,192,114078,1,0,0:0:0:0:
329,192,114234,1,0,0:0:0:0:
475,192,114391,1,0,0:0:0:0:
256,192,114469,1,0,0:0:0:0:
402,192,114547,1,0,0:0:0:0:
182,192,114625,1,0,0:0:0:0:
329,192,114703,1,0,0:0:0:0:
475,192,114859,1,0,0:0:0:0:
329,192,115016,128,0,115953:0:0:0:0:
182,192,115016,1,0,0:0:0:0:
36,192,115172,1,0,0:0:0:0:
256,192,115328,1,0,0:0:0:0:
182,192,115406,1,0,0:0:0:0:
109,192,115484,1,0,0:0:0:0:
36,192,115562,1,0,0:0:0:0:
475,192,115641,1,0,0:0:0:0:
402,192,115719,1,0,0:0:0:0:
256,192,115797,1,0,0:0:0:0:
182,192,115875,1,0,0:0:0:0:
109,192,115953,128,0,116266:0:0:0:0:
475,192,116109,1,0,0:0:0:0:
402,192,116266,128,0,117203:0:0:0:0:
182,192,116266,1,0,0:0:0:0:
256,192,116422,1,0,0:0:0:0:
329,192,116578,1,0,0:0:0:0:
256,192,116734,1,0,0:0:0:0:
182,192,116891,1,0,0:0:0:0:
475,192,116969,1,0,0:0:0:0:
329,192,117047,1,0,0:0:0:0:
256,192,117125,1,0,0:0:0:0:
109,192,117203,1,0,0:0:0:0:
182,192,117281,1,0,0:0:0:0:
402,192,117359,128,0,117516:0:0:0:0:
256,192,117359,1,0,0:0:0:0:
329,192,117516,128,0,118453:0:0:0:0:
36,192,117516,1,0,0:0:0:0:
182,192,117672,1,0,0:0:0:0:
475,192,117828,1,0,0:0:0:0:
36,192,117984,1,0,0:0:0:0:
109,192,118062,1,0,0:0:0:0:
182,192,118141,1,0,0:0:0:0:
256,192,118219,1,0,0:0:0:0:
402,192,118297,1,0,0:0:0:0:
475,192,118375,1,0,0:0:0:0:
36,192,118453,1,0,0:0:0:0:
182,192,118531,1,0,0:0:0:0:
329,192,118609,1,0,0:0:0:0:
402,192,118687,1,0,0:0:0:0:
475,192,118766,128,0,119391:0:0:0:0:
256,192,118766,1,4,0:0:0:0:
109,192,118922,1,0,0:0:0:0:
256,192,119078,1,0,0:0:0:0:
402,192,119234,1,0,0:0:0:0:
256,192,119391,1,0,0:0:0:0:
36,192,119469,128,0,119625:0:0:0:0:
182,192,119547,1,0,0:0:0:0:
402,192,119625,128,0,119859:0:0:0:0:
109,192,119703,1,0,0:0:0:0:
329,192,119859,128,0,120016:0:0:0:0:
36,192,119859,1,0,0:0:0:0:
256,192,120016,128,0,120484:0:0:0:0:
475,192,120016,1,4,0:0:0:0:
109,192,120172,1,0,0:0:0:0:
475,192,120328,1,0,0:0:0:0:
402,192,120406,1,0,0:0:0:0:
329,192,120484,1,0,0:0:0:0:
402,192,120562,1,0,0:0:0:0:
475,192,120641,1,0,0:0:0:0:
182,192,120641,1,0,0:0:0:0:
109,192,120719,1,0,0:0:0:0:
36,192,120797,1,0,0:0:0:0:
329,192,120797,1,0,0:0:0:0:
402,192,120875,1,0,0:0:0:0:
475,192,120953,128,0,121266:0:0:0:0:
182,192,120953,1,0,0:0:0:0:
256,192,121109,1,0,0:0:0:0:
36,192,121266,1,4,0:0:0:0:
109,192,121266,1,0,0:0:0:0:
402,192,121266,128,0,121578:0:0:0:0:
329,192,121266,1,0,0:0:0:0:
182,192,121422,1,0,0:0:0:0:
256,192,121500,1,0,0:0:0:0:
329,192,121578,1,0,0:0:0:0:
182,192,121734,1,0,0:0:0:0:
256,192,121786,1,0,0:0:0:0:
329,192,121838,1,0,0:0:0:0:
109,192,121891,128,0,122203:0:0:0:0:
36,192,121891,1,0,0:0:0:0:
475,192,121891,1,4,0:0:0:0:
402,192,121891,1,0,0:0:0:0:
329,192,122047,1,0,0:0:0:0:
256,192,122125,1,0,0:0:0:0:
182,192,122203,1,0,0:0:0:0:
329,192,122359,1,0,0:0:0:0:
256,192,122411,1,0,0:0:0:0:
182,192,122463,1,0,0:0:0:0:
475,192,122516,128,0,122828:0:0:0:0:
402,192,122516,1,4,0:0:0:0:
109,192,122516,1,0,0:0:0:0:
36,192,122516,1,0,0:0:0:0:
256,192,122672,1,0,0:0:0:0:
329,192,122750,1,0,0:0:0:0:
402,192,122828,1,0,0:0:0:0:
36,192,122828,1,0,0:0:0:0:
182,192,122828,1,0,0:0:0:0:
109,192,122984,1,8,0:0:0:0:
329,192,122984,1,0,0:0:0:0:
475,192,123062,1,8,0:0:0:0:
182,192,123062,1,0,0:0:0:0:
402,192,123141,1,8,0:0:0:0:
256,192,123141,1,0,0:0:0:0:
36,192,123141,1,0,0:0:0:0:
256,192,123297,1,8,0:0:0:0:
475,192,123297,1,0,0:0:0:0:
109,192,123297,1,0,0:0:0:0:
402,192,123453,1,0,0:0:0:0:
182,192,123453,1,0,0:0:0:0:
109,192,123531,1,0,0:0:0:0:
329,192,123531,1,0,0:0:0:0:
475,192,123609,1,0,0:0:0:0:
256,192,123609,1,0,0:0:0:0:
402,192,123687,1,0,0:0:0:0:
182,192,123687,1,0,0:0:0:0:
329,192,123766,1,4,0:0:0:0:
109,192,123766,1,0,0:0:0:0:
36,192,123766,1,0,0:0:0:0:
256,192,123844,1,0,0:0:0:0:
182,192,123922,1,0,0:0:0:0:
475,192,123922,1,0,0:0:0:0:
402,192,124000,1,0,0:0:0:0:
36,192,124078,1,0,0:0:0:0:
329,192,124078,1,0,0:0:0:0:
256,192,124156,1,0,0:0:0:0:
109,192,124234,1,0,0:0:0:0:
475,192,124234,1,0,0:0:0:0:
402,192,124312,1,0,0:0:0:0:
36,192,124391,1,0,0:0:0:0:
329,192,124391,1,0,0:0:0:0:
256,192,124469,1,0,0:0:0:0:
182,192,124547,1,0,0:0:0:0:
475,192,124547,1,0,0:0:0:0:
402,192,124625,1,0,0:0:0:0:
36,192,124703,1,0,0:0:0:0:
329,192,124703,1,0,0:0:0:0:
256,192,124781,1,0,0:0:0:0:
109,192,124859,1,0,0:0:0:0:
402,192,124859,1,0,0:0:0:0:
329,192,124937,1,0,0:0:0:0:
475,192,125016,1,0,0:0:0:0:
182,192,125016,1,0,0:0:0:0:
402,192,125094,1,0,0:0:0:0:
329,192,125172,1,0,0:0:0:0:
109,192,125172,1,0,0:0:0:0:
182,192,125250,1,0,0:0:0:0:
475,192,125328,1,0,0:0:0:0:
256,192,125328,1,0,0:0:0:0:
329,192,125406,1,0,0:0:0:0:
402,192,125484,1,0,0:0:0:0:
36,192,125484,1,0,0:0:0:0:
109,192,125562,1,0,0:0:0:0:
475,192,125641,1,0,0:0:0:0:
182,192,125641,1,0,0:0:0:0:
256,192,125719,1,0,0:0:0:0:
402,192,125797,1,0,0:0:0:0:
36,192,125797,1,0,0:0:0:0:
329,192,125875,1,0,0:0:0:0:
475,192,125953,1,0,0:0:0:0:
109,192,125953,1,0,0:0:0:0:
256,192,126031,1,0,0:0:0:0:
402,192,126109,1,0,0:0:0:0:
182,192,126109,1,0,0:0:0:0:
109,192,126187,1,0,0:0:0:0:
329,192,126187,1,0,0:0:0:0:
256,192,126266,1,4,0:0:0:0:
36,192,126266,1,0,0:0:0:0:
475,192,126266,1,0,0:0:0:0:
402,192,126422,1,0,0:0:0:0:
109,192,126500,1,0,0:0:0:0:
329,192,126578,1,4,0:0:0:0:
182,192,126578,1,0,0:0:0:0:
256,192,126734,1,8,0:0:0:0:
182,192,126734,1,0,0:0:0:0:
329,192,126734,1,0,0:0:0:0:
36,192,126891,1,0,0:0:0:0:
182,192,126969,1,0,0:0:0:0:
329,192,127047,1,8,0:0:0:0:
475,192,127047,1,0,0:0:0:0:
402,192,127047,1,0,0:0:0:0:
329,192,127203,1,4,0:0:0:0:
182,192,127203,1,0,0:0:0:0:
109,192,127359,1,8,0:0:0:0:
256,192,127359,1,0,0:0:0:0:
182,192,127437,1,8,0:0:0:0:
329,192,127437,1,0,0:0:0:0:
256,192,127516,128,0,127620:0:0:0:0:
402,192,127516,128,0,127620:0:0:0:0:
329,192,127724,128,0,127828:0:0:0:0:
109,192,127724,128,0,127828:0:0:0:0:
475,192,127932,128,0,128036:0:0:0:0:
182,192,127932,128,0,128036:0:0:0:0:
256,192,128141,128,0,128245:0:0:0:0:
402,192,128141,128,0,128245:0:0:0:0:
182,192,128349,128,0,128453:0:0:0:0:
329,192,128349,128,0,128453:0:0:0:0:
109,192,128557,128,0,128661:0:0:0:0:
256,192,128557,128,0,128661:0:0:0:0:
182,192,128766,128,0,129703:0:0:0:0:
475,192,128766,1,0,0:0:0:0:
36,192,128766,1,4,0:0:0:0:
402,192,128844,1,0,0:0:0:0:
329,192,128922,1,0,0:0:0:0:
256,192,129000,1,0,0:0:0:0:
475,192,129078,1,0,0:0:0:0:
36,192,129078,1,0,0:0:0:0:
402,192,129156,1,0,0:0:0:0:
329,192,129234,1,0,0:0:0:0:
256,192,129312,1,0,0:0:0:0:
402,192,129391,1,0,0:0:0:0:
36,192,129391,1,0,0:0:0:0:
329,192,129469,1,0,0:0:0:0:
256,192,129547,1,0,0:0:0:0:
109,192,129625,1,0,0:0:0:0:
36,192,129703,1,0,0:0:0:0:
329,192,129703,1,0,0:0:0:0:
256,192,129781,1,0,0:0:0:0:
182,192,129859,1,0,0:0:0:0:
475,192,129859,1,0,0:0:0:0:
402,192,129937,1,0,0:0:0:0:
256,192,130016,128,0,130953:0:0:0:0:
36,192,130016,1,0,0:0:0:0:
329,192,130016,1,4,0:0:0:0:
109,192,130094,1,0,0:0:0:0:
182,192,130172,1,0,0:0:0:0:
329,192,130250,1,0,0:0:0:0:
402,192,130328,1,0,0:0:0:0:
36,192,130328,1,0,0:0:0:0:
109,192,130406,1,0,0:0:0:0:
182,192,130484,1,0,0:0:0:0:
329,192,130562,1,0,0:0:0:0:
109,192,130641,1,0,0:0:0:0:
475,192,130641,1,0,0:0:0:0:
182,192,130719,1,0,0:0:0:0:
329,192,130797,1,0,0:0:0:0:
402,192,130875,1,0,0:0:0:0:
475,192,130953,1,0,0:0:0:0:
182,192,130953,1,0,0:0:0:0:
256,192,131031,1,0,0:0:0:0:
329,192,131109,1,0,0:0:0:0:
36,192,131109,1,0,0:0:0:0:
402,192,131187,1,0,0:0:0:0:
109,192,131187,1,0,0:0:0:0:
182,192,131266,1,4,0:0:0:0:
475,192,131266,128,0,131891:0:0:0:0:
256,192,131344,1,0,0:0:0:0:
109,192,131422,1,0,0:0:0:0:
329,192,131422,1,0,0:0:0:0:
402,192,131500,1,0,0:0:0:0:
36,192,131578,1,0,0:0:0:0:
182,192,131578,1,0,0:0:0:0:
329,192,131656,1,0,0:0:0:0:
109,192,131734,1,0,0:0:0:0:
256,192,131812,1,0,0:0:0:0:
329,192,131891,1,4,0:0:0:0:
182,192,131891,1,0,0:0:0:0:
36,192,131969,1,0,0:0:0:0:
256,192,131969,1,0,0:0:0:0:
109,192,132047,1,0,0:0:0:0:
402,192,132047,1,0,0:0:0:0:
182,192,132125,1,0,0:0:0:0:
475,192,132125,1,0,0:0:0:0:
36,192,132203,1,0,0:0:0:0:
329,192,132203,1,0,0:0:0:0:
109,192,132242,1,0,0:0:0:0:
182,192,132281,1,0,0:0:0:0:
402,192,132281,1,0,0:0:0:0:
256,192,132320,1,0,0:0:0:0:
475,192,132359,1,0,0:0:0:0:
36,192,132359,1,0,0:0:0:0:
402,192,132398,1,0,0:0:0:0:
329,192,132437,1,0,0:0:0:0:
109,192,132437,1,0,0:0:0:0:
256,192,132476,1,0,0:0:0:0:
475,192,132516,1,4,0:0:0:0:
182,192,132516,1,0,0:0:0:0:
402,192,132594,1,0,0:0:0:0:
329,192,132672,1,0,0:0:0:0:
256,192,132750,1,0,0:0:0:0:
182,192,132828,1,2,0:0:0:0:
329,192,132828,1,0,0:0:0:0:
256,192,132906,1,0,0:0:0:0:
182,192,132984,1,2,0:0:0:0:
109,192,133062,1,0,0:0:0:0:
36,192,133141,1,8,0:0:0:0:
475,192,133141,1,0,0:0:0:0:
402,192,133141,1,0,0:0:0:0:
36,192,133297,1,8,0:0:0:0:
475,192,133297,1,0,0:0:0:0:
109,192,133297,1,0,0:0:0:0:
182,192,133453,1,4,0:0:0:0:
256,192,133453,1,0,0:0:0:0:
329,192,133453,1,0,0:0:0:0:
402,192,133766,1,0,0:0:0:0:
329,192,133818,1,0,0:0:0:0:
256,192,133870,1,0,0:0:0:0:
182,192,133922,1,0,0:0:0:0:
109,192,133974,1,0,0:0:0:0:
36,192,134078,128,0,136370:0:0:0:0:
256,192,134078,128,0,136474:0:0:0:0:
475,192,134078,128,0,136578:0:0:0:0:
