osu file format v6

[General]
AudioFilename: 06 Come Clean (Retro mix).mp3
AudioLeadIn: 0
PreviewTime: -1
Countdown: 1
SampleSet: Soft
StackLeniency: 0.7
Mode: 0
LetterboxInBreaks: 1

[Editor]
Bookmarks: 25044,30744,37378,42511,53578,56544,66094,71044,79544,85844
DistanceSpacing: 0.800000011920929
BeatDivisor: 6
GridSize: 32

[Metadata]
Title:Come Clean (Retro mix)
Artist:Master Blaster
Creator:TeH_Mentalist
Version:Normal
Source:
Tags:

[Difficulty]
HPDrainRate:5
CircleSize:4
OverallDifficulty:5
SliderMultiplier:1.4
SliderTickRate:1

[Events]
//Background and Video events
0,0,"clubland_16__out_now_picture_1_1257772320.jpg"
//Break Periods
//Storyboard Layer 0 (Background)
//Storyboard Layer 1 (Fail)
//Storyboard Layer 2 (Pass)
//Storyboard Layer 3 (Foreground)
//Storyboard Sound Samples
//Background Colour Transformations
3,100,163,162,255

[TimingPoints]
1644.78899442314,400,4,2,0,100,1,0

[HitObjects]
128,96,25444,2,0,B|128:192,1,70
64,288,26344,2,0,B|160:352|320:128,1,303.333333333333
224,288,27944,2,0,B|320:288,1,87.5
352,288,28378,1,0
416,288,28844,1,0
448,192,29244,2,0,B|384:64|192:96,1,280
352,96,31244,5,0
320,128,31444,1,0
288,160,31644,1,0
256,192,31844,1,0
160,256,32044,2,0,B|96:320,1,87.5
98,317,32578,1,0
192,320,33244,1,0
192,320,33444,2,0,B|384:320,1,186.666666666667
416,224,34444,1,0
384,160,34844,1,0
352,96,35344,2,0,B|224:32|64:128,1,280
256,208,36578,12,0,38244
96,96,38444,5,0
128,160,38778,2,0,B|192:224|256:160,1,140
320,160,39578,1,0
384,160,39978,2,0,B|384:320,1,140
352,320,40844,2,0,B|256:320,1,93.3333333333333
192,320,41194,2,0,B|96:320,1,93.3333333333333
64,256,41994,2,0,B|32:64|448:64|416:256,1,513.333333333333
224,160,44044,5,0
256,192,44244,1,0
288,224,44444,1,0
320,256,44644,1,0
352,288,44844,1,0
448,288,45244,1,0
416,160,45578,1,0
320,96,46311,1,0
128,192,47044,1,0
128,256,47444,2,0,B|128:352,1,93.3333333333333
256,208,48244,12,0,49644
256,208,49644,12,0,53778
128,96,53894,5,0
128,128,54044,1,0
128,160,54194,1,0
128,288,54744,2,0,B|224:288,1,87.5
96,352,55244,2,0,B|448:352,1,332.5
416,224,56644,5,0
352,128,57044,1,0
320,128,57144,1,0
288,128,57244,1,0
256,128,57344,1,0
224,128,57444,1,0
128,128,57944,2,0,B|-32:128|-32:320|96:320,1,315
192,320,59094,1,0
320,320,59294,6,0,L|480:224|480:224,1,175
480,160,60644,1,0
416,96,61044,1,0
384,128,61244,1,0
352,96,61444,1,0
320,128,61644,1,0
288,96,61844,1,0
256,128,62044,1,0
224,96,62244,1,0
128,128,62594,5,0
32,128,63094,2,0,B|32:256,1,122.5
96,256,63894,2,0,B|192:256,1,87.5
256,320,64444,2,0,B|352:320,1,87.5
384,256,65494,1,0
384,224,65644,1,0
384,192,65794,1,0
96,96,66644,5,0
96,128,66744,1,0
96,160,66844,1,0
96,192,66944,1,0
96,224,67044,1,0
96,256,67144,1,0
96,288,67244,1,0
192,288,67644,2,0,B|288:288,1,87.5
288,288,68094,2,0,B|384:288,1,87.5
480,288,68644,1,0
448,256,68894,1,0
416,224,69144,1,0
384,128,69444,2,0,B|224:128,1,157.5
226,128,70044,1,0
226,128,70194,1,0
128,128,70794,2,0,B|32:160|32:192|64:224|128:224,1,192.5
320,224,71894,5,0
384,224,72094,1,0
448,224,72294,2,0,B|448:160|416:160,1,70
480,160,73178,1,0
416,96,73578,1,0
384,128,73778,1,0
352,96,73978,1,0
320,128,74178,1,0
288,96,74378,1,0
256,128,74578,1,0
224,96,74778,1,0
128,128,75128,5,0
64,192,75894,2,0,B|64:256,1,52.5
160,288,76444,5,0
288,256,76844,5,0
224,128,77244,5,0
352,160,77644,5,0
416,288,78044,5,0
64,96,78394,5,0
96,192,78644,1,0
96,224,78794,1,0
128,256,78944,1,0
64,64,80044,5,0
64,320,80444,5,0
448,320,80844,5,0
448,64,81244,5,0
64,320,81644,5,0
448,320,82044,5,0
64,64,82444,5,0
480,32,83244,5,0
448,160,83644,5,0
416,320,84044,5,0
416,192,84444,5,0
96,192,84844,5,0
256,32,85244,5,0
256,320,85644,5,0
64,96,86644,5,0
64,128,86844,1,0
64,160,87044,2,0,B|64:256|160:288,1,163.333333333333
352,96,88444,5,0
352,128,88644,1,0
352,160,88844,2,0,B|352:256|448:288,1,163.333333333333
256,208,90044,12,0,92778
