osu file format v7

[General]
AudioFilename: Ukanlos.mp3
AudioLeadIn: 0
PreviewTime: 70222
Countdown: 0
SampleSet: Normal
StackLeniency: 0.7
Mode: 0
LetterboxInBreaks: 0
EpilepsyWarning: 1

[Editor]
DistanceSpacing: 0.800000011920929
BeatDivisor: 3
GridSize: 16

[Metadata]
Title:Ukanlos, The Avalanche Dragon
Artist:Masta Kouda
Creator:rayxdgreatx
Version:Training School
Source:Monster Hunter Freedom Unite
Tags:capcom ucamulbas akantor

[Difficulty]
HPDrainRate:2
CircleSize:3
OverallDifficulty:2
SliderMultiplier:1
SliderTickRate:1

[Events]
//Background and Video events
0,0,"UkanlosHunter.jpg"
//Break Periods
2,24760,29530
2,44147,49122
2,57412,68709
2,81490,89530
2,104351,109122
2,123671,128714
2,136596,148306
//Storyboard Layer 0 (Background)
//Storyboard Layer 1 (Fail)
//Storyboard Layer 2 (Pass)
//Storyboard Layer 3 (Foreground)
//Storyboard Sound Samples
//Background Colour Transformations
3,100,0,0,89

[TimingPoints]
1703,408.163265306122,4,1,0,100,1,0
70256,-100,3,1,0,100,0,1
78830,-100,4,1,0,100,0,1
81288,-100,4,1,0,100,0,0
149851,-100,3,1,0,100,0,0
158422,-100,4,1,0,100,0,1
160873,-100,4,1,0,100,0,0

[Colours]
Combo1 : 0,0,100
Combo2 : 255,255,255
Combo3 : 136,136,255
Combo4 : 0,0,255

[HitObjects]
64,112,11498,2,0,B|176:48|368:48,1,300,0|4
432,64,13131,2,0,B|432:272|336:352,1,300,0|4
272,352,14764,6,0,B|272:48,1,300,0|4
192,48,16396,2,0,B|96:128|96:288|176:304,1,300,0|4
256,304,18029,5,0
256,144,18845,1,0
176,144,19254,1,4
176,224,19662,5,0
256,80,20478,1,0
256,160,20886,1,4
256,240,21294,5,0
96,192,22111,1,0
176,192,22519,1,4
256,192,22927,5,0
192,336,23743,1,0
256,384,24151,1,4
320,336,24560,1,4
256,192,31090,6,0,B|256:112|144:48|64:192|64:256|208:336,1,400
352,336,33539,2,0,B|352:224,1,100
352,160,34356,1,4
192,160,35172,5,0
112,160,35580,1,0
32,160,35988,2,0,B|32:368,2,200,0|0|4
32,80,38029,6,0,B|144:80,2,100
32,160,39254,2,0,B|112:256,2,100
32,80,40478,1,0
112,80,40886,6,0,B|112:288|272:352|416:320|448:64,1,600,4|0
384,80,43641,1,0
320,80,43947,1,0
160,256,50682,6,0,B|320:256,2,150
48,192,52519,2,0,B|304:192,1,250,0|4
304,272,53947,2,0,B|464:272,2,150
400,192,55784,2,0,B|32:192,1,350,0|4
96,192,70269,6,0,B|112:48|240:80,1,200
304,80,71494,2,0,B|432:48|432:208,1,200
448,272,72718,2,0,B|240:336,1,200
176,320,73943,2,0,B|96:128,1,200,0|4
176,96,75167,6,0,B|384:64|384:64,2,200
192,176,77208,1,0
272,160,77616,2,0,B|480:128,1,200,0|4
256,192,78841,12,4,81290
256,192,91090,5,0
256,112,91498,2,0,B|48:112,1,200
55,192,92723,5,0
54,271,93131,2,0,B|262:271,1,200
336,272,94356,5,0
336,192,94764,1,0
336,112,95172,1,0
256,112,95580,1,4
256,192,95988,6,0,B|176:192|96:192|32:192|32:288|64:320|192:320|224:320,1,400,0|4
288,320,98029,1,0
336,256,98437,1,0
384,320,98845,1,4
464,320,99254,6,0,B|464:160|336:32,1,300,0|4
272,64,100886,1,0
272,144,101294,1,0
192,112,101702,1,0
192,192,102111,1,4
192,272,102519,6,0,B|368:272,2,150
112,272,104151,1,4
256,192,110682,12,0,116805
64,192,117213,6,0,B|256:32|256:32|480:192|480:192|256:368|256:368|128:272|128:272|240:176,1,1100
288,240,122111,1,0
352,176,122519,1,0
288,128,122927,1,0
240,128,123199,2,0,B|144:128,1,66.6666666666667,0|4
256,192,130274,5,0
192,144,130682,1,0
256,96,131090,1,0
320,144,131498,1,0
320,224,131907,5,0
320,304,132315,1,0
400,272,132723,2,0,B|400:160,1,100,0|4
400,96,133539,5,0
336,48,133947,1,0
256,48,134356,1,0
176,48,134764,1,0
96,48,135172,6,0,B|16:128|16:128|16:224|16:224|112:304,1,300,0|4
256,192,149866,12,4,154764
256,240,155580,6,0,B|256:112,1,100,0|4
96,144,156805,2,0,B|96:256,1,100,0|4
176,96,158029,1,0
256,160,158437,6,0,B|224:160|208:144|224:112|240:96|288:96|320:160|320:208|272:240|224:240|192:208|176:176|160:144|176:96|208:64|240:48|288:48|320:80|352:128|368:160|352:208|336:240|304:272|256:272|224:272|192:256,1,600,0|4
