osu file format v13

[General]
AudioFilename: massive attack - teardrop.mp3
AudioLeadIn: 0
PreviewTime: 62978
Countdown: 0
SampleSet: None
StackLeniency: 0.7
Mode: 0
LetterboxInBreaks: 1
WidescreenStoryboard: 1

[Editor]
Bookmarks: 44225,62978,75479,87981,94602,100452,112984,150478,150648,162980,175482,187957,200459,211788,219237
DistanceSpacing: 1
BeatDivisor: 4
GridSize: 8
TimelineZoom: 1

[Metadata]
Title:Teardrop
TitleUnicode:Teardrop
Artist:Massive Attack
ArtistUnicode:Massive Attack
Creator:D33d
Version:Sorrow
Source:
Tags:Garage, Mezzanine, House M.D.
BeatmapID:191336
BeatmapSetID:65276

[Difficulty]
HPDrainRate:5
CircleSize:3
OverallDifficulty:5
ApproachRate:5
SliderMultiplier:2.72
SliderTickRate:4

[Events]
//Background and Video events
0,0,"background.jpg",0,0
//Break Periods
2,100670,111748
2,156897,161736
//Storyboard Layer 0 (Background)
//Storyboard Layer 1 (Fail)
//Storyboard Layer 2 (Pass)
//Storyboard Layer 3 (Foreground)
//Storyboard Sound Samples

[TimingPoints]
458,781.35076923077,4,3,0,40,1,0
89517,-105.263157894737,4,3,0,40,0,0
91080,-100,4,3,0,40,0,0
99734,-100,4,3,0,20,0,0
100440,-100,4,3,0,20,0,0
112948,781.35076923077,4,3,0,40,1,0
149476,-102.040816326531,4,3,0,40,0,0
150261,-100,4,3,0,40,0,0
152010,781.35076923077,4,3,0,40,1,8
152019,-100,4,3,0,20,0,0
153572,781.35076923077,4,3,0,20,1,0
162936,781.35076923077,4,3,0,40,1,0
172322,781.35076923077,4,3,0,40,1,0
204355,-99.009900990099,4,3,0,40,0,0
204941,-100,4,3,0,40,0,0
211584,-103.092783505155,4,3,0,40,0,0

[Colours]
Combo1 : 157,83,83
Combo2 : 168,136,87
Combo3 : 73,141,77
Combo4 : 86,116,165
SliderTrackOverride : 43,31,31

[HitObjects]
512,296,44213,6,0,B|384:376|256:296,1,272,4|8,1:0|2:0,0:0:0:0:
0,88,45776,2,0,B|128:8|256:88,1,272,0|8,0:0|2:0,0:0:0:0:
0,296,47339,6,0,B|128:376|256:296,1,272,4|8,0:0|2:0,0:0:0:0:
512,88,48901,2,0,B|384:8|256:88,1,272,0|8,0:0|2:0,0:0:0:0:
128,24,50073,1,2,2:0:0:0:
128,168,50464,6,0,B|256:248|384:168,1,272,8|8,1:3|2:0,0:0:0:0:
128,264,52027,2,0,B|256:344|384:264,1,272,4|8,0:0|2:0,0:0:0:0:
320,144,53199,1,2,2:0:0:0:
260,24,53589,22,0,B|160:24|88:96|88:196,1,272,4|8,2:0|2:0,0:2:0:0:
424,188,55152,2,0,B|424:288|352:360|252:360,1,272,0|8,0:0|2:0,0:2:0:0:
256,192,56324,1,2,2:0:0:0:
112,104,56715,6,0,B|62:191|88:289|175:339,1,272,8|8,1:3|2:0,0:0:0:0:
399,279,58277,2,0,B|449:192|423:94|336:44,1,272,2|8,0:2|2:0,0:0:0:0:
256,192,59449,1,2,2:0:0:0:
343,335,59840,6,0,B|256:385|158:359|108:272,1,272,4|8,0:0|2:0,0:0:0:0:
168,48,61403,2,0,B|255:-1|353:24|403:111,1,272,4|8,0:0|2:0,0:0:0:0:
460,236,62575,1,0,0:0:0:0:
336,200,62966,22,0,P|257:110|176:200,2,272,4|8|2,1:0|2:0|1:2,0:0:0:0:
256,192,64724,1,0,3:0:0:0:
88,208,65114,1,0,0:0:0:0:
88,208,65310,1,8,2:0:0:0:
328,352,66091,6,0,P|432:312|464:232,1,204,4|2,1:0|1:3,0:0:0:0:
352,152,67068,1,2,0:2:0:0:
184,32,67654,2,0,P|80:72|48:152,1,204,8|4,1:3|3:3,0:0:0:0:
64,232,68435,1,8,2:0:0:0:
496,216,69216,6,0,B|456:280|376:264|376:216|296:200|256:264,1,272,4|8,1:2|0:2,0:0:0:0:
16,376,70779,1,2,0:2:0:0:
16,376,70974,1,0,0:0:0:0:
152,376,71365,1,0,0:0:0:0:
152,376,71560,1,8,0:2:0:0:
16,168,72342,6,0,B|56:104|136:120|136:168|216:184|256:120,1,272,4|8,1:2|0:2,0:0:0:0:
496,8,73904,1,4,0:0:0:0:
496,8,74100,1,0,0:0:0:0:
360,8,74490,1,0,0:0:0:0:
360,8,74686,1,8,0:2:0:0:
176,200,75467,6,0,P|255:110|336:200,2,272,4|8|2,1:0|2:0|1:2,0:0:0:0:
256,192,77225,1,0,3:0:0:0:
424,208,77616,1,0,0:0:0:0:
424,208,77811,1,8,2:0:0:0:
160,344,78593,6,0,P|54:306|8:232,1,204,4|0,1:2|0:0,0:0:0:0:
8,152,79374,2,0,P|48:80|160:40,1,204,8|0,3:2|0:0,0:0:0:0:
232,72,80155,2,0,B|296:112|280:192|232:192|216:272|280:312,1,272,4|8,1:2|0:2,0:0:0:0:
440,64,81718,6,0,P|479:192|440:320,1,272,4|8,1:3|0:2,0:0:0:0:
200,192,83281,1,2,0:2:0:0:
200,192,83476,1,0,0:0:0:0:
320,128,83867,1,0,0:0:0:0:
320,128,84062,1,8,0:2:0:0:
204,364,84843,6,0,P|107:344|99:250,1,204,4|0,2:2|0:0,0:0:0:0:
168,292,85625,1,8,0:2:0:0:
424,64,86406,1,4,0:0:0:0:
424,64,86601,2,0,P|377:15|308:16,1,136,0|8,0:0|0:0,0:0:0:0:
344,92,87187,1,8,0:2:0:0:
48,72,87969,6,0,P|68:309|256:297,1,476,4|0,1:0|3:0,0:0:0:0:
196,244,89531,2,0,P|288:222|336:296,1,193.799994824982,8|4,3:0|0:0,0:0:0:0:
416,296,90313,1,8,0:2:0:0:
392,24,91094,6,0,L|120:24,1,272,4|8,1:2|3:2,2:0:0:0:
424,320,92657,1,0,0:0:0:0:
424,320,92852,2,0,P|377:368|308:368,1,136
344,292,93438,1,8,0:2:0:0:
128,192,94220,5,4,1:0:0:0:
192,140,94415,1,0,0:0:0:0:
256,87,94610,2,0,P|470:97|500:256,1,408,2|4,0:2|3:0,0:0:0:0:
436,308,95978,1,0,3:0:0:0:
300,308,96368,1,0,0:0:0:0:
256,240,96564,1,8,0:2:0:0:
0,56,97345,5,4,0:0:0:0:
44,124,97540,1,4,0:0:0:0:
180,124,97931,1,4,0:0:0:0:
136,56,98126,1,8,0:2:0:0:
512,56,98908,1,4,0:0:0:0:
468,124,99103,1,4,0:0:0:0:
384,248,99494,1,8,0:0:0:0:
384,248,99689,2,0,B|328:288|264:288|248:216|184:216|128:248,1,272,8|4,2:0|1:0,2:0:0:0:
496,112,112948,6,0,B|456:48|376:64|376:112|296:128|256:64,2,272,4|4|0,1:0|1:2|1:3,0:0:0:0:
480,192,114706,1,4,0:0:0:0:
456,328,115096,1,8,0:0:0:0:
456,328,115292,1,8,0:2:0:0:
184,352,116073,6,0,P|80:312|48:232,1,204,4|2,1:0|1:3,0:0:0:0:
160,152,117050,1,2,0:2:0:0:
328,32,117636,2,0,P|432:72|464:152,1,204,8|4,1:0|0:0,0:0:0:0:
464,232,118417,1,8,0:2:0:0:
208,328,119198,6,0,P|88:256|88:136,1,272,4|8,1:2|0:2,0:0:0:0:
304,328,120761,1,4,0:0:0:0:
304,328,120956,1,0,0:0:0:0:
368,208,121347,1,0,0:0:0:0:
368,208,121542,1,8,0:2:0:0:
160,16,122324,6,0,P|256:45|352:16,1,204,2|4,1:2|0:2,0:0:0:0:
256,344,123886,1,8,1:0:0:0:
256,344,124082,1,0,0:0:0:0:
256,208,124472,1,0,0:0:0:0:
256,208,124668,1,8,0:2:0:0:
48,152,125449,6,0,P|89:62|184:32,1,204,4|2,1:2|1:3,0:0:0:0:
328,32,126426,1,2,0:2:0:0:
376,232,127012,2,0,B|336:296|256:280|256:232|176:216|136:280,1,272,8|8,1:0|0:2,0:0:0:0:
376,104,128575,6,0,B|336:168|256:152|256:104|176:88|136:152,1,272,4|8,1:2|0:2,0:0:0:0:
352,368,130137,2,0,P|256:339|160:368,1,204,2|4,1:3|0:0,0:0:0:0:
88,328,130919,1,8,0:2:0:0:
51,38,131700,6,0,P|59:132|156:152,1,204,4|0,2:2|0:0,0:0:0:0:
120,80,132481,1,8,0:2:0:0:
392,80,133263,2,0,P|485:99|493:194,2,204,8|4|2,0:0|0:0|0:2,0:0:0:0:
256,80,134825,6,0,P|264:174|357:194,1,204,4|0,2:2|0:0,0:0:0:0:
325,122,135607,1,8,0:2:0:0:
180,360,136388,2,0,P|256:302|332:360,2,204,8|4|2,0:3|0:0|0:2,0:0:0:0:
128,232,137951,5,4,1:2:0:0:
256,192,138341,1,0,0:0:0:0:
384,152,138732,2,0,P|337:84|224:60,1,204,8|0,0:2|0:0,0:0:0:0:
152,108,139513,2,0,P|123:200|168:292,1,204,8|0,0:0|0:0,0:0:0:0:
248,328,140295,1,8,0:2:0:0:
256,56,141076,6,0,P|369:122|376:252,2,272,4|8|2,1:2|0:2|1:2,0:0:0:0:
176,84,142834,1,0,0:0:0:0:
96,192,143225,1,0,0:0:0:0:
96,192,143420,1,8,0:2:0:0:
352,344,144202,6,0,P|458:306|504:232,1,204,4|0,1:0|0:0,0:0:0:0:
504,152,144983,2,0,P|457:78|352:40,1,204,8|0,0:2|0:0,0:0:0:0:
364,124,145764,2,0,P|427:192|364:260,2,204,8|4|2,1:0|0:0|0:2,0:0:0:0:
256,192,147327,5,8,1:0:0:0:
256,192,147522,1,0,3:0:0:0:
144,120,147913,1,0,0:0:0:0:
144,120,148108,1,8,0:2:0:0:
256,368,148890,1,8,1:0:0:0:
256,368,149085,1,0,0:0:0:0:
128,336,149476,2,0,P|184:256|340:264,1,266.55999755957,8|0,0:0|0:0,0:0:0:0:
384,336,150452,1,4,1:0:0:0:
16,280,152010,5,4,0:0:0:0:
16,280,152205,1,4,0:0:0:0:
16,144,152596,1,8,0:0:0:0:
16,144,152791,2,0,B|56:208|136:192|136:144|216:128|256:192,1,272,8|4,0:2|0:0,2:0:0:0:
496,376,155134,21,4,0:0:0:0:
496,376,155330,1,4,0:0:0:0:
496,240,155720,1,8,0:0:0:0:
496,240,155916,2,0,B|456:304|376:288|376:240|296:224|256:288,1,272,8|4,0:2|0:0,2:0:0:0:
8,264,162936,22,0,P|103:284|112:380,1,204,4|0,3:0|3:0,2:0:0:0:
40,340,163717,1,8,0:2:0:0:
300,308,164498,1,10,0:2:0:0:
344,380,164694,1,2,0:2:0:0:
428,380,164889,1,0,0:0:0:0:
472,308,165084,2,0,P|436:220|344:236,1,204,8|0,3:0|3:0,2:0:0:0:
504,120,166061,38,0,P|408:97|400:0,1,204,4|0,3:0|3:0,2:0:0:0:
472,44,166842,1,8,0:2:0:0:
212,76,167624,1,10,0:2:0:0:
168,4,167819,1,2,0:2:0:0:
84,4,168014,1,0,3:0:0:0:
40,76,168210,2,0,P|76:164|168:148,1,204,8|0,3:0|3:0,2:0:0:0:
148,304,169186,37,4,0:0:0:0:
188,376,169382,2,0,L|324:376,1,136,0|0,3:0|3:0,2:0:0:0:
364,304,169968,1,8,0:2:0:0:
192,88,170749,1,10,0:2:0:0:
256,28,170944,1,2,0:2:0:0:
316,88,171140,1,0,0:0:0:0:
344,168,171335,2,0,P|256:212|168:168,1,204,8|0,3:0|3:0,2:0:0:0:
44,92,172322,37,8,0:1:0:0:
0,160,172517,1,0,0:2:0:0:
80,304,172908,1,0,0:0:0:0:
124,236,173103,1,8,0:2:0:0:
388,236,173884,21,10,0:2:0:0:
432,304,174080,1,2,0:2:0:0:
512,160,174470,1,2,0:0:0:0:
468,92,174666,1,12,0:0:0:0:
16,112,175447,6,0,B|56:48|136:64|136:112|216:128|256:64,2,272,4|4|0,1:0|1:2|1:3,0:0:0:0:
32,192,177205,1,4,0:0:0:0:
56,328,177596,1,8,0:0:0:0:
56,328,177791,1,8,0:2:0:0:
328,352,178572,6,0,P|432:312|464:232,1,204,4|2,1:0|1:3,0:0:0:0:
352,152,179549,1,2,0:2:0:0:
184,32,180135,2,0,P|80:72|48:152,1,204,8|4,1:0|0:0,0:0:0:0:
88,224,180916,2,0,P|144:264|160:328,1,136,8|0,0:2|0:0,0:0:0:0:
304,328,181698,6,0,P|424:256|424:136,1,272,4|8,1:2|0:2,0:0:0:0:
208,328,183260,1,4,0:0:0:0:
208,328,183456,1,0,0:0:0:0:
144,208,183846,1,0,0:0:0:0:
144,208,184042,1,8,0:2:0:0:
352,16,184823,6,0,P|256:45|160:16,1,204,2|4,1:2|0:2,0:0:0:0:
96,68,185604,2,0,P|184:116|220:124,1,136,8|0,0:2|0:0,0:0:0:0:
352,108,186386,1,8,1:0:0:0:
352,108,186581,1,0,0:0:0:0:
448,16,186972,1,0,0:2:0:0:
448,16,187167,1,8,0:2:0:0:
176,200,187949,6,0,P|255:110|336:200,2,272,4|8|2,1:0|2:0|1:2,0:0:0:0:
256,192,189707,1,0,3:0:0:0:
416,208,190097,1,0,0:0:0:0:
416,208,190293,1,8,2:0:0:0:
184,352,191074,6,0,P|80:312|48:232,1,204,4|2,1:0|1:3,0:0:0:0:
160,152,192051,1,2,0:2:0:0:
328,32,192637,2,0,P|432:72|464:152,1,204,8|2,1:3|3:3,0:0:0:0:
448,232,193418,1,8,2:0:0:0:
16,216,194199,6,0,B|56:280|136:264|136:216|216:200|256:264,1,272,4|8,1:2|0:2,0:0:0:0:
496,376,195762,1,4,0:0:0:0:
496,376,195957,1,0,0:0:0:0:
360,376,196348,1,0,0:0:0:0:
360,376,196543,1,8,0:2:0:0:
496,168,197325,6,0,B|456:104|376:120|376:168|296:184|256:120,1,272,4|8,1:2|0:2,0:0:0:0:
16,8,198887,1,4,0:0:0:0:
16,8,199083,1,0,0:0:0:0:
152,8,199473,1,0,0:0:0:0:
152,8,199669,1,8,0:2:0:0:
428,328,200450,22,0,P|256:154|84:328,1,544,4|4,0:1|0:0,0:0:0:0:
256,328,202599,1,8,0:0:0:0:
256,328,202794,1,8,0:2:0:0:
8,200,203576,6,0,P|72:112|152:64,1,204,4|0,0:2|0:0,0:0:0:0:
232,88,204357,2,0,L|280:288,1,206.039995912903,8|0,0:2|0:0,0:0:0:0:
360,319,205138,2,0,P|445:268|504:184,1,204,0|8,1:0|0:0,0:0:0:0:
512,100,205920,1,8,0:2:0:0:
256,244,206701,6,0,L|76:148,1,204,4|0,0:0|0:0,0:0:0:0:
4,112,207482,1,8,0:2:0:0:
256,140,208264,1,4,0:0:0:0:
256,140,208459,2,0,L|376:75,1,136,4|0,0:0|0:0,0:0:0:0:
448,40,209045,1,8,0:2:0:0:
376,360,209826,5,4,1:0:0:0:
256,296,210217,1,2,0:0:0:0:
136,232,210608,2,0,L|256:68,1,204,8|2,0:2|0:2,0:0:0:0:
316,124,211389,1,4,0:0:0:0:
316,124,211584,2,0,L|236:232,1,131.920003120056,0|0,1:0|0:0,0:0:0:0:
188,296,212170,1,8,0:2:0:0:
196,12,212952,6,0,L|40:224,1,263.840006240112,6|8,1:2|0:2,0:0:0:0:
314,371,214514,1,4,3:0:0:0:
314,371,214710,2,0,L|396:264,1,131.920003120056,4|2,0:0|0:2,0:0:0:0:
444,204,215296,1,8,0:2:0:0:
256,192,216077,12,4,219203,1:0:0:0:
104,0,219984,37,10,0:2:0:0:
48,120,220375,1,2,0:0:0:0:
168,176,220765,1,2,1:2:0:0:
168,176,220961,2,0,P|224:128|280:128,1,131.920003120056,2|8,0:2|0:0,0:0:0:0:
344,176,221547,1,8,0:2:0:0:
256,272,221937,1,2,0:0:0:0:
344,368,222328,5,4,1:0:0:0:
344,368,222523,1,0,0:0:0:0:
432,272,222914,1,0,0:0:0:0:
432,272,223109,1,10,0:2:0:0:
168,368,223891,1,2,1:2:0:0:
168,368,224086,1,2,0:2:0:0:
80,272,224477,1,8,0:0:0:0:
80,272,224672,1,8,0:2:0:0:
168,176,225063,1,4,0:0:0:0:
295,271,225453,6,0,P|387:244|424:155,1,197.880004680084,4|0,1:0|0:0,0:0:0:0:
396,80,226235,1,10,0:2:0:0:
216,272,227016,2,0,P|120:240|88:152,1,197.880004680084,2|4,1:2|0:0,0:0:0:0:
116,80,227797,2,0,P|160:52|240:52,1,131.920003120056,8|2,0:2|0:0,0:0:0:0:
256,192,228579,22,0,P|384:200|448:232,1,197.880004680084,4|0,1:0|0:0,0:0:0:0:
479,303,229360,1,8,1:0:0:0:
368,376,229751,1,2,0:0:0:0:
256,304,230141,1,8,1:0:0:0:
256,304,230337,2,0,P|184:312|136:344,1,131.920003120056,2|2,0:2|0:2,0:0:0:0:
56,344,230923,1,8,0:2:0:0:
256,192,231704,6,0,P|128:184|64:152,1,197.880004680084,4|0,1:0|0:0,0:0:0:0:
32,81,232486,1,8,1:0:0:0:
144,8,232876,1,2,0:0:0:0:
256,80,233267,1,8,1:0:0:0:
256,80,233462,2,0,P|328:72|376:40,1,131.920003120056,2|2,0:2|2:2,0:0:0:0:
456,40,234048,1,8,0:2:0:0:
216,192,234830,5,4,1:0:0:0:
216,192,235025,2,0,P|144:184|96:152,1,131.920003120056
24,188,235611,2,0,P|79:241|136:264,1,131.920003120056,8|2,1:0|0:0,0:0:0:0:
296,264,236392,1,8,1:0:0:0:
296,264,236588,2,0,P|368:256|416:224,1,131.920003120056,0|4,0:0|0:0,0:0:0:0:
488,260,237174,2,0,P|433:313|376:336,1,131.920003120056,8|2,0:2|0:0,0:0:0:0:
208,360,237955,22,0,L|88:304,1,131.920003120056,4|2,1:0|0:0,0:0:0:0:
16,272,238541,1,0,0:0:0:0:
16,192,238736,1,10,0:2:0:0:
152,192,239127,1,2,0:0:0:0:
304,192,239518,1,8,1:0:0:0:
304,192,239713,2,0,L|424:136,1,131.920003120056
496,104,240299,1,8,0:2:0:0:
360,24,240690,1,2,1:2:0:0:
200,132,241080,6,0,P|200:221|108:244,1,197.880004680084,4|0,1:0|1:0,0:0:0:0:
36,204,241862,1,8,1:0:0:0:
76,132,242057,2,0,P|435:129|365:376,1,725.560017160309,2|4,1:0|1:2,0:0:0:0:
256,192,247331,12,4,253582,1:0:0:0:
