osu file format v14

[General]
AudioFilename: MASHIRO.mp3
AudioLeadIn: 0
PreviewTime: -1
Countdown: 1
SampleSet: None
StackLeniency: 0.7
Mode: 0
LetterboxInBreaks: 1
WidescreenStoryboard: 1

[Editor]
Bookmarks: 12134,23428,46016,65516,68604,91192,113781,136369,158957,181545,204134,215428,226722,238016,245075,249310,271898,294487,317075,339310
DistanceSpacing: 0.8
BeatDivisor: 4
GridSize: 4
TimelineZoom: 3.699998

[Metadata]
Title:Masshiro na Yuki
TitleUnicode:
Artist:Mashiro Mizuse
ArtistUnicode:
Creator:Zweib
Version:Insane(-custompattern
Source:
Tags:
BeatmapID:731043
BeatmapSetID:324169

[Difficulty]
HPDrainRate:7
CircleSize:4
OverallDifficulty:8
ApproachRate:9
SliderMultiplier:2.4
SliderTickRate:1

[Events]
//Background and Video events
0,0,"bg.jpg",0,0
//Break Periods
2,204333,214828
//Storyboard Layer 0 (Background)
//Storyboard Layer 1 (Fail)
//Storyboard Layer 2 (Pass)
//Storyboard Layer 3 (Foreground)
//Storyboard Sound Samples

[TimingPoints]
840,352.941176470588,4,2,1,50,1,0
840,-200,4,2,1,70,0,0
12134,-125,4,2,0,70,0,0
12487,-166.666666666667,4,2,0,70,0,0
20604,-133.333333333333,4,2,2,70,0,0
22810,-66.6666666666667,4,2,2,70,0,0
23075,-100,4,2,2,70,0,0
25898,-66.6666666666667,4,2,2,70,0,0
26251,-100,4,2,2,70,0,0
34369,-76.9230769230769,4,2,2,70,0,0
34722,-100,4,2,2,70,0,0
40016,-76.9230769230769,4,2,2,70,0,0
40369,-100,4,2,2,70,0,0
45663,-133.333333333333,4,2,2,70,0,0
46369,-100,4,2,2,70,0,0
47428,-133.333333333333,4,2,2,70,0,0
47781,-100,4,2,2,70,0,0
49369,-133.333333333333,4,2,2,70,0,0
52016,-100,4,2,2,70,0,0
53075,-133.333333333333,4,2,2,70,0,0
53428,-100,4,2,2,70,0,0
57310,-125,4,2,2,70,0,0
57663,-100,4,2,2,70,0,0
67192,-1000,4,2,2,70,0,0
67987,-50,4,2,2,70,0,0
68604,-100,4,2,2,70,0,0
91192,-100,4,2,2,70,0,1
101428,-133.333333333333,4,2,2,70,0,1
102487,-100,4,2,2,70,0,1
113428,-125,4,2,2,70,0,1
113781,-111.111111111111,4,2,2,70,0,0
136369,-133.333333333333,4,2,2,70,0,0
136722,-100,4,2,2,70,0,0
149075,-133.333333333333,4,2,2,70,0,0
149428,-100,4,2,2,70,0,0
157545,-1000,4,2,2,70,0,0
158604,-50,4,2,2,70,0,0
158957,-100,4,2,2,70,0,0
181545,-100,4,2,2,70,0,1
204134,-100,4,2,2,70,0,0
226722,-200,4,2,2,70,0,0
227428,-200,4,2,2,70,0,0
228663,-200,4,2,2,70,0,0
238016,-117.647058823529,4,2,2,70,0,0
238369,-133.333333333333,4,2,2,70,0,0
242251,-133.333333333333,4,2,2,70,0,0
248604,-100,4,2,2,70,0,0
249310,-100,4,2,2,70,0,1
254428,-133.333333333333,4,2,2,70,0,1
254869,-100,4,2,2,70,0,1
259898,-133.333333333333,4,2,2,70,0,1
260251,-100,4,2,2,70,0,1
270487,-100,4,2,2,70,0,0
271545,-133.333333333333,4,2,2,70,0,0
271898,-100,4,2,2,70,0,1
294487,-111.111111111111,4,2,2,70,0,0

[Colours]
Combo1 : 240,240,240
Combo2 : 222,184,221
Combo3 : 210,210,210
Combo4 : 206,221,159
Combo5 : 180,180,180
Combo6 : 185,215,223

[HitObjects]
332,132,840,6,0,P|336:158|333:203,2,60
252,84,1369,6,0,P|319:91|382:53,1,120
498,275,2251,2,0,P|496:304|503:342,2,60
409,296,2781,2,0,P|350:277|280:285,1,120
46,318,3663,6,0,B|22:334|19:305|33:278|78:335|131:305,1,120
205,275,4192,1,0,0:0:0:0:
116,229,4369,2,0,P|93:200|105:100,2,120
114,240,5251,1,0,0:0:0:0:
108,250,5428,1,0,0:0:0:0:
99,258,5604,2,0,P|173:236|222:237,1,120
495,292,6487,2,0,P|503:343|503:363,1,60
449,209,6839,1,0,0:0:0:0:
398,283,7016,6,0,P|334:301|263:289,1,120
43,97,7898,1,0,0:0:0:0:
136,139,8074,1,0,0:0:0:0:
122,55,8250,1,0,0:0:0:0:
58,175,8427,2,0,B|46:232|46:232|84:211|115:218,1,120
384,48,9310,6,0,L|528:37,1,120
416,176,9839,2,0,L|277:187,1,120
82,343,10545,2,0,P|143:339|216:367,1,120,0|0,0:0|0:0,0:0:0:0:
319,362,11075,2,0,P|363:348|374:335,1,60
219,258,11428,2,0,P|207:210|233:141,1,120
477,346,12134,6,0,B|482:321|482:321|470:239,1,96,4|0,1:0|0:0,0:0:0:0:
471,251,12487,1,8,0:0:0:0:
379,189,12663,1,0,0:0:0:0:
373,198,12751,1,0,0:0:0:0:
371,208,12839,1,0,0:0:0:0:
496,137,13016,1,0,0:0:0:0:
490,127,13104,1,0,0:0:0:0:
482,118,13192,2,0,P|454:105|409:79,1,71.9999978027344,8|0,0:0|0:0,0:0:0:0:
193,8,13545,5,0,0:0:0:0:
93,91,13722,1,0,0:0:0:0:
97,100,13810,1,0,0:0:0:0:
99,110,13898,1,8,0:0:0:0:
210,164,14075,1,0,0:0:0:0:
210,178,14163,1,0,0:0:0:0:
208,192,14251,1,0,0:0:0:0:
204,205,14339,1,0,0:0:0:0:
197,217,14428,1,0,0:0:0:0:
97,272,14604,2,0,P|103:310|121:349,1,71.9999978027344,8|0,0:0|0:0,0:0:0:0:
400,335,14957,6,0,P|355:292|272:291,1,143.999995605469,0|8,0:0|0:0,0:0:0:0:
418,231,15487,1,0,0:0:0:0:
429,243,15575,1,0,0:0:0:0:
444,254,15663,1,0,0:0:0:0:
460,262,15751,1,0,0:0:0:0:
477,268,15839,1,0,0:0:0:0:
495,269,15928,1,0,0:0:0:0:
512,268,16016,1,8,0:0:0:0:
501,163,16192,1,0,0:0:0:0:
501,163,16369,6,0,L|508:92,1,71.9999978027344,0|0,1:0|0:0,0:0:0:0:
358,2,16722,2,0,L|365:78,1,71.9999978027344,0|0,1:0|0:0,0:0:0:0:
186,45,17075,2,0,L|115:28,1,71.9999978027344,0|0,1:0|0:0,0:0:0:0:
5,155,17428,2,0,L|85:136,1,71.9999978027344,0|0,1:0|0:0,0:0:0:0:
364,257,17781,5,0,1:0:0:0:
274,284,17957,1,0,0:0:0:0:
199,227,18134,1,0,1:0:0:0:
107,255,18310,1,0,0:0:0:0:
216,134,18487,5,0,1:0:0:0:
177,315,18663,1,0,0:0:0:0:
135,84,18839,1,0,1:0:0:0:
250,370,19016,1,0,0:0:0:0:
293,193,19192,5,0,1:0:0:0:
51,115,19369,1,0,1:0:0:0:
310,108,19545,1,0,1:0:0:0:
121,171,19722,1,0,1:0:0:0:
382,164,19898,5,0,1:0:0:0:
107,255,20075,1,0,1:0:0:0:
405,76,20251,1,0,1:0:0:0:
135,82,20428,1,0,1:0:0:0:
320,268,20604,6,0,L|331:207,3,45.0000017166138,0|0|0|0,1:0|0:0|0:0|0:0,0:0:0:0:
121,171,20957,2,0,L|128:216,3,45.0000017166138,8|0|0|0,0:0|0:0|0:0|0:0,0:0:0:0:
210,351,21310,5,0,0:0:0:0:
210,351,21398,1,0,0:0:0:0:
210,351,21487,1,0,1:0:0:0:
210,351,21575,1,0,0:0:0:0:
210,351,21663,1,8,0:0:0:0:
210,351,21751,1,0,0:0:0:0:
210,351,21839,1,0,0:0:0:0:
210,351,21928,1,0,0:0:0:0:
210,351,22016,5,0,1:0:0:0:
249,342,22104,1,0,0:0:0:0:
289,342,22192,1,0,0:0:0:0:
328,351,22281,1,0,0:0:0:0:
367,372,22369,1,8,0:0:0:0:
411,379,22457,1,0,0:0:0:0:
452,362,22545,1,0,0:0:0:0:
483,329,22634,1,0,0:0:0:0:
494,285,22722,5,0,0:0:0:0:
480,238,22810,2,0,B|446:218|440:135|498:130|498:130|489:166|462:204,1,180.000006866455,0|0,0:0|0:0,0:0:0:0:
400,288,23075,2,0,B|364:259|364:259|274:243|274:243|227:216,1,180,8|0,0:0|0:0,0:0:0:0:
256,16,23428,5,4,1:0:0:0:
112,144,23604,2,0,L|48:176,1,60,0|0,0:0|0:0,0:0:0:0:
256,96,23781,2,0,L|256:128,2,30,8|0|0,0:0|0:0|0:0,0:0:0:0:
416,144,23957,2,0,L|480:176,1,60,0|0,0:0|0:0,0:0:0:0:
160,272,24134,2,0,L|176:336,1,60,0|0,0:0|0:0,0:0:0:0:
317,192,24310,1,0,1:0:0:0:
352,304,24487,2,0,L|336:352,2,30,8|0|0,0:0|0:0|0:0,0:0:0:0:
192,192,24663,1,0,0:0:0:0:
407,242,24839,6,0,P|410:138|357:89,1,180,0|0,1:0|0:0,0:0:0:0:
295,43,25192,1,8,0:0:0:0:
97,124,25369,2,0,P|67:105|38:96,1,60,0|0,0:0|0:0,0:0:0:0:
233,152,25545,2,0,L|248:115,2,30,0|0|0,0:0|0:0|0:0,0:0:0:0:
136,250,25722,2,0,L|143:299,2,30,0|0|0,1:0|0:0|0:0,0:0:0:0:
306,229,25898,6,0,B|383:204|419:252|419:252|393:254|361:212,1,180.000006866455,8|0,0:0|0:0,0:0:0:0:
432,158,26163,1,0,0:0:0:0:
476,171,26251,6,0,B|513:216|513:216|520:294|470:342,1,180,0|0,1:0|0:0,0:0:0:0:
409,371,26604,1,8,0:0:0:0:
324,114,26781,2,0,L|327:78,4,30,0|0|0|0|0,0:0|0:0|0:0|0:0|0:0,0:0:0:0:
280,384,27134,1,0,1:0:0:0:
109,296,27310,6,0,P|89:272|77:236,1,60,8|0,0:0|0:0,0:0:0:0:
297,255,27487,2,0,P|307:219|297:180,1,60,0|0,0:0|0:0,0:0:0:0:
215,318,27663,5,0,1:0:0:0:
191,203,27839,2,0,P|177:156|190:66,1,120,0|8,0:0|0:0,0:0:0:0:
450,300,28192,2,0,L|485:304,1,30,0|0,0:0|0:0,0:0:0:0:
445,329,28281,2,0,L|479:346,1,30,0|0,0:0|0:0,0:0:0:0:
438,355,28369,2,0,L|456:382,1,30,0|0,0:0|0:0,0:0:0:0:
364,222,28545,1,0,1:0:0:0:
192,128,28722,1,8,0:0:0:0:
256,288,28898,2,0,L|258:354,1,60,0|0,0:0|0:0,0:0:0:0:
320,128,29075,5,0,1:0:0:0:
144,256,29251,2,0,L|80:304,1,60,0|0,0:0|0:0,0:0:0:0:
192,128,29428,1,8,0:0:0:0:
352,256,29604,2,0,L|416:304,1,60,0|0,0:0|0:0,0:0:0:0:
112,144,29781,2,0,L|80:128,2,30,0|0|0,0:0|0:0|0:0,0:0:0:0:
256,288,29957,1,0,1:0:0:0:
400,144,30134,2,0,L|432:128,2,30,8|0|0,0:0|0:0|0:0,0:0:0:0:
376,285,30310,2,0,P|386:313|390:343,1,60,0|0,0:0|0:0,0:0:0:0:
256,208,30487,6,0,P|182:190|204:87,1,180,0|0,1:0|0:0,0:0:0:0:
255,38,30839,2,0,P|260:20|261:4,2,30,10|0|0,0:3|0:0|0:0,0:0:0:0:
160,16,31016,2,0,P|93:-2|46:90,1,180
109,183,31369,2,0,L|109:221,1,30,2|0,1:3|0:0,0:0:0:0:
90,193,31457,2,0,L|95:228,1,30,2|0,0:3|0:0,0:0:0:0:
70,202,31545,2,0,L|7:193,1,60,10|0,0:0|0:0,0:0:0:0:
245,149,31722,2,0,P|253:181|256:222,1,60,0|0,0:0|0:0,0:0:0:0:
147,304,31898,6,0,P|234:288|315:324,1,180,0|0,1:0|0:0,0:0:0:0:
403,374,32251,2,0,L|413:340,2,30,8|0|0,0:0|0:0|0:0,0:0:0:0:
490,294,32428,2,0,P|432:237|413:185,1,120
435,0,32781,6,0,L|430:53,1,30,0|0,1:0|0:0,0:0:0:0:
281,49,32957,2,0,L|286:79,1,30,8|0,0:0|0:0,0:0:0:0:
506,106,33134,2,0,L|502:143,1,30,0|0,0:0|0:0,0:0:0:0:
289,217,33310,6,0,P|257:210|216:184,1,60,0|0,1:0|0:0,0:0:0:0:
115,72,33487,2,0,B|102:53|109:30|109:30|152:54|152:54|122:91|120:143,1,180,0|0,0:0|0:0,0:0:0:0:
55,243,33839,2,0,L|64:276,1,30,0|0,0:0|0:0,0:0:0:0:
88,259,33928,2,0,L|93:294,1,30,0|0,0:0|0:0,0:0:0:0:
125,272,34016,2,0,L|195:253,1,60,0|0,0:0|0:0,0:0:0:0:
231,137,34192,1,0,1:0:0:0:
387,205,34369,6,0,P|405:108|328:161,1,233.999989288331,8|0,0:0|0:0,0:0:0:0:
304,240,34722,6,0,L|298:330,1,60,0|0,1:0|0:0,0:0:0:0:
155,369,34898,1,0,0:0:0:0:
235,157,35075,1,8,0:0:0:0:
378,305,35251,2,0,L|386:338,2,30,0|0|0,0:0|0:0|0:0,0:0:0:0:
161,213,35428,2,0,L|93:193,1,60,0|0,0:0|0:0,0:0:0:0:
366,207,35604,2,0,L|431:215,1,60,0|0,1:0|0:0,0:0:0:0:
266,331,35781,2,0,L|261:360,2,30,8|0|0,0:0|0:0|0:0,0:0:0:0:
305,137,35957,2,0,L|361:113,1,60,0|0,0:0|0:0,0:0:0:0:
178,295,36134,6,0,L|112:323,1,60,0|0,1:0|0:0,0:0:0:0:
354,290,36310,2,0,L|419:310,1,60,0|0,0:0|0:0,0:0:0:0:
213,137,36487,2,0,L|208:114,4,15,8|0|0|0|0,0:0|0:0|0:0|0:0|0:0,0:0:0:0:
311,57,36663,1,0,0:0:0:0:
328,63,36751,1,0,0:0:0:0:
345,68,36839,6,0,L|375:64,2,30,0|0|0,0:0|0:0|0:0,0:0:0:0:
438,120,37016,2,0,L|456:116,4,15,0|0|0|0|0,1:0|0:0|0:0|0:0|0:0,0:0:0:0:
350,166,37192,1,8,0:0:0:0:
510,244,37369,2,0,P|512:210|502:174,1,60,0|0,0:0|0:0,0:0:0:0:
335,351,37545,6,0,L|333:384,2,30,0|0|0,1:0|0:0|0:0,0:0:0:0:
234,140,37722,1,0,0:0:0:0:
188,299,37898,2,0,L|185:328,1,30,8|0,0:0|0:0,0:0:0:0:
174,326,37987,2,0,L|170:355,1,30,0|0,0:0|0:0,0:0:0:0:
159,352,38075,2,0,L|156:290,1,60,0|0,0:0|0:0,0:0:0:0:
317,204,38251,2,0,L|325:264,1,60,0|0,0:0|0:0,0:0:0:0:
84,134,38428,2,0,P|114:146|145:146,1,60,0|0,1:0|0:0,0:0:0:0:
301,70,38604,2,0,L|313:34,4,30,8|0|0|0|0,0:0|0:0|0:0|0:0|0:0,0:0:0:0:
82,384,38957,6,0,P|73:346|78:322,1,60,0|0,1:0|0:0,0:0:0:0:
133,228,39134,2,0,P|175:222|215:240,1,60,0|0,0:0|0:0,0:0:0:0:
396,365,39310,2,0,L|389:384,3,20,8|0|0|0,0:0|0:0|0:0|0:0,0:0:0:0:
384,253,39487,2,0,P|352:236|310:235,1,60,0|0,0:0|0:0,0:0:0:0:
225,317,39663,2,0,P|220:333|229:381,1,60,0|0,0:0|0:0,0:0:0:0:
270,143,39839,2,0,L|287:96,2,30,0|0|0,1:0|0:0|0:0,0:0:0:0:
133,228,40016,6,0,B|77:201|11:215|11:215|55:200|102:155,1,233.999989288331,8|0,0:0|0:0,0:0:0:0:
183,125,40369,5,0,1:0:0:0:
272,189,40545,2,0,L|339:239,1,60,0|0,0:0|0:0,0:0:0:0:
133,228,40722,1,8,0:0:0:0:
361,137,40898,2,0,L|409:123,2,30,0|0|0,0:0|0:0|0:0,0:0:0:0:
130,59,41075,1,0,0:0:0:0:
213,251,41251,2,0,L|248:313,1,60,0|0,1:0|0:0,0:0:0:0:
51,139,41428,2,0,L|1:129,2,30,8|0|0,0:0|0:0|0:0,0:0:0:0:
236,64,41604,2,0,P|245:32|238:0,1,60,0|0,0:0|0:0,0:0:0:0:
61,263,41781,6,0,L|61:333,1,60,0|0,1:0|0:0,0:0:0:0:
255,322,41957,1,0,0:0:0:0:
265,228,42134,2,0,L|268:190,2,30,8|0|0,0:0|0:0|0:0,0:0:0:0:
338,371,42310,2,0,L|363:390,3,20,0|0|0|0,0:0|0:0|0:0|0:0,0:0:0:0:
166,357,42487,2,0,L|148:369,4,15,0|0|0|0|0,0:0|0:0|0:0|0:0|0:0,0:0:0:0:
152,202,42663,5,0,1:0:0:0:
341,107,42839,1,8,0:0:0:0:
333,292,43016,1,0,0:0:0:0:
148,260,43192,6,0,P|147:215|161:190,1,60,0|0,1:0|0:0,0:0:0:0:
134,97,43369,1,0,0:0:0:0:
44,285,43545,2,0,L|39:314,2,30,8|0|0,0:0|0:0|0:0,0:0:0:0:
239,156,43722,1,0,0:0:0:0:
50,123,43898,2,0,P|44:89|41:51,1,60,0|0,0:0|0:0,0:0:0:0:
234,243,44075,1,0,1:0:0:0:
176,65,44251,5,8,0:0:0:0:
176,65,44339,1,0,0:0:0:0:
176,65,44428,1,0,0:0:0:0:
176,65,44516,1,0,0:0:0:0:
176,65,44604,5,0,1:0:0:0:
146,94,44692,1,0,0:0:0:0:
130,133,44781,1,0,0:0:0:0:
132,174,44869,1,0,0:0:0:0:
150,211,44957,6,0,L|127:236,1,30,8|0,0:0|0:0,0:0:0:0:
181,241,45045,2,0,L|167:273,1,30,0|0,0:0|0:0,0:0:0:0:
224,257,45134,2,0,L|220:294,1,30,0|0,0:0|0:0,0:0:0:0:
268,258,45222,2,0,L|276:294,1,30,0|0,0:0|0:0,0:0:0:0:
309,239,45310,2,0,L|333:283,1,30,0|0,0:0|0:0,0:0:0:0:
340,207,45398,2,0,P|372:205|404:209,2,60,0|0|0,0:0|1:0|0:0,0:0:0:0:
26,310,45663,6,0,B|6:286|6:286|-1:210,1,90.0000034332277,8|0,0:0|0:0,0:0:0:0:
178,343,46016,2,0,B|94:358|94:358|126:318,1,135.000005149841,0|0,1:0|0:0,0:0:0:0:
276,348,46369,2,0,B|299:327|299:327|312:209,1,120,8|0,0:0|0:0,0:0:0:0:
50,161,46722,1,0,0:0:0:0:
26,310,46898,1,0,1:0:0:0:
194,242,47075,2,0,B|258:258|258:258|308:238,1,120,8|0,0:0|0:0,0:0:0:0:
450,0,47428,6,0,B|460:41|460:41|447:132,1,135.000005149841,0|0,1:0|0:0,0:0:0:0:
461,279,47781,2,0,B|485:348|485:348|512:258,1,120,8|0,0:0|0:0,0:0:0:0:
390,212,48134,1,0,0:0:0:0:
286,371,48310,1,0,1:0:0:0:
117,271,48487,2,0,B|268:265|268:265|234:290,1,180,8|0,0:0|0:0,0:0:0:0:
215,304,48839,5,0,1:0:0:0:
223,195,49016,1,0,0:0:0:0:
286,371,49192,1,8,0:0:0:0:
308,136,49369,2,0,B|320:38|320:38|270:16|270:16|287:69,1,180.000006866455,0|0,0:0|1:0,0:0:0:0:
137,76,49898,1,8,0:0:0:0:
425,18,50075,1,0,0:0:0:0:
225,164,50251,6,0,P|196:150|164:122,1,45.0000017166138,0|0,1:0|0:0,0:0:0:0:
343,270,50428,2,0,P|346:303|337:343,1,45.0000017166138,0|0,0:0|0:0,0:0:0:0:
386,119,50604,2,0,P|411:101|452:87,1,45.0000017166138,8|0,0:0|0:0,0:0:0:0:
316,188,50781,2,0,B|260:185|260:185|180:197|180:197|109:194,1,180.000006866455,0|0,0:0|1:0,0:0:0:0:
62,378,51310,1,8,0:0:0:0:
48,365,51398,1,0,0:0:0:0:
37,353,51487,1,0,0:0:0:0:
24,341,51575,1,0,0:0:0:0:
11,330,51663,6,0,B|105:343|105:343|163:312,1,135.000005149841,0|0,1:0|0:0,0:0:0:0:
76,256,52016,2,0,B|4:245|4:245|45:223,1,120,8|0,0:0|0:0,0:0:0:0:
335,188,52369,1,0,0:0:0:0:
205,289,52545,1,0,1:0:0:0:
433,238,52722,2,0,B|501:210|501:210|427:187,1,120,8|0,0:0|0:0,0:0:0:0:
78,136,53075,6,0,B|6:85|6:85|52:88,1,135.000005149841,0|0,1:0|0:0,0:0:0:0:
205,84,53428,2,0,L|344:58,1,120,8|0,0:0|0:0,0:0:0:0:
190,211,53781,2,0,B|179:286|179:286|152:243,1,120,0|0,0:0|1:0,0:0:0:0:
112,19,54134,1,8,0:0:0:0:
44,235,54310,6,0,L|55:307,2,60,0|0|0,0:0|0:0|1:0,0:0:0:0:
205,84,54663,1,0,0:0:0:0:
286,252,54839,1,8,0:0:0:0:
446,128,55016,2,0,B|327:124|327:124|389:154,1,180,0|0,0:0|0:0,0:0:0:0:
483,224,55369,1,0,1:0:0:0:
286,252,55545,2,0,B|254:254|254:254|235:261|235:261|192:258|192:258|170:271|170:271|97:278,1,180,8|0,0:0|0:0,0:0:0:0:
0,153,55898,5,0,1:0:0:0:
35,160,55987,1,0,0:0:0:0:
71,155,56075,1,0,0:0:0:0:
99,130,56163,1,0,0:0:0:0:
114,96,56251,5,8,0:0:0:0:
147,108,56339,1,0,0:0:0:0:
184,112,56428,1,0,0:0:0:0:
216,94,56516,1,0,0:0:0:0:
240,67,56604,5,0,0:0:0:0:
264,94,56692,1,0,0:0:0:0:
297,107,56781,1,0,1:0:0:0:
332,101,56869,1,0,0:0:0:0:
361,79,56957,2,0,B|384:65|414:87|414:87|387:147|387:147|395:216,1,180,8|0,0:0|0:0,0:0:0:0:
486,297,57310,6,0,P|518:218|452:177,1,144,0|0,1:0|0:0,0:0:0:0:
371,300,57663,2,0,B|335:309|335:309|231:291,1,120,8|0,0:0|0:0,0:0:0:0:
484,182,58016,1,0,0:0:0:0:
432,366,58192,1,0,1:0:0:0:
253,294,58369,2,0,B|239:252|239:252|254:160,1,120,8|0,0:0|0:0,0:0:0:0:
435,225,58722,6,0,B|444:180|444:180|419:94|419:94|402:139,1,180,0|0,1:0|0:0,0:0:0:0:
339,195,59075,1,8,0:0:0:0:
154,128,59251,1,0,0:0:0:0:
168,116,59339,1,0,0:0:0:0:
183,105,59428,2,0,B|267:108|267:108|199:70,1,120,0|0,0:0|1:0,0:0:0:0:
53,23,59781,2,0,B|-13:13|-13:13|43:112,1,180,8|0,0:0|0:0,0:0:0:0:
113,227,60134,6,0,B|110:260|110:260|116:284|116:284|105:308|105:308|101:343,1,120,0|0,1:0|0:0,0:0:0:0:
0,195,60487,1,8,0:0:0:0:
229,257,60663,2,0,L|426:237,1,180,0|0,0:0|0:0,0:0:0:0:
478,174,61016,1,0,1:0:0:0:
314,333,61192,1,8,0:0:0:0:
512,295,61369,1,0,0:0:0:0:
221,156,61545,6,0,B|128:146|128:146|149:176,1,120,0|0,1:0|0:0,0:0:0:0:
303,218,61898,1,8,0:0:0:0:
395,111,62075,1,0,0:0:0:0:
390,134,62163,1,0,0:0:0:0:
386,157,62251,1,0,0:0:0:0:
242,64,62428,1,0,1:0:0:0:
214,251,62604,1,8,0:0:0:0:
216,263,62692,1,0,0:0:0:0:
220,274,62781,1,0,0:0:0:0:
221,285,62869,1,0,0:0:0:0:
224,296,62957,6,0,B|174:303|174:303|218:275|218:275|302:311,1,180,0|0,1:0|0:0,0:0:0:0:
333,304,63310,1,8,0:0:0:0:
103,367,63487,1,0,0:0:0:0:
103,367,63839,1,0,1:0:0:0:
51,264,64016,6,0,B|-1:165|-1:165|71:144|71:144|51:201,1,240,8|0,0:0|1:0,0:0:0:0:
233,27,64545,1,0,0:0:0:0:
164,225,64722,1,8,0:0:0:0:
280,139,64898,2,0,B|333:122|333:122|413:150|413:150|344:170,1,180,0|0,0:0|0:0,0:0:0:0:
292,221,65251,1,0,1:0:0:0:
373,273,65428,2,0,B|371:342|371:342|336:392,1,120,8|0,0:0|0:0,0:0:0:0:
65,199,65781,6,0,P|20:143|96:136,1,180,0|0,1:0|0:0,0:0:0:0:
144,199,66134,1,8,0:0:0:0:
368,143,66310,2,0,L|492:127,1,120,0|0,0:0|0:0,0:0:0:0:
487,127,66663,1,0,1:0:0:0:
295,247,66839,2,0,B|249:255|249:255|156:237|156:237|116:242,1,180,8|0,0:0|0:0,0:0:0:0:
126,101,67192,6,0,P|137:124|141:153,1,54,0|0,1:0|0:0,0:0:0:0:
140,152,68075,1,0,1:0:0:0:
0,198,68251,6,0,B|245:181|245:181|258:172|258:172|261:187|261:187|272:178|272:178|343:173,1,360,8|0,0:0|0:0,0:0:0:0:
226,270,68604,5,0,1:0:0:0:
399,118,68781,1,0,0:0:0:0:
240,62,68957,1,8,0:0:0:0:
444,253,69134,1,0,0:0:0:0:
512,0,69310,1,0,0:0:0:0:
329,226,69487,2,0,B|306:260|302:293|302:293|328:367,2,120,0|8|0,1:0|0:0|0:0,0:0:0:0:
342,20,70016,5,0,1:0:0:0:
148,97,70192,2,0,B|112:106|74:88|74:88|53:44,1,120,0|8,0:0|0:0,0:0:0:0:
225,0,70545,1,0,0:0:0:0:
90,207,70722,1,0,0:0:0:0:
271,120,70898,1,0,1:0:0:0:
450,197,71075,2,0,B|465:138|465:138|441:104|384:96|384:96|384:147,1,180,8|0,0:0|0:0,0:0:0:0:
297,222,71428,6,0,B|251:233|251:233|156:208,1,120,0|0,1:0|0:0,0:0:0:0:
398,315,71781,1,8,0:0:0:0:
149,311,71957,1,0,0:0:0:0:
109,284,72045,1,0,0:0:0:0:
82,243,72134,1,0,0:0:0:0:
83,195,72222,1,0,0:0:0:0:
100,150,72310,1,0,1:0:0:0:
307,13,72487,2,0,B|314:55|314:55|271:141|271:141|215:152,1,180,8|0,0:0|0:0,0:0:0:0:
384,130,72839,6,0,B|420:123|420:123|415:230,1,120,0|0,1:0|0:0,0:0:0:0:
344,298,73192,1,8,0:0:0:0:
115,212,73369,2,0,B|168:203|168:203|233:224|233:224|314:212,1,180,0|0,0:0|0:0,0:0:0:0:
510,76,73722,6,0,P|473:73|436:86,1,60,0|0,1:0|0:0,0:0:0:0:
299,156,73898,2,0,P|291:181|294:226,1,60,8|0,0:0|0:0,0:0:0:0:
248,52,74075,2,0,P|278:57|334:82,1,60,0|0,0:0|0:0,0:0:0:0:
431,208,74251,6,0,B|455:252|445:309|445:309|406:284,1,120,0|0,1:0|0:0,0:0:0:0:
384,131,74604,1,8,0:0:0:0:
225,231,74781,1,0,0:0:0:0:
201,228,74869,1,0,0:0:0:0:
177,227,74957,1,0,0:0:0:0:
153,225,75045,1,0,0:0:0:0:
128,223,75134,1,0,1:0:0:0:
272,20,75310,2,0,B|246:75|246:75|265:151,1,120,8|0,0:0|0:0,0:0:0:0:
475,375,75663,6,0,B|501:320|501:320|482:244,1,120,0|0,1:0|0:0,0:0:0:0:
376,200,76016,1,8,0:0:0:0:
201,322,76192,1,0,0:0:0:0:
241,311,76280,1,0,0:0:0:0:
282,315,76368,1,0,0:0:0:0:
321,329,76456,1,0,0:0:0:0:
356,352,76545,1,0,1:0:0:0:
108,384,76722,2,0,B|80:343|80:343|73:252,1,120,8|0,0:0|0:0,0:0:0:0:
155,195,77075,5,0,1:0:0:0:
1,91,77251,1,0,0:0:0:0:
0,115,77339,1,0,0:0:0:0:
8,137,77428,1,8,0:0:0:0:
150,97,77604,1,0,0:0:0:0:
198,101,77692,1,0,0:0:0:0:
245,89,77781,1,0,0:0:0:0:
292,78,77869,1,0,0:0:0:0:
339,81,77957,1,0,1:0:0:0:
187,0,78134,5,8,0:0:0:0:
308,179,78310,1,0,0:0:0:0:
308,179,78398,1,0,0:0:0:0:
308,179,78487,2,0,B|322:211|316:257|316:257|286:321,1,120,0|0,1:0|0:0,0:0:0:0:
190,341,78839,1,8,0:0:0:0:
44,254,79016,2,0,B|91:208|153:214|153:214|238:264,1,180,0|0,0:0|0:0,0:0:0:0:
283,306,79369,6,0,P|315:290|347:253,1,60,0|0,1:0|0:0,0:0:0:0:
137,316,79545,2,0,P|163:335|203:340,1,60,8|0,0:0|0:0,0:0:0:0:
361,376,79722,2,0,P|393:369|435:360,1,60,0|0,0:0|0:0,0:0:0:0:
493,46,79898,6,0,B|509:117|509:117|501:172,1,120,0|0,1:0|0:0,0:0:0:0:
436,271,80251,1,8,0:0:0:0:
215,151,80428,1,0,0:0:0:0:
240,110,80516,1,0,0:0:0:0:
281,85,80604,1,0,0:0:0:0:
328,77,80692,1,0,0:0:0:0:
375,86,80781,2,0,P|371:39|362:21,1,60,0|0,1:0|0:0,0:0:0:0:
327,200,80957,2,0,P|324:234|332:271,1,60,8|0,0:0|0:0,0:0:0:0:
454,172,81134,1,0,0:0:0:0:
194,107,81310,6,0,B|108:84|108:84|139:132,1,120,0|0,1:0|0:0,0:0:0:0:
186,250,81663,1,8,0:0:0:0:
327,200,81839,2,0,B|453:173|453:173|381:140,1,180,0|0,0:0|0:0,0:0:0:0:
373,109,82192,2,0,L|384:190,1,60,0|0,1:0|0:0,0:0:0:0:
412,338,82369,6,0,B|428:386|494:367|514:323|496:286|496:286|456:272,1,180,8|0,0:0|0:0,0:0:0:0:
396,256,82722,5,0,1:0:0:0:
250,330,82898,1,0,0:0:0:0:
209,319,82986,1,0,0:0:0:0:
176,292,83074,1,8,0:0:0:0:
135,279,83162,1,0,0:0:0:0:
92,282,83251,1,0,0:0:0:0:
251,226,83428,2,0,B|332:196|332:196|282:183,1,120,0|0,0:0|1:0,0:0:0:0:
121,373,83781,1,8,0:0:0:0:
0,200,83957,1,0,0:0:0:0:
8,177,84045,1,0,0:0:0:0:
15,154,84134,6,0,B|56:187|56:187|122:179,1,120,0|0,1:0|0:0,0:0:0:0:
402,118,84487,1,8,0:0:0:0:
317,39,84663,1,0,0:0:0:0:
292,79,84751,1,0,0:0:0:0:
284,126,84839,1,0,0:0:0:0:
298,172,84928,1,0,0:0:0:0:
327,209,85016,6,0,L|400:202,1,60,0|0,1:0|0:0,0:0:0:0:
166,250,85192,2,0,L|103:239,1,60,8|0,0:0|0:0,0:0:0:0:
395,322,85369,2,0,L|472:333,1,60,0|0,0:0|0:0,0:0:0:0:
145,359,85545,6,0,B|98:377|98:377|46:366|46:366|71:355,1,120,0|0,1:0|0:0,0:0:0:0:
275,316,85898,1,8,0:0:0:0:
145,237,86075,2,0,B|134:188|134:188|151:94|151:94|168:133,1,180,0|0,0:0|0:0,0:0:0:0:
225,185,86428,1,0,1:0:0:0:
259,36,86604,1,8,0:0:0:0:
37,129,86781,1,0,0:0:0:0:
31,105,86869,1,0,0:0:0:0:
25,81,86957,6,0,B|89:49|89:49|80:121,1,120,0|0,1:0|0:0,0:0:0:0:
0,243,87310,1,8,0:0:0:0:
302,177,87487,1,0,0:0:0:0:
348,182,87575,1,0,0:0:0:0:
391,201,87663,1,0,0:0:0:0:
429,232,87751,1,0,0:0:0:0:
457,270,87839,1,0,1:0:0:0:
201,222,88016,2,0,B|163:105|163:105|214:153,1,180,8|0,0:0|0:0,0:0:0:0:
133,289,88369,6,0,B|95:315|95:315|114:237,1,120,0|0,1:0|0:0,0:0:0:0:
305,346,88722,1,8,0:0:0:0:
391,201,88898,2,0,P|402:163|390:123,2,60,0|0|0,0:0|0:0|0:0,0:0:0:0:
219,13,89251,6,0,P|213:42|221:71,1,60,0|0,1:0|0:0,0:0:0:0:
372,29,89428,2,0,P|339:31|285:47,1,60,8|0,0:0|0:0,0:0:0:0:
63,48,89604,2,0,P|106:53|138:80,1,60,0|0,0:0|0:0,0:0:0:0:
253,207,89781,5,0,1:0:0:0:
28,293,89957,2,0,L|-11:309,2,30,0|0|0,0:0|0:0|0:0,0:0:0:0:
158,325,90134,1,8,0:0:0:0:
170,150,90310,5,0,0:0:0:0:
349,264,90487,2,0,L|401:298,2,40,0|0|0,0:0|0:0|0:0,0:0:0:0:
151,339,90663,1,0,1:0:0:0:
340,384,90839,1,8,0:0:0:0:
472,244,91016,1,0,0:0:0:0:
334,87,91192,6,0,P|336:57|342:25,1,60,0|0,1:0|0:0,0:0:0:0:
437,153,91369,2,0,P|459:131|473:105,1,60,0|0,0:0|0:0,0:0:0:0:
228,141,91545,2,0,P|206:119|195:92,1,60,8|0,0:0|0:0,0:0:0:0:
326,189,91722,1,0,0:0:0:0:
181,292,91898,1,0,0:0:0:0:
223,272,91986,1,0,0:0:0:0:
270,272,92074,1,0,1:0:0:0:
312,291,92162,1,0,0:0:0:0:
359,288,92251,1,8,0:0:0:0:
244,369,92428,1,0,0:0:0:0:
212,45,92604,6,0,P|238:10|269:-7,1,60,0|0,1:0|0:0,0:0:0:0:
175,199,92781,2,0,P|192:239|191:274,1,60,0|0,0:0|0:0,0:0:0:0:
58,86,92957,2,0,P|14:80|-15:62,1,60,8|0,0:0|0:0,0:0:0:0:
148,114,93134,1,0,0:0:0:0:
108,348,93310,1,0,0:0:0:0:
59,355,93398,1,0,0:0:0:0:
37,313,93487,1,0,1:0:0:0:
71,279,93575,1,0,0:0:0:0:
113,300,93663,1,8,0:0:0:0:
376,260,93839,1,0,0:0:0:0:
328,144,94016,5,0,1:0:0:0:
288,380,94192,1,0,0:0:0:0:
512,296,94368,1,8,0:0:0:0:
232,256,94545,2,0,B|190:170|190:170|229:184|229:184|181:205,1,180,0|0,0:0|0:0,0:0:0:0:
59,263,94898,2,0,L|-5:290,1,60,0|0,1:0|0:0,0:0:0:0:
82,162,95075,2,0,L|55:103,1,60,8|0,0:0|0:0,0:0:0:0:
148,327,95251,1,0,0:0:0:0:
381,210,95428,6,0,B|459:188|459:188|440:231,1,120,0|0,1:0|0:0,0:0:0:0:
230,355,95781,1,8,0:0:0:0:
113,45,95957,1,0,0:0:0:0:
113,45,96310,1,0,1:0:0:0:
121,92,96398,1,0,0:0:0:0:
109,139,96487,1,8,0:0:0:0:
83,179,96575,1,0,0:0:0:0:
66,223,96663,1,0,0:0:0:0:
68,270,96751,1,0,0:0:0:0:
89,312,96839,6,0,B|118:348|123:381|123:381|154:317,1,120,0|0,1:0|0:0,0:0:0:0:
7,88,97192,1,8,0:0:0:0:
183,238,97369,1,0,0:0:0:0:
307,88,97545,6,0,P|297:52|310:22,1,60,0|0,0:0|0:0,0:0:0:0:
409,140,97722,2,0,P|449:113|464:84,1,60,0|0,1:0|0:0,0:0:0:0:
219,147,97898,2,0,P|189:114|179:87,1,60,8|0,0:0|0:0,0:0:0:0:
404,251,98075,2,0,P|440:253|490:241,1,60,0|0,0:0|0:0,0:0:0:0:
307,204,98251,6,0,B|285:252|285:252|301:322,1,120,0|0,1:0|0:0,0:0:0:0:
183,238,98604,1,8,0:0:0:0:
346,384,98781,1,0,0:0:0:0:
92,342,98957,6,0,P|65:359|44:390,1,60,0|0,0:0|0:0,0:0:0:0:
103,294,99134,2,0,P|71:295|37:311,1,60,0|0,1:0|0:0,0:0:0:0:
135,255,99310,2,0,P|106:240|69:237,1,60,8|0,0:0|0:0,0:0:0:0:
183,238,99487,2,0,P|166:211|135:190,1,60,0|0,0:0|0:0,0:0:0:0:
211,342,99663,2,0,B|328:309|328:309|277:365,1,180,0|0,1:0|0:0,0:0:0:0:
269,291,100016,1,8,0:0:0:0:
457,351,100192,2,0,B|481:263|428:216|428:216|418:258,1,180,0|0,0:0|0:0,0:0:0:0:
336,183,100545,6,0,P|322:120|325:109,1,60,0|0,1:0|0:0,0:0:0:0:
438,110,100722,2,0,P|445:51|442:41,1,60,8|0,0:0|0:0,0:0:0:0:
230,98,100898,2,0,P|191:90|137:101,1,60,0|0,0:0|0:0,0:0:0:0:
2,213,101075,5,0,1:0:0:0:
210,308,101251,1,0,0:0:0:0:
428,215,101428,2,0,P|424:148|407:120,1,90.0000034332277,8|0,0:0|0:0,0:0:0:0:
378,103,101692,1,0,0:0:0:0:
343,92,101781,1,0,0:0:0:0:
307,94,101869,1,0,0:0:0:0:
276,114,101957,1,0,1:0:0:0:
336,183,102134,1,8,0:0:0:0:
482,59,102310,1,0,0:0:0:0:
333,303,102487,6,0,B|261:250|261:250|299:257,1,120,0|0,1:0|0:0,0:0:0:0:
467,341,102839,1,8,0:0:0:0:
228,378,103016,1,0,0:0:0:0:
422,266,103192,2,0,P|457:253|493:258,1,60,0|0,0:0|0:0,0:0:0:0:
265,252,103369,2,0,P|231:240|193:241,1,60,0|0,1:0|0:0,0:0:0:0:
455,165,103545,2,0,P|499:149|532:121,1,60,8|0,0:0|0:0,0:0:0:0:
238,142,103722,2,0,P|222:115|174:104,1,60,0|0,0:0|0:0,0:0:0:0:
352,120,103898,6,0,B|366:47|366:47|358:2,1,120,0|0,1:0|0:0,0:0:0:0:
372,227,104251,1,8,0:0:0:0:
255,325,104428,2,0,B|218:212|218:212|266:252,1,180,0|0,0:0|0:0,0:0:0:0:
345,304,104781,2,0,P|404:305|409:298,1,60,0|0,1:0|0:0,0:0:0:0:
165,341,104957,2,0,P|97:353|94:352,1,60,8|0,0:0|0:0,0:0:0:0:
115,173,105134,1,0,0:0:0:0:
109,196,105222,1,0,0:0:0:0:
103,219,105310,6,0,B|51:190|51:190|29:106,1,120,0|0,1:0|0:0,0:0:0:0:
180,31,105663,1,8,0:0:0:0:
324,254,105839,1,0,0:0:0:0:
341,210,105927,1,0,0:0:0:0:
340,162,106015,1,0,0:0:0:0:
319,121,106103,1,0,0:0:0:0:
283,90,106192,2,0,P|309:67|343:65,1,60,0|0,1:0|0:0,0:0:0:0:
214,190,106369,2,0,P|193:166|194:130,1,60,8|0,0:0|0:0,0:0:0:0:
197,22,106545,1,0,0:0:0:0:
415,104,106722,6,0,B|447:88|480:55|480:55|463:126,1,120,0|0,1:0|0:0,0:0:0:0:
296,215,107075,1,8,0:0:0:0:
500,219,107251,2,0,B|489:176|489:176|458:212|458:212|489:308,1,180,0|0,0:0|0:0,0:0:0:0:
512,381,107604,2,0,B|464:344|464:344|401:350,1,120,0|8,1:0|0:0,0:0:0:0:
130,341,107957,1,0,0:0:0:0:
137,324,108045,1,0,0:0:0:0:
143,306,108134,2,0,B|238:312|238:312|224:285,1,120,0|0,1:0|0:0,0:0:0:0:
0,311,108487,1,8,0:0:0:0:
136,187,108663,6,0,B|172:221|172:221|190:139,1,120,0|0,0:0|0:0,0:0:0:0:
188,24,109016,1,0,1:0:0:0:
42,121,109193,2,0,B|1:95|1:95|77:68,1,120,8|0,0:0|0:0,0:0:0:0:
391,135,109545,2,0,B|419:136|481:120|481:120|445:102,1,120,0|0,1:0|0:0,0:0:0:0:
361,8,109898,1,8,0:0:0:0:
315,249,110075,2,0,B|298:222|298:222|377:235|377:235|466:218,1,180,0|0,0:0|0:0,0:0:0:0:
289,132,110428,2,0,B|212:116|212:116|241:170,1,120,0|8,1:0|0:0,0:0:0:0:
396,384,110781,1,0,0:0:0:0:
422,369,110869,1,0,0:0:0:0:
448,355,110957,6,0,B|369:354|369:354|316:340,1,120,0|0,1:0|0:0,0:0:0:0:
0,352,111310,1,8,0:0:0:0:
92,308,111487,2,0,B|158:290|158:290|234:308,1,120,0|0,0:0|0:0,0:0:0:0:
0,206,111839,2,0,B|58:221|58:221|139:201,1,120,0|8,1:0|0:0,0:0:0:0:
290,132,112192,1,0,0:0:0:0:
200,168,112369,5,0,1:0:0:0:
386,102,112545,1,0,0:0:0:0:
111,134,112722,1,8,0:0:0:0:
473,146,112898,1,0,0:0:0:0:
473,146,113251,1,0,1:0:0:0:
113,223,113428,6,0,B|43:207|43:207|2:143|29:90,1,192,8|0,0:0|1:0,0:0:0:0:
125,30,113957,1,0,0:0:0:0:
214,100,114134,1,8,0:0:0:0:
214,100,114310,2,0,B|265:84|265:84|324:102,2,107.999996704102,0|0|0,0:0|0:0|1:0,0:0:0:0:
413,154,114839,2,0,P|423:89|404:44,1,107.999996704102,8|0,0:0|0:0,0:0:0:0:
269,209,115192,6,0,P|252:255|274:321,1,107.999996704102,0|0,1:0|0:0,0:0:0:0:
378,260,115545,1,8,0:0:0:0:
378,260,115722,2,0,L|134:249,1,215.999993408203,0|0,0:0|1:0,0:0:0:0:
269,209,116251,2,0,P|284:257|262:314,1,107.999996704102,8|0,0:0|0:0,0:0:0:0:
19,90,116604,6,0,L|246:101,1,215.999993408203,0|8,1:0|0:0,0:0:0:0:
235,101,117134,1,0,0:0:0:0:
162,191,117310,2,0,B|163:251|163:251|205:209,1,107.999996704102,0|0,0:0|1:0,0:0:0:0:
324,113,117663,2,0,B|351:81|351:81|353:147,1,107.999996704102,8|0,0:0|0:0,0:0:0:0:
284,268,118016,5,0,1:0:0:0:
372,330,118192,1,0,0:0:0:0:
385,222,118369,1,8,0:0:0:0:
284,268,118545,2,0,B|207:295|207:295|56:278,1,215.999993408203,0|0,0:0|1:0,0:0:0:0:
73,279,119075,1,8,0:0:0:0:
0,91,119428,6,0,B|38:113|38:113|108:119,1,107.999996704102,0|0,1:0|0:0,0:0:0:0:
206,172,119781,1,8,0:0:0:0:
181,30,119957,1,0,0:0:0:0:
206,172,120134,1,0,0:0:0:0:
298,64,120310,2,0,B|348:39|348:39|344:94,1,107.999996704102,0|8,1:0|0:0,0:0:0:0:
293,315,120839,6,0,B|274:262|274:262|291:212,1,107.999996704102,0|0,1:0|0:0,0:0:0:0:
395,266,121192,1,8,0:0:0:0:
408,376,121369,6,0,B|459:365|459:365|495:323,1,107.999996704102,0|0,0:0|0:0,0:0:0:0:
404,161,121722,6,0,B|458:171|458:171|493:210,1,107.999996704102,0|8,1:0|0:0,0:0:0:0:
217,223,122251,6,0,L|1:231,1,215.999993408203,0|8,1:0|0:0,0:0:0:0:
1,231,122781,1,0,0:0:0:0:
91,53,123134,1,0,1:0:0:0:
151,142,123310,1,8,0:0:0:0:
182,38,123487,1,0,0:0:0:0:
243,126,123663,5,0,1:0:0:0:
394,93,123839,1,0,0:0:0:0:
302,17,124016,1,8,0:0:0:0:
344,197,124192,1,0,0:0:0:0:
480,150,124369,2,0,B|478:300|478:300|424:221,1,215.999993408203,0|8,0:0|0:0,0:0:0:0:
251,365,125075,6,0,B|286:370|286:370|242:233|242:233|201:223,1,215.999993408203,0|8,1:0|0:0,0:0:0:0:
0,306,125604,2,0,B|58:293|58:293|184:322|184:322|175:291,1,215.999993408203,0|0,0:0|1:0,0:0:0:0:
106,191,126134,1,8,0:0:0:0:
106,191,126487,2,0,B|167:174|167:174|263:190|263:190|333:168,1,215.999993408203,0|8,1:0|0:0,0:0:0:0:
399,59,127016,2,0,B|462:25|462:25|442:168,1,215.999993408203,0|0,0:0|1:0,0:0:0:0:
269,55,127545,1,8,0:0:0:0:
437,276,127898,5,0,1:0:0:0:
237,351,128251,1,8,0:0:0:0:
257,245,128428,1,0,0:0:0:0:
147,229,128604,1,0,0:0:0:0:
205,315,128781,1,0,1:0:0:0:
259,224,128957,2,0,B|271:180|271:180|252:94,1,107.999996704102,8|0,0:0|0:0,0:0:0:0:
57,40,129310,6,0,B|37:77|37:77|51:150,1,107.999996704102,0|0,1:0|0:0,0:0:0:0:
157,24,129663,1,8,0:0:0:0:
159,121,129839,2,0,B|211:112|211:112|322:123|322:123|387:113,1,215.999993408203,0|0,0:0|1:0,0:0:0:0:
373,115,130369,1,8,0:0:0:0:
512,223,130722,6,0,L|391:217,2,107.999996704102,0|0|8,1:0|0:0|0:0,0:0:0:0:
440,308,131251,2,0,B|390:305|390:305|288:266|288:266|192:263,1,215.999993408203,0|0,0:0|1:0,0:0:0:0:
324,384,131781,2,0,B|346:332|346:332|329:280,1,107.999996704102,8|0,0:0|0:0,0:0:0:0:
136,352,132134,2,0,B|258:356,1,107.999996704102,0|0,1:0|0:0,0:0:0:0:
82,260,132487,1,8,0:0:0:0:
231,264,132663,2,0,B|279:215|279:215|200:152|200:152|135:147,1,215.999993408203,0|0,0:0|1:0,0:0:0:0:
54,63,133192,1,8,0:0:0:0:
54,63,133545,6,0,L|168:65,1,107.999996704102,0|0,1:0|0:0,0:0:0:0:
288,154,133898,2,0,L|419:156,1,107.999996704102,8|0,0:0|0:0,0:0:0:0:
82,259,134251,2,0,L|89:366,1,107.999996704102,0|0,0:0|1:0,0:0:0:0:
187,207,134604,2,0,L|196:314,1,107.999996704102,8|0,0:0|0:0,0:0:0:0:
394,111,134957,5,0,1:0:0:0:
288,154,135134,1,0,0:0:0:0:
282,122,135222,1,0,0:0:0:0:
276,90,135310,1,8,0:0:0:0:
484,148,135487,1,0,0:0:0:0:
476,179,135575,1,0,0:0:0:0:
469,214,135663,2,0,L|464:291,1,53.9999983520508,0|0,0:0|0:0,0:0:0:0:
308,341,135839,2,0,L|301:286,1,53.9999983520508,0|0,1:0|0:0,0:0:0:0:
360,198,136016,6,0,B|233:191,1,107.999996704102,8|0,0:0|0:0,0:0:0:0:
360,198,136369,5,0,1:0:0:0:
106,55,136722,2,0,B|240:47,1,120,8|0,0:0|0:0,0:0:0:0:
106,55,137075,1,0,0:0:0:0:
400,226,137251,1,0,1:0:0:0:
400,226,137428,2,0,L|269:219,1,120,8|0,0:0|0:0,0:0:0:0:
6,321,137781,5,0,1:0:0:0:
6,321,138134,2,0,L|136:306,1,120,8|0,0:0|0:0,0:0:0:0:
6,321,138487,1,0,0:0:0:0:
64,188,138663,1,0,1:0:0:0:
242,315,138839,2,0,B|283:331|283:331|318:256|292:209|219:213,1,180,8|0,0:0|0:0,0:0:0:0:
181,243,139192,5,0,1:0:0:0:
275,96,139369,1,0,0:0:0:0:
380,289,139545,1,8,0:0:0:0:
508,196,139722,2,0,B|519:145|519:145|499:65,1,120,0|0,0:0|0:0,0:0:0:0:
275,96,140075,1,0,1:0:0:0:
380,289,140251,1,8,0:0:0:0:
181,243,140428,1,0,0:0:0:0:
368,172,140604,5,0,1:0:0:0:
260,175,140781,1,0,0:0:0:0:
437,227,140957,1,8,0:0:0:0:
192,332,141134,1,0,0:0:0:0:
192,332,141487,1,0,1:0:0:0:
92,276,141663,1,8,0:0:0:0:
96,258,141751,1,0,0:0:0:0:
101,240,141839,1,0,0:0:0:0:
106,222,141928,1,0,0:0:0:0:
109,204,142016,6,0,B|80:86|80:86|129:123,1,180,0|0,1:0|0:0,0:0:0:0:
201,176,142369,1,8,0:0:0:0:
0,253,142545,1,0,0:0:0:0:
188,266,142722,2,0,B|256:267|256:267|295:207,1,120,0|0,0:0|1:0,0:0:0:0:
206,50,143075,1,8,0:0:0:0:
394,255,143428,6,0,B|453:155|453:155|481:239,1,180,0|0,1:0|0:0,0:0:0:0:
494,274,143781,1,8,0:0:0:0:
293,235,143957,2,0,L|133:246,1,120,0|0,0:0|0:0,0:0:0:0:
451,159,144310,1,0,1:0:0:0:
329,348,144487,1,8,0:0:0:0:
125,137,144663,1,0,0:0:0:0:
293,235,144839,5,0,1:0:0:0:
336,148,145016,1,0,0:0:0:0:
249,109,145192,1,8,0:0:0:0:
204,194,145369,2,0,L|209:326,1,120,0|0,0:0|0:0,0:0:0:0:
187,54,145722,1,0,1:0:0:0:
125,137,145898,2,0,B|203:166|203:166|294:134,1,180,8|0,0:0|0:0,0:0:0:0:
315,99,146251,6,0,L|302:157,1,60,0|0,1:0|0:0,0:0:0:0:
484,284,146428,1,0,0:0:0:0:
470,257,146516,1,0,0:0:0:0:
454,231,146604,2,0,L|473:151,1,60,8|0,0:0|0:0,0:0:0:0:
342,285,146781,2,0,L|360:222,1,60,0|0,0:0|0:0,0:0:0:0:
227,203,146957,2,0,L|200:125,1,60,0|0,0:0|0:0,0:0:0:0:
130,314,147134,2,0,L|100:234,1,60,0|0,1:0|0:0,0:0:0:0:
0,151,147310,2,0,B|48:130|48:130|112:163|112:163|176:157,1,180,8|0,0:0|0:0,0:0:0:0:
209,72,147663,6,0,B|135:78|135:78|170:37,1,120,0|0,1:0|0:0,0:0:0:0:
314,0,148016,1,8,0:0:0:0:
447,164,148192,2,0,B|502:170|502:170|458:119,1,120,0|0,0:0|0:0,0:0:0:0:
331,105,148545,1,0,1:0:0:0:
199,231,148722,2,0,B|148:240|148:240|195:190,1,120,8|0,0:0|0:0,0:0:0:0:
460,254,149075,6,0,B|515:271|515:271|455:288,1,90.0000034332277,0|0,1:0|0:0,0:0:0:0:
298,303,149428,2,0,B|370:288|370:288|313:270,1,120,8|0,0:0|0:0,0:0:0:0:
148,340,149781,1,0,0:0:0:0:
352,384,149957,1,0,1:0:0:0:
165,247,150134,6,0,B|103:231|103:231|31:250|31:250|80:259,1,180,8|0,0:0|0:0,0:0:0:0:
194,159,150487,2,0,B|208:110|208:110|195:37,1,120,0|0,1:0|0:0,0:0:0:0:
249,270,150839,1,8,0:0:0:0:
39,119,151016,2,0,B|23:67|23:67|46:-12,1,120,0|0,0:0|0:0,0:0:0:0:
107,189,151369,1,0,1:0:0:0:
34,266,151545,2,0,B|20:330|20:330|35:395,1,120,8|0,0:0|0:0,0:0:0:0:
33,384,151810,1,0,0:0:0:0:
33,384,151898,5,0,1:0:0:0:
140,329,152075,1,0,0:0:0:0:
254,362,152251,1,8,0:0:0:0:
361,307,152428,1,0,0:0:0:0:
192,143,152604,5,0,0:0:0:0:
448,192,152781,1,0,1:0:0:0:
478,93,152957,1,8,0:0:0:0:
256,220,153134,5,0,0:0:0:0:
256,248,153222,1,0,0:0:0:0:
255,277,153310,2,0,B|330:294|330:294|438:274|438:274|337:250,1,240,0|8,1:0|0:0,0:0:0:0:
81,221,153839,2,0,B|-5:251|-5:251|87:279,1,180,0|0,0:0|0:0,0:0:0:0:
172,252,154192,1,0,1:0:0:0:
172,88,154369,1,8,0:0:0:0:
172,88,154722,5,0,1:0:0:0:
64,88,154898,1,0,0:0:0:0:
280,88,155075,2,0,L|412:88,2,120,8|0|0,0:0|0:0|0:0,0:0:0:0:
48,0,155604,1,0,1:0:0:0:
172,176,155781,1,8,0:0:0:0:
172,0,155957,1,0,0:0:0:0:
97,279,156134,6,0,B|54:236|54:236|51:168,1,120,0|0,1:0|0:0,0:0:0:0:
172,88,156487,1,8,0:0:0:0:
284,176,156663,1,0,0:0:0:0:
313,171,156751,1,0,0:0:0:0:
342,167,156839,1,0,0:0:0:0:
372,163,156928,1,0,0:0:0:0:
401,159,157016,1,0,1:0:0:0:
430,157,157104,1,0,0:0:0:0:
459,152,157192,6,0,B|504:180|504:180|516:232|488:280|411:270,1,180,8|0,0:0|0:0,0:0:0:0:
323,320,157545,2,0,L|270:315,1,54,0|0,1:0|0:0,0:0:0:0:
269,314,158428,1,0,1:0:0:0:
197,228,158604,6,0,B|160:192|129:119|160:22|252:28|289:103|295:162|272:230,1,360,8|0,0:0|0:0,0:0:0:0:
100,378,158957,2,0,B|67:347|67:347|45:259,1,120,0|0,1:0|0:0,0:0:0:0:
390,182,159310,1,8,0:0:0:0:
221,381,159487,1,0,0:0:0:0:
59,159,159663,1,0,0:0:0:0:
420,289,159839,2,0,B|455:274|455:274|486:230|486:230|533:210,2,120,0|8|0,1:0|0:0|0:0,0:0:0:0:
170,49,160369,5,0,1:0:0:0:
156,206,160545,1,0,0:0:0:0:
25,78,160722,1,8,0:0:0:0:
309,170,160898,2,0,B|428:154|428:154|365:119,1,180,0|0,0:0|0:0,0:0:0:0:
310,86,161251,1,0,1:0:0:0:
107,288,161428,1,8,0:0:0:0:
78,257,161516,1,0,0:0:0:0:
63,217,161604,1,0,0:0:0:0:
67,175,161692,1,0,0:0:0:0:
90,139,161781,6,0,B|76:90|76:90|242:126,1,180,0|0,1:0|0:0,0:0:0:0:
202,117,162134,1,8,0:0:0:0:
0,125,162310,1,0,0:0:0:0:
293,174,162487,2,0,P|308:111|279:43,1,120,0|0,0:0|1:0,0:0:0:0:
217,344,162839,2,0,P|196:277|214:217,1,120,8|0,0:0|0:0,0:0:0:0:
206,229,163192,5,0,1:0:0:0:
411,300,163369,1,0,0:0:0:0:
363,293,163457,1,0,0:0:0:0:
315,288,163545,1,8,0:0:0:0:
467,199,163722,2,0,B|515:150|515:150|474:78|419:96,1,180,0|0,0:0|0:0,0:0:0:0:
348,153,164075,6,0,L|370:233,1,60,0|0,1:0|0:0,0:0:0:0:
269,57,164251,2,0,L|297:-10,1,60,8|0,0:0|0:0,0:0:0:0:
167,131,164428,2,0,L|175:201,1,60,0|0,0:0|0:0,0:0:0:0:
313,384,164604,5,0,1:0:0:0:
144,360,164781,1,0,0:0:0:0:
372,312,164957,1,8,0:0:0:0:
100,271,165134,2,0,B|85:150|85:150|152:199,1,180,0|0,0:0|0:0,0:0:0:0:
211,236,165487,1,0,1:0:0:0:
426,192,165663,1,8,0:0:0:0:
463,42,165839,2,0,P|409:47|381:57,1,60,0|0,0:0|0:0,0:0:0:0:
196,86,166016,6,0,B|135:96|86:48|184:17|224:51|235:97|341:89,1,240,0|8,1:0|0:0,0:0:0:0:
512,223,166545,2,0,B|428:203|419:265|307:231,1,180,0|0,0:0|0:0,0:0:0:0:
265,175,166898,1,0,1:0:0:0:
400,19,167075,2,0,B|415:83|415:83|391:151,1,120,8|0,0:0|0:0,0:0:0:0:
60,293,167428,6,0,B|89:261|89:261|146:287|146:287|226:278,1,180,0|0,1:0|0:0,0:0:0:0:
196,203,167781,1,8,0:0:0:0:
354,323,167957,1,0,0:0:0:0:
356,293,168045,1,0,0:0:0:0:
346,264,168134,1,0,0:0:0:0:
329,238,168222,1,0,0:0:0:0:
322,204,168310,2,0,P|329:174|358:134,1,60,0|0,1:0|0:0,0:0:0:0:
446,226,168487,2,0,P|491:234|536:269,1,60,8|0,0:0|0:0,0:0:0:0:
246,303,168663,2,0,P|213:293|182:277,1,60,0|0,0:0|0:0,0:0:0:0:
19,220,168839,6,0,B|63:227|63:227|153:194,1,120,0|0,1:0|0:0,0:0:0:0:
319,131,169192,1,8,0:0:0:0:
165,55,169369,1,0,0:0:0:0:
301,254,169545,1,0,0:0:0:0:
290,288,169634,1,0,0:0:0:0:
263,312,169722,1,0,1:0:0:0:
229,325,169810,1,0,0:0:0:0:
193,325,169898,1,8,0:0:0:0:
159,338,169987,1,0,0:0:0:0:
134,364,170075,1,0,0:0:0:0:
395,290,170251,6,0,P|415:258|409:237,1,60,0|0,1:0|0:0,0:0:0:0:
209,237,170428,2,0,P|188:204|196:159,1,60,0|0,0:0|0:0,0:0:0:0:
449,160,170604,2,0,P|482:136|458:98,1,60,8|0,0:0|0:0,0:0:0:0:
211,96,170781,2,0,P|191:70|186:25,1,60,0|0,0:0|0:0,0:0:0:0:
327,169,170957,1,0,0:0:0:0:
354,40,171134,1,0,1:0:0:0:
396,290,171310,2,0,B|387:365|387:365|358:310,1,120,8|0,0:0|0:0,0:0:0:0:
135,73,171663,6,0,B|106:59|106:59|145:138,1,120,0|0,1:0|0:0,0:0:0:0:
274,263,172016,1,8,0:0:0:0:
7,241,172192,2,0,B|66:216|66:216|125:238|125:238|220:216,1,180,0|0,0:0|0:0,0:0:0:0:
246,141,172545,1,0,1:0:0:0:
44,115,172722,2,0,B|73:61|73:61|146:37|146:37|192:55,1,180,8|0,0:0|0:0,0:0:0:0:
145,138,173075,6,0,B|134:168|134:168|144:191|144:191|140:274,1,120,0|0,1:0|0:0,0:0:0:0:
405,384,173428,1,8,0:0:0:0:
375,262,173604,1,0,0:0:0:0:
260,334,173781,1,0,0:0:0:0:
242,295,173869,1,0,0:0:0:0:
241,253,173957,1,0,1:0:0:0:
249,211,174045,1,0,0:0:0:0:
264,171,174134,1,8,0:0:0:0:
265,129,174222,1,0,0:0:0:0:
250,89,174310,1,0,0:0:0:0:
379,14,174487,5,0,1:0:0:0:
125,51,174663,1,0,0:0:0:0:
396,146,174839,1,8,0:0:0:0:
113,194,175016,2,0,B|10:179|10:179|56:145|56:145|78:164,1,180,0|0,0:0|0:0,0:0:0:0:
105,290,175369,2,0,P|109:323|96:361,1,60,0|0,1:0|0:0,0:0:0:0:
228,242,175545,2,0,P|264:297|272:318,1,60,8|0,0:0|0:0,0:0:0:0:
192,123,175722,2,0,P|270:116|281:118,1,60,0|0,0:0|0:0,0:0:0:0:
512,247,175898,6,0,B|441:249|441:249|379:218,1,120,0|0,1:0|0:0,0:0:0:0:
376,98,176251,1,8,0:0:0:0:
309,361,176428,6,0,B|282:270|282:270|365:310,1,180,0|0,0:0|0:0,0:0:0:0:
436,357,176781,1,0,1:0:0:0:
186,374,176957,1,8,0:0:0:0:
436,357,177134,1,0,0:0:0:0:
203,227,177310,6,0,L|205:100,1,120,0|0,1:0|0:0,0:0:0:0:
294,320,177663,1,8,0:0:0:0:
403,223,177839,1,0,0:0:0:0:
437,198,177928,1,0,0:0:0:0:
406,168,178016,1,0,0:0:0:0:
365,156,178104,1,0,0:0:0:0:
323,159,178192,1,0,1:0:0:0:
103,302,178369,2,0,B|42:333|-17:282|-17:282|26:257,1,180,8|0,0:0|0:0,0:0:0:0:
203,227,178722,6,0,L|201:372,1,120,0|0,1:0|0:0,0:0:0:0:
104,131,179075,1,8,0:0:0:0:
267,68,179251,2,0,L|386:83,1,120,0|0,0:0|0:0,0:0:0:0:
485,230,179604,1,0,1:0:0:0:
444,240,179692,1,0,0:0:0:0:
403,252,179781,2,0,L|435:321,1,60,8|0,0:0|0:0,0:0:0:0:
212,298,179957,2,0,L|291:278,1,60,0|0,0:0|0:0,0:0:0:0:
297,185,180134,5,0,1:0:0:0:
114,151,180310,6,0,L|168:158,3,40,0|0|0|8,0:0|0:0|0:0|0:0,0:0:0:0:
324,186,180663,1,0,0:0:0:0:
54,269,180839,2,0,L|92:258,3,40,0|0|0|0,0:0|0:0|0:0|1:0,0:0:0:0:
199,383,181192,1,8,0:0:0:0:
373,352,181369,1,0,0:0:0:0:
432,171,181545,6,0,L|416:93,1,60,0|0,1:0|0:0,0:0:0:0:
497,267,181722,2,0,L|481:349,1,60,0|0,0:0|0:0,0:0:0:0:
295,159,181898,2,0,L|277:94,1,60,8|0,0:0|0:0,0:0:0:0:
384,293,182075,2,0,L|368:374,1,60,0|0,0:0|0:0,0:0:0:0:
162,144,182251,1,0,0:0:0:0:
259,317,182428,1,0,1:0:0:0:
229,346,182516,1,0,0:0:0:0:
191,365,182604,1,8,0:0:0:0:
61,215,182781,1,0,0:0:0:0:
162,144,182957,6,0,P|195:158|240:160,1,60,0|0,1:0|0:0,0:0:0:0:
295,159,183134,2,0,P|327:147|354:113,1,60,0|0,0:0|0:0,0:0:0:0:
392,67,183310,2,0,P|397:30|384:-15,1,60,8|0,0:0|0:0,0:0:0:0:
263,47,183487,6,0,B|268:122|356:122|360:220,1,180,0|0,0:0|0:0,0:0:0:0:
372,309,183839,1,0,1:0:0:0:
117,353,184016,1,8,0:0:0:0:
124,311,184104,1,0,0:0:0:0:
141,272,184192,1,0,0:0:0:0:
169,240,184281,1,0,0:0:0:0:
192,205,184369,6,0,B|142:179|142:179|126:102,1,120,0|0,1:0|0:0,0:0:0:0:
173,23,184634,1,0,0:0:0:0:
173,23,184722,1,8,0:0:0:0:
333,167,184898,2,0,B|312:238|312:238|275:284|275:284|278:364,1,180,0|0,0:0|0:0,0:0:0:0:
374,304,185251,2,0,L|384:388,1,60,0|0,1:0|0:0,0:0:0:0:
223,204,185428,2,0,L|214:131,1,60,8|0,0:0|0:0,0:0:0:0:
439,92,185604,2,0,L|430:178,1,60,0|0,0:0|0:0,0:0:0:0:
457,235,185781,5,0,1:0:0:0:
188,342,185957,1,0,0:0:0:0:
486,347,186134,1,8,0:0:0:0:
231,245,186310,2,0,B|116:219|116:219|86:272|86:272|146:258,1,240,0|0,0:0|1:0,0:0:0:0:
176,232,186751,1,0,0:0:0:0:
185,191,186839,1,8,0:0:0:0:
177,151,186928,1,0,0:0:0:0:
153,116,187016,1,0,0:0:0:0:
114,99,187104,1,0,0:0:0:0:
73,99,187192,6,0,B|33:102|7:125|7:125|-3:47,1,120,0|0,1:0|0:0,0:0:0:0:
208,39,187545,1,8,0:0:0:0:
94,201,187722,2,0,B|109:259|109:259|154:309|154:309|166:376,1,180,0|0,0:0|0:0,0:0:0:0:
5,246,188075,1,0,1:0:0:0:
374,311,188251,1,8,0:0:0:0:
390,279,188339,1,0,0:0:0:0:
391,243,188428,1,0,0:0:0:0:
380,208,188516,1,0,0:0:0:0:
353,180,188604,6,0,B|316:140|316:140|406:138,1,120,0|0,1:0|0:0,0:0:0:0:
512,234,188957,1,8,0:0:0:0:
285,251,189134,2,0,B|258:219|258:219|266:60,1,180,0|0,0:0|0:0,0:0:0:0:
266,24,189487,1,0,1:0:0:0:
383,81,189663,2,0,P|402:52|401:17,1,60,8|0,0:0|0:0,0:0:0:0:
142,61,189839,2,0,P|132:30|133:-9,1,60,0|0,0:0|0:0,0:0:0:0:
281,144,190016,6,0,P|209:127|230:198,1,180,0|0,1:0|0:0,0:0:0:0:
368,216,190369,1,8,0:0:0:0:
144,280,190545,1,0,0:0:0:0:
368,308,190722,1,0,0:0:0:0:
158,168,190898,2,0,L|121:92,1,60,0|0,1:0|0:0,0:0:0:0:
257,317,191075,2,0,L|243:375,1,60,8|0,0:0|0:0,0:0:0:0:
365,133,191251,6,0,B|455:95|455:95|429:137,1,120,0|0,0:0|1:0,0:0:0:0:
120,268,191604,1,0,0:0:0:0:
448,352,191781,1,8,0:0:0:0:
512,45,191957,1,0,0:0:0:0:
4,101,192310,1,0,1:0:0:0:
181,138,192487,1,8,0:0:0:0:
73,6,192663,1,0,0:0:0:0:
21,214,192839,6,0,B|0:185|0:185|3:95,1,120,0|0,1:0|0:0,0:0:0:0:
137,258,193192,1,8,0:0:0:0:
287,199,193369,1,0,0:0:0:0:
297,158,193457,1,0,0:0:0:0:
321,123,193545,1,0,0:0:0:0:
346,88,193634,1,0,0:0:0:0:
359,48,193722,1,0,1:0:0:0:
504,12,193898,1,8,0:0:0:0:
422,206,194075,1,0,0:0:0:0:
277,232,194251,6,0,B|196:219|196:219|159:166,1,120,0|0,1:0|0:0,0:0:0:0:
358,362,194604,1,8,0:0:0:0:
239,358,194781,1,0,0:0:0:0:
229,317,194869,1,0,0:0:0:0:
205,282,194957,1,0,0:0:0:0:
180,247,195045,1,0,0:0:0:0:
167,207,195134,1,0,1:0:0:0:
26,177,195310,1,8,0:0:0:0:
78,358,195487,2,0,P|113:362|141:357,1,60,0|0,0:0|0:0,0:0:0:0:
315,289,195663,6,0,B|341:238|341:238|334:197|308:152,1,120,0|0,1:0|0:0,0:0:0:0:
177,128,196016,1,8,0:0:0:0:
430,0,196192,2,0,B|432:51|432:51|420:113|420:113|442:177,1,180,0|0,0:0|0:0,0:0:0:0:
331,59,196545,2,0,L|260:52,1,60,0|0,1:0|0:0,0:0:0:0:
512,91,196722,2,0,L|436:106,1,60,8|0,0:0|0:0,0:0:0:0:
334,161,196898,2,0,L|318:252,1,60,0|0,0:0|0:0,0:0:0:0:
492,352,197075,6,0,B|517:328|508:272|508:272|477:210,1,120,0|0,1:0|0:0,0:0:0:0:
256,376,197428,1,8,0:0:0:0:
20,352,197604,6,0,B|-5:328|4:272|4:272|24:219|24:219|60:267,1,180,0|0,0:0|0:0,0:0:0:0:
142,317,197957,2,0,P|153:223|128:187,1,120,0|8,1:0|0:0,0:0:0:0:
26,91,198310,1,0,0:0:0:0:
248,36,198487,6,0,P|218:33|191:45,1,60,0|0,1:0|0:0,0:0:0:0:
392,176,198663,2,0,P|418:192|451:187,1,60,0|0,0:0|0:0,0:0:0:0:
448,36,198839,2,0,P|419:27|389:29,1,60,8|0,0:0|0:0,0:0:0:0:
220,192,199016,2,0,P|252:196|297:157,1,60,0|0,0:0|0:0,0:0:0:0:
327,107,199192,1,0,0:0:0:0:
455,274,199369,1,0,1:0:0:0:
464,314,199457,1,0,0:0:0:0:
471,355,199545,1,8,0:0:0:0:
512,114,199722,1,0,0:0:0:0:
307,306,199898,6,0,L|227:298,1,60,0|0,1:0|0:0,0:0:0:0:
313,189,200075,2,0,L|372:175,1,60,0|0,0:0|0:0,0:0:0:0:
128,214,200251,2,0,L|69:205,1,60,8|0,0:0|0:0,0:0:0:0:
217,162,200428,2,0,B|219:228|219:228|203:284|203:284|214:338,1,180,0|0,0:0|0:0,0:0:0:0:
224,384,200781,1,0,1:0:0:0:
12,357,200957,1,8,0:0:0:0:
25,330,201045,1,0,0:0:0:0:
34,301,201134,6,0,L|22:154,2,120,0|0|0,0:0|1:0|0:0,0:0:0:0:
181,371,201663,1,8,0:0:0:0:
342,303,201839,2,0,B|378:292|378:292|428:200|428:200|390:212,1,180,0|0,0:0|0:0,0:0:0:0:
288,216,202192,1,0,1:0:0:0:
198,270,202369,1,8,0:0:0:0:
102,227,202545,1,0,0:0:0:0:
192,177,202722,5,0,1:0:0:0:
288,216,202898,5,0,0:0:0:0:
186,88,203075,5,8,0:0:0:0:
204,366,203251,1,0,0:0:0:0:
204,366,203604,5,0,1:0:0:0:
101,318,203781,6,0,B|70:264|70:264|104:179|104:179|100:93,1,240,8|0,0:0|1:0,0:0:0:0:
438,263,215428,6,0,P|460:228|411:173,1,120,0|0,1:0|0:0,0:0:0:0:
343,312,215781,1,8,0:0:0:0:
260,232,215957,2,0,P|197:214|165:267,1,120,0|0,0:0|0:0,0:0:0:0:
122,361,216310,2,0,P|64:370|18:324,1,120,0|8,1:0|0:0,0:0:0:0:
45,230,216839,6,0,B|27:182|27:182|36:94,1,120,0|0,1:0|0:0,0:0:0:0:
175,70,217192,1,8,0:0:0:0:
133,171,217369,2,0,B|145:201|145:201|246:210,1,120,0|0,0:0|0:0,0:0:0:0:
324,286,217722,1,0,1:0:0:0:
338,198,217898,6,0,B|292:188|233:221|238:301|238:301|274:365,1,240,8|0,0:0|1:0,0:0:0:0:
512,145,218604,1,8,0:0:0:0:
458,256,218781,1,0,0:0:0:0:
404,122,218957,2,0,B|389:88|389:88|383:-19,1,120,0|0,0:0|1:0,0:0:0:0:
256,79,219310,2,0,B|276:115|276:115|274:220,1,120,8|0,0:0|0:0,0:0:0:0:
150,47,219663,5,0,1:0:0:0:
121,205,219839,1,0,0:0:0:0:
4,112,220016,1,8,0:0:0:0:
121,205,220192,2,0,B|184:188|184:188|286:215|286:215|375:198,1,240,0|0,0:0|1:0,0:0:0:0:
446,159,220722,1,8,0:0:0:0:
452,148,220898,1,0,0:0:0:0:
457,137,221075,6,0,B|479:205|479:205|468:256,1,120,0|0,1:0|0:0,0:0:0:0:
490,357,221428,1,8,0:0:0:0:
372,318,221604,2,0,B|260:265|256:350|120:306,1,240,0|0,0:0|1:0,0:0:0:0:
19,358,222134,1,8,0:0:0:0:
196,213,222487,6,0,B|241:191|241:191|341:168,1,120,0|0,1:0|0:0,0:0:0:0:
411,192,222839,1,8,0:0:0:0:
503,110,223016,2,0,B|443:88|443:88|344:86|344:86|270:63,1,240,0|0,0:0|1:0,0:0:0:0:
486,253,223545,1,8,0:0:0:0:
486,253,223898,6,0,P|475:321|472:405,1,120,0|0,1:0|0:0,0:0:0:0:
339,215,224251,2,0,P|345:278|364:359,1,120,8|0,0:0|0:0,0:0:0:0:
193,147,224604,2,0,P|189:253|183:300,1,120,0|0,0:0|1:0,0:0:0:0:
83,40,224957,2,0,P|76:131|57:184,2,120,8|0|0,0:0|0:0|1:0,0:0:0:0:
202,19,225487,1,0,0:0:0:0:
307,78,225663,1,8,0:0:0:0:
351,190,225839,1,0,0:0:0:0:
193,147,226016,6,0,B|100:161|100:161|131:174,1,120,0|0,0:0|1:0,0:0:0:0:
365,307,226369,1,8,0:0:0:0:
160,303,226722,6,0,P|130:307|102:317,3,60,0|0|8|0,1:0|0:0|0:0|0:0,0:0:0:0:
42,368,227428,2,0,P|54:312|45:223,1,120,0|8,0:0|0:0,0:0:0:0:
54,54,228134,1,0,1:0:0:0:
123,89,228310,2,0,P|161:91|188:83,1,60,0|8,0:0|0:0,0:0:0:0:
231,25,228663,2,0,P|224:115|246:216,1,180,0|8,0:0|0:0,0:0:0:0:
395,132,229545,6,0,P|415:56|466:23,2,120,0|8|0,1:0|0:0|0:0,0:0:0:0:
462,172,230428,2,0,P|471:197|472:236,2,60,0|8|0,1:0|0:0|0:0,0:0:0:0:
394,210,230957,6,0,P|277:232|191:224,1,180,0|0,1:0|0:0,0:0:0:0:
62,121,231839,1,0,1:0:0:0:
62,121,232016,1,8,0:0:0:0:
240,347,232369,5,0,1:0:0:0:
240,347,232545,2,0,P|200:261|151:309,1,180,0|0,0:0|0:0,0:0:0:0:
43,384,233428,1,8,0:0:0:0:
363,284,233781,2,0,P|390:198|304:181,2,180,0|0|8,1:0|0:0|0:0,0:0:0:0:
227,223,235192,6,0,B|184:121|265:120|218:8,1,210,0|0,1:0|0:0,0:0:0:0:
91,151,236075,1,0,1:0:0:0:
91,151,236251,2,0,P|60:150|18:125,1,60,8|0,0:0|0:0,0:0:0:0:
11,247,236604,6,0,P|89:229|195:264,1,180,0|0,1:0|0:0,0:0:0:0:
315,349,237487,1,0,1:0:0:0:
407,277,237663,1,8,0:0:0:0:
407,277,238016,6,0,L|404:157,1,102.000001945496,0|0,1:0|0:0,0:0:0:0:
404,175,238369,1,8,0:0:0:0:
509,82,238545,1,0,0:0:0:0:
506,104,238634,1,0,0:0:0:0:
503,126,238722,1,0,0:0:0:0:
385,90,238898,1,0,1:0:0:0:
384,67,238987,1,0,0:0:0:0:
382,44,239075,1,8,0:0:0:0:
267,91,239251,1,0,0:0:0:0:
265,113,239339,1,0,0:0:0:0:
263,135,239428,6,0,L|174:139,1,90.0000034332277,0|0,1:0|0:0,0:0:0:0:
356,260,239781,2,0,L|382:370,1,90.0000034332277,8|0,0:0|0:0,0:0:0:0:
209,240,240134,1,0,0:0:0:0:
191,243,240223,1,0,0:0:0:0:
173,245,240311,1,0,1:0:0:0:
155,247,240399,1,0,0:0:0:0:
137,251,240487,2,0,L|119:355,1,90.0000034332277,8|0,0:0|0:0,0:0:0:0:
33,237,240839,6,0,B|9:174|9:174|22:55,1,180.000006866455,0|8,1:0|0:0,0:0:0:0:
21,62,241369,1,0,0:0:0:0:
118,146,241545,2,0,B|172:164|172:164|226:158,1,90.0000034332277,0|0,0:0|1:0,0:0:0:0:
209,71,241898,2,0,B|262:45|262:45|309:52,1,90.0000034332277,8|0,0:0|0:0,0:0:0:0:
342,259,242251,6,0,B|361:294|361:294|406:273,1,90.0000034332277,0|0,1:0|0:0,0:0:0:0:
397,65,242604,2,0,B|440:47|440:47|460:85,1,90.0000034332277,8|0,0:0|0:0,0:0:0:0:
482,227,242957,2,0,B|525:203|525:203|505:168,1,90.0000034332277,0|0,0:0|1:0,0:0:0:0:
298,170,243310,2,0,B|275:132|275:132|315:109,1,90.0000034332277,8|0,0:0|0:0,0:0:0:0:
400,162,243663,5,0,1:0:0:0:
275,266,243839,1,0,0:0:0:0:
425,143,244016,1,8,0:0:0:0:
420,292,244192,1,0,0:0:0:0:
197,119,244369,5,0,0:0:0:0:
448,124,244545,1,0,1:0:0:0:
133,241,244722,1,8,0:0:0:0:
471,107,244898,1,0,0:0:0:0:
263,95,245075,2,0,L|243:-14,1,90.0000034332277,0|0,1:0|0:0,0:0:0:0:
327,282,245428,2,0,L|313:378,1,90.0000034332277,8|0,0:0|0:0,0:0:0:0:
108,175,245781,2,0,L|55:169,2,45.0000017166138,0|0|0,0:0|0:0|1:0,0:0:0:0:
461,208,246134,2,0,L|508:205,2,45.0000017166138,8|0|0,0:0|0:0|0:0,0:0:0:0:
217,297,246487,5,0,1:0:0:0:
213,310,246575,1,0,0:0:0:0:
209,323,246663,1,0,0:0:0:0:
204,337,246751,1,0,0:0:0:0:
199,350,246839,1,8,0:0:0:0:
165,326,246928,1,0,0:0:0:0:
147,289,247016,1,0,0:0:0:0:
145,248,247104,1,0,0:0:0:0:
162,211,247192,1,0,0:0:0:0:
191,182,247281,1,0,0:0:0:0:
227,165,247369,6,0,L|221:91,1,45.0000017166138,0|0,1:0|0:0,0:0:0:0:
123,85,247545,2,0,L|106:13,1,45.0000017166138,8|0,0:0|0:0,0:0:0:0:
334,106,247722,2,0,L|345:37,1,45.0000017166138,0|0,0:0|0:0,0:0:0:0:
232,12,247898,5,0,1:0:0:0:
324,202,248075,1,0,0:0:0:0:
324,202,248163,1,0,0:0:0:0:
324,202,248251,1,8,0:0:0:0:
511,154,248428,1,0,0:0:0:0:
511,154,248516,1,0,0:0:0:0:
511,154,248604,2,0,B|416:144|416:144|434:173,1,120,0|0,0:0|1:0,0:0:0:0:
454,263,248869,1,0,0:0:0:0:
464,292,248957,6,0,B|421:306|421:306|278:287,1,180,8|0,0:0|0:0,0:0:0:0:
145,120,249310,5,0,1:0:0:0:
341,129,249487,1,0,0:0:0:0:
361,92,249575,1,0,0:0:0:0:
364,50,249663,1,8,0:0:0:0:
164,253,249839,1,0,0:0:0:0:
159,295,249928,1,0,0:0:0:0:
173,334,250016,5,0,0:0:0:0:
358,267,250192,1,0,1:0:0:0:
92,154,250369,1,8,0:0:0:0:
448,199,250545,1,0,0:0:0:0:
259,380,250722,5,0,1:0:0:0:
365,241,250898,2,0,L|357:177,1,60,0|0,0:0|0:0,0:0:0:0:
204,163,251075,1,8,0:0:0:0:
464,106,251251,2,0,L|471:27,1,60,0|0,0:0|0:0,0:0:0:0:
290,22,251428,5,0,0:0:0:0:
460,192,251604,1,0,1:0:0:0:
191,328,251781,1,8,0:0:0:0:
499,283,251957,1,0,0:0:0:0:
172,144,252134,6,0,B|220:129|220:129|294:80,1,120,0|0,1:0|0:0,0:0:0:0:
90,238,252398,1,0,0:0:0:0:
123,263,252487,2,0,B|178:270|178:270|273:253,1,120,8|0,0:0|0:0,0:0:0:0:
6,313,252751,1,0,0:0:0:0:
23,351,252839,5,0,0:0:0:0:
21,75,253016,1,0,1:0:0:0:
304,265,253192,2,0,L|277:404,1,120,8|0,0:0|0:0,0:0:0:0:
267,84,253545,5,0,1:0:0:0:
423,344,253722,1,0,0:0:0:0:
102,337,253898,2,0,P|71:292|81:186,1,120,8|0,0:0|0:0,0:0:0:0:
337,275,254251,5,0,0:0:0:0:
183,223,254428,2,0,P|188:166|219:121,2,90.0000034332277,0|8|0,1:0|0:0|0:0,0:0:0:0:
198,262,254869,1,0,0:0:0:0:
226,292,254957,5,0,1:0:0:0:
100,134,255134,1,0,0:0:0:0:
58,134,255222,1,0,0:0:0:0:
17,143,255310,1,8,0:0:0:0:
309,172,255487,1,0,0:0:0:0:
350,165,255575,1,0,0:0:0:0:
388,149,255663,5,0,0:0:0:0:
442,51,255839,1,0,1:0:0:0:
373,260,256016,1,8,0:0:0:0:
301,7,256192,1,0,0:0:0:0:
313,380,256369,5,0,1:0:0:0:
484,283,256545,1,0,0:0:0:0:
491,255,256634,1,0,0:0:0:0:
497,225,256722,1,8,0:0:0:0:
163,348,256898,1,0,0:0:0:0:
149,320,256987,1,0,0:0:0:0:
133,294,257075,5,0,0:0:0:0:
391,334,257251,1,0,1:0:0:0:
403,151,257428,1,8,0:0:0:0:
125,207,257604,6,0,P|130:229|145:274,1,60,0|0,0:0|0:0,0:0:0:0:
202,384,257781,1,0,1:0:0:0:
303,151,257957,2,0,P|297:109|290:79,1,60,0|0,0:0|0:0,0:0:0:0:
237,0,258134,1,8,0:0:0:0:
478,175,258310,2,0,L|460:228,1,50,0|0,0:0|0:0,0:0:0:0:
313,300,258487,5,0,0:0:0:0:
397,46,258663,1,0,1:0:0:0:
74,110,258839,1,8,0:0:0:0:
458,341,259016,1,0,0:0:0:0:
134,384,259192,6,0,P|120:327|134:264,1,120,0|0,1:0|0:0,0:0:0:0:
356,95,259545,1,8,0:0:0:0:
208,322,259722,1,0,0:0:0:0:
405,279,259898,6,0,P|404:240|368:180,1,90.0000034332277,0|0,0:0|1:0,0:0:0:0:
155,145,260251,1,8,0:0:0:0:
313,260,260428,1,0,0:0:0:0:
39,360,260604,6,0,B|22:313|22:313|42:228,1,120,0|0,1:0|0:0,0:0:0:0:
223,347,260957,1,8,0:0:0:0:
335,125,261134,1,0,0:0:0:0:
295,108,261222,1,0,0:0:0:0:
259,91,261310,5,0,0:0:0:0:
167,262,261487,1,0,1:0:0:0:
351,353,261663,1,8,0:0:0:0:
443,178,261839,1,0,0:0:0:0:
170,163,262016,6,0,L|29:170,1,120,0|0,1:0|0:0,0:0:0:0:
27,133,262281,1,0,0:0:0:0:
4,97,262369,1,8,0:0:0:0:
198,299,262545,1,0,0:0:0:0:
198,299,262634,1,0,0:0:0:0:
198,299,262722,5,0,0:0:0:0:
293,122,262898,1,0,1:0:0:0:
27,265,263075,1,8,0:0:0:0:
178,14,263251,1,0,0:0:0:0:
272,184,263428,5,0,1:0:0:0:
465,128,263604,1,0,0:0:0:0:
248,240,263781,5,8,0:0:0:0:
47,177,263957,1,0,0:0:0:0:
276,288,264134,5,0,0:0:0:0:
500,256,264310,1,0,1:0:0:0:
248,340,264487,5,8,0:0:0:0:
16,296,264663,1,0,0:0:0:0:
160,52,264839,6,0,P|167:169|173:316,1,240,0|8,1:0|0:0,0:0:0:0:
332,106,265369,2,0,P|339:225|346:345,1,240,0|0,0:0|1:0,0:0:0:0:
484,0,265898,2,0,P|491:117|497:264,1,240,8|0,0:0|1:0,0:0:0:0:
256,192,266339,12,0,267663,0:0:0:0:
256,192,268369,12,0,270311,0:0:0:0:
157,228,270487,6,0,L|173:149,1,80,0|0,1:0|0:0,0:0:0:0:
113,84,270663,2,0,L|61:72,3,40,0|0|0|8,0:0|0:0|0:0|0:0,0:0:0:0:
355,228,271016,6,0,L|338:149,1,80,0|0,0:0|0:0,0:0:0:0:
399,84,271192,2,0,L|451:72,3,40,0|0|0|0,0:0|0:0|0:0|1:0,0:0:0:0:
256,40,271545,2,0,L|256:200,1,135.000005149841,8|0,0:0|0:0,0:0:0:0:
334,297,271898,6,0,P|336:327|342:359,1,60,0|0,1:0|0:0,0:0:0:0:
437,231,272075,2,0,P|459:253|473:279,1,60,0|0,0:0|0:0,0:0:0:0:
228,243,272251,2,0,P|206:265|195:292,1,60,8|0,0:0|0:0,0:0:0:0:
326,195,272428,1,0,0:0:0:0:
181,92,272604,1,0,0:0:0:0:
223,112,272692,1,0,0:0:0:0:
270,112,272780,1,0,1:0:0:0:
312,93,272868,1,0,0:0:0:0:
359,96,272957,1,8,0:0:0:0:
244,15,273134,1,0,0:0:0:0:
212,339,273310,6,0,P|238:374|269:391,1,60,0|0,1:0|0:0,0:0:0:0:
175,185,273487,2,0,P|192:145|191:110,1,60,0|0,0:0|0:0,0:0:0:0:
58,298,273663,2,0,P|14:304|-15:322,1,60,8|0,0:0|0:0,0:0:0:0:
148,270,273840,1,0,0:0:0:0:
54,72,274016,1,0,0:0:0:0:
8,88,274104,1,0,0:0:0:0:
8,135,274193,1,0,1:0:0:0:
54,150,274281,1,0,0:0:0:0:
81,112,274369,1,8,0:0:0:0:
247,39,274545,1,0,0:0:0:0:
409,199,274722,5,0,1:0:0:0:
436,7,274898,1,0,0:0:0:0:
512,114,275074,1,8,0:0:0:0:
299,129,275251,2,0,B|257:215|257:215|296:201|296:201|248:180,1,180,0|0,0:0|0:0,0:0:0:0:
136,129,275604,2,0,L|72:102,1,60,0|0,1:0|0:0,0:0:0:0:
159,230,275781,2,0,L|132:289,1,60,8|0,0:0|0:0,0:0:0:0:
225,65,275957,1,0,0:0:0:0:
381,174,276134,6,0,B|459:196|459:196|423:166,1,120,0|0,1:0|0:0,0:0:0:0:
224,49,276487,1,8,0:0:0:0:
113,339,276663,1,0,0:0:0:0:
113,339,277016,1,0,1:0:0:0:
121,292,277104,1,0,0:0:0:0:
109,245,277193,1,8,0:0:0:0:
83,205,277281,1,0,0:0:0:0:
66,161,277369,1,0,0:0:0:0:
68,114,277457,1,0,0:0:0:0:
89,72,277545,6,0,B|118:36|123:3|123:3|154:67,1,120,0|0,1:0|0:0,0:0:0:0:
6,302,277898,1,8,0:0:0:0:
183,146,278075,1,0,0:0:0:0:
307,296,278251,6,0,P|297:332|310:362,1,60,0|0,0:0|0:0,0:0:0:0:
414,253,278428,2,0,P|454:280|469:309,1,60,0|0,1:0|0:0,0:0:0:0:
219,237,278604,2,0,P|189:270|179:297,1,60,8|0,0:0|0:0,0:0:0:0:
424,142,278781,2,0,P|460:140|510:152,1,60,0|0,0:0|0:0,0:0:0:0:
298,153,278957,6,0,B|276:105|276:105|292:35,1,120,0|0,1:0|0:0,0:0:0:0:
183,146,279310,1,8,0:0:0:0:
360,0,279487,1,0,0:0:0:0:
92,42,279663,6,0,P|65:25|44:-6,1,60,0|0,0:0|0:0,0:0:0:0:
103,90,279840,2,0,P|71:89|37:73,1,60,0|0,1:0|0:0,0:0:0:0:
135,129,280016,2,0,P|106:144|69:147,1,60,8|0,0:0|0:0,0:0:0:0:
183,146,280193,2,0,P|166:173|135:194,1,60,0|0,0:0|0:0,0:0:0:0:
211,42,280369,2,0,B|328:75|328:75|277:19,1,180,0|0,1:0|0:0,0:0:0:0:
269,93,280722,1,8,0:0:0:0:
457,33,280898,2,0,B|481:121|428:168|428:168|418:126,1,180,0|0,0:0|0:0,0:0:0:0:
336,201,281251,6,0,P|322:264|325:275,1,60,0|0,1:0|0:0,0:0:0:0:
438,274,281428,2,0,P|445:333|442:343,1,60,8|0,0:0|0:0,0:0:0:0:
209,274,281604,2,0,P|170:282|116:271,1,60,0|0,0:0|0:0,0:0:0:0:
0,167,281781,5,0,1:0:0:0:
218,90,281957,1,0,0:0:0:0:
428,169,282134,2,0,P|424:236|407:264,1,90.0000034332277,8|0,0:0|0:0,0:0:0:0:
378,281,282398,1,0,0:0:0:0:
343,292,282487,1,0,0:0:0:0:
307,290,282575,1,0,0:0:0:0:
276,270,282663,1,0,1:0:0:0:
336,201,282840,1,8,0:0:0:0:
482,325,283016,1,0,0:0:0:0:
333,81,283193,6,0,B|261:134|261:134|299:127,1,120,0|0,1:0|0:0,0:0:0:0:
467,43,283545,1,8,0:0:0:0:
228,6,283722,1,0,0:0:0:0:
422,118,283898,2,0,P|457:131|493:126,1,60,0|0,0:0|0:0,0:0:0:0:
265,132,284075,2,0,P|231:144|193:143,1,60,0|0,1:0|0:0,0:0:0:0:
455,219,284251,2,0,P|499:235|532:263,1,60,8|0,0:0|0:0,0:0:0:0:
238,248,284428,2,0,P|222:269|174:280,1,60,0|0,0:0|0:0,0:0:0:0:
352,264,284604,6,0,B|366:337|366:337|358:382,1,120,0|0,1:0|0:0,0:0:0:0:
377,159,284957,1,8,0:0:0:0:
255,59,285134,2,0,B|218:172|218:172|266:132,1,180,0|0,0:0|0:0,0:0:0:0:
345,80,285487,2,0,P|404:79|409:86,1,60,0|0,1:0|0:0,0:0:0:0:
156,75,285663,2,0,P|88:63|85:64,1,60,8|0,0:0|0:0,0:0:0:0:
114,221,285840,1,0,0:0:0:0:
108,198,285928,1,0,0:0:0:0:
102,175,286016,6,0,B|50:204|50:204|28:288,1,120,0|0,1:0|0:0,0:0:0:0:
171,329,286369,1,8,0:0:0:0:
324,130,286545,1,0,0:0:0:0:
341,174,286633,1,0,0:0:0:0:
340,222,286721,1,0,0:0:0:0:
319,263,286809,1,0,0:0:0:0:
283,294,286898,2,0,P|309:317|343:319,1,60,0|0,1:0|0:0,0:0:0:0:
214,194,287075,2,0,P|193:218|194:254,1,60,8|0,0:0|0:0,0:0:0:0:
197,362,287251,1,0,0:0:0:0:
408,301,287428,6,0,B|440:317|473:350|473:350|456:279,1,120,0|0,1:0|0:0,0:0:0:0:
340,222,287781,1,8,0:0:0:0:
512,176,287957,2,0,B|508:218|508:218|474:184|474:184|505:88,1,180,0|0,0:0|0:0,0:0:0:0:
512,4,288310,2,0,L|393:12,1,120,0|8,1:0|0:0,0:0:0:0:
130,43,288663,1,0,0:0:0:0:
137,60,288751,1,0,0:0:0:0:
143,78,288840,2,0,B|238:72|238:72|224:99,1,120,0|0,1:0|0:0,0:0:0:0:
0,65,289193,1,8,0:0:0:0:
136,197,289369,6,0,B|172:163|172:163|190:245,1,120,0|0,0:0|0:0,0:0:0:0:
194,366,289722,1,0,1:0:0:0:
42,263,289899,2,0,B|1:289|1:289|77:316,1,120,8|0,0:0|0:0,0:0:0:0:
391,249,290251,2,0,B|419:248|481:264|481:264|445:282,1,120,0|0,1:0|0:0,0:0:0:0:
361,376,290604,1,8,0:0:0:0:
304,136,290781,2,0,B|294:159|294:159|375:144|375:144|460:161,1,180,0|0,0:0|0:0,0:0:0:0:
277,244,291134,2,0,B|211:260|211:260|240:206,1,120,0|8,1:0|0:0,0:0:0:0:
396,0,291487,1,0,0:0:0:0:
422,15,291575,1,0,0:0:0:0:
448,29,291663,6,0,B|369:30|369:30|316:44,1,120,0|0,1:0|0:0,0:0:0:0:
92,76,292016,1,8,0:0:0:0:
92,76,292193,2,0,B|158:94|158:94|234:76,1,120,0|0,0:0|0:0,0:0:0:0:
0,178,292545,2,0,B|58:163|58:163|138:188,1,120,0|8,1:0|0:0,0:0:0:0:
290,252,292898,1,0,0:0:0:0:
200,216,293075,5,0,1:0:0:0:
386,282,293251,1,0,0:0:0:0:
111,250,293428,1,8,0:0:0:0:
473,238,293604,1,0,0:0:0:0:
473,238,293957,1,0,1:0:0:0:
113,161,294134,6,0,B|43:177|43:177|-6:248|37:314,1,215.999993408203,8|0,0:0|0:0,0:0:0:0:
