osu file format v12

[General]
AudioFilename: 01 - Atomic Heat.mp3
AudioLeadIn: 0
PreviewTime: 133733
Countdown: 0
SampleSet: Normal
StackLeniency: 0.7
Mode: 0
LetterboxInBreaks: 1

[Editor]
Bookmarks: 44495,66453,85647,110333,121305,132276,133647,155590,177533,188505,199476
DistanceSpacing: 1.1
BeatDivisor: 4
GridSize: 4

[Metadata]
Title:Atomic Heat
TitleUnicode:Atomic Heat
Artist:Masayoshi Yagami
ArtistUnicode:八神 将義
Creator:Reiji-RJ
Version:Normal
Source:Touhou
Tags:efs green eyed jealousy parsee mizuhashi subterranean animism dnb drum and bass
BeatmapID:180141
BeatmapSetID:47310

[Difficulty]
HPDrainRate:2
CircleSize:4
OverallDifficulty:2
ApproachRate:4
SliderMultiplier:0.8
SliderTickRate:1

[Events]
//Background and Video events
0,0,"BG.jpg",0,0
//Break Periods
2,66723,84403
//Storyboard Layer 0 (Background)
//Storyboard Layer 1 (Fail)
//Storyboard Layer 2 (Pass)
//Storyboard Layer 3 (Foreground)
//Storyboard Sound Samples
//Background Colour Transformations
3,100,163,162,255

[TimingPoints]
19895,342.857142857143,4,1,0,60,1,0
21523,-100,4,2,0,50,0,0
22637,-100,4,2,0,80,0,0
22723,-100,4,2,1,50,0,0
23666,-100,4,2,0,50,0,0
24095,-100,4,2,1,50,0,0
25037,-100,4,2,0,50,0,0
25466,-100,4,2,1,50,0,0
26409,-100,4,2,0,50,0,0
26837,-100,4,2,1,50,0,0
27780,-100,4,2,0,50,0,0
28209,-100,4,2,1,50,0,0
29152,-100,4,2,0,50,0,0
29580,-100,4,2,1,50,0,0
30523,-100,4,2,0,50,0,0
30952,-100,4,2,1,50,0,0
31895,-100,4,2,0,50,0,0
32323,-100,4,2,1,50,0,0
33609,-100,4,2,0,80,0,0
33695,-100,4,2,1,50,0,0
34637,-100,4,2,0,50,0,0
35066,-100,4,2,1,50,0,0
36009,-100,4,2,0,50,0,0
36437,-100,4,2,1,50,0,0
37380,-100,4,2,0,50,0,0
37809,-100,4,2,1,50,0,0
38752,-100,4,2,0,50,0,0
39437,-100,4,1,0,20,0,0
40123,-100,4,2,0,50,0,0
40809,-100,4,1,0,30,0,0
41495,-100,4,2,0,50,0,0
42180,-100,4,1,0,40,0,0
42866,-100,4,2,0,50,0,0
43552,-100,4,1,0,50,0,0
43637,-100,4,2,1,50,0,0
44066,-100,4,1,0,50,0,0
44152,-100,4,2,1,50,0,0
44409,-100,4,1,0,50,0,0
44580,-100,4,1,0,60,0,0
88466,-100,4,2,0,80,0,0
88552,-100,4,2,1,50,0,0
92580,-100,4,2,0,50,0,0
92666,-100,4,2,1,50,0,0
98066,-100,4,2,0,50,0,0
98152,-100,4,2,1,50,0,0
99437,-100,4,2,0,80,0,0
99523,-100,4,2,1,50,0,0
100809,-100,4,2,0,50,0,0
100895,-100,4,2,1,50,0,0
103552,-100,4,2,0,50,0,0
103637,-100,4,2,1,50,0,0
106295,-100,4,2,0,50,0,0
106380,-100,4,2,1,50,0,0
110409,-100,4,2,0,80,0,0
110495,-100,4,2,1,50,0,0
114437,-100,4,2,0,60,0,0
114609,-100,4,2,1,50,0,0
120952,-100,4,2,0,60,0,0
121380,-100,4,2,0,80,0,0
121466,-100,4,2,1,50,0,0
132352,-100,4,1,1,50,0,0
133723,-100,4,1,0,60,0,1
155495,-100,4,1,0,60,0,0
155666,-100,4,1,0,60,0,1
177609,-100,4,2,0,80,0,0
177695,-100,4,2,1,40,0,0
185837,-100,4,2,0,80,0,0
185923,-100,4,2,1,40,0,0
187209,-100,4,2,0,80,0,0
188580,-100,4,1,0,80,0,0
188666,-100,4,2,1,50,0,0
189952,-100,4,2,0,50,0,0
190037,-100,4,2,1,50,0,0
191323,-100,4,1,0,60,0,0
191409,-100,4,2,1,50,0,0
192695,-100,4,2,0,55,0,0
192780,-100,4,2,1,50,0,0
194066,-100,4,1,0,60,0,0
194152,-100,4,2,1,50,0,0
195437,-100,4,2,0,55,0,0
195523,-100,4,2,1,50,0,0
196809,-100,4,1,0,60,0,0
196895,-100,4,2,1,50,0,0
198180,-100,4,2,0,50,0,0
198266,-100,4,2,1,50,0,0
199552,-100,4,2,0,50,0,0

[Colours]
Combo1 : 7,104,112
Combo2 : 46,237,132
Combo3 : 24,133,82
Combo4 : 5,239,216

[HitObjects]
88,104,19895,2,0,B|168:96,3,80
252,124,21266,1,4,0:0:0:0:
328,172,21609,2,0,B|292:250|332:326,1,160,10|10,0:0|0:0,0:0:0:0:
424,324,22637,5,4,0:0:0:0:
424,324,22980,2,0,B|464:248|428:168,1,160,8|12,0:0|0:0,0:0:0:0:
356,112,24009,1,4,0:0:0:0:
356,112,24352,2,0,B|276:116|196:120,1,160,8|12,0:0|0:0,0:0:0:0:
168,204,25380,5,4,0:0:0:0:
168,204,25723,2,0,B|248:200|328:196,1,160,8|12,0:0|0:0,0:0:0:0:
392,256,26752,1,4,0:0:0:0:
396,260,27437,1,2,0:0:0:0:
364,340,27780,6,0,B|284:332,1,80,4|4,0:0|0:0,0:0:0:0:
196,324,28466,2,0,B|232:248|184:160,1,160,8|12,0:0|0:0,0:0:0:0:
160,88,29495,1,4,0:0:0:0:
160,88,29837,2,0,B|232:40|316:80,1,160,8|12,0:0|0:0,0:0:0:0:
400,80,30866,5,4,0:0:0:0:
400,80,31209,2,0,B|392:160|384:248,1,160,8|12,0:0|0:0,0:0:0:0:
428,316,32237,1,4,0:0:0:0:
252,312,32923,2,0,B|172:328,2,80,4|8|4,0:0|0:0|0:0,0:0:0:0:
324,264,33952,6,0,B|328:204|332:144,1,120,8|4,0:0|0:0,0:0:0:0:
324,132,34637,2,0,B|280:136|244:124,1,80,12|4,0:0|0:0,0:0:0:0:
164,84,35323,2,0,B|44:96,1,120,8|4,0:0|0:0,0:0:0:0:
32,108,36009,2,0,B|24:148|40:188,1,80,12|4,0:0|0:0,0:0:0:0:
96,256,36695,6,0,B|177:247|256:240,1,160,8|12,0:0|0:0,0:0:0:0:
336,280,37723,1,4,0:0:0:0:
412,240,38066,2,0,B|420:160,1,80,4|2,0:0|0:0,0:0:0:0:
476,92,38752,5,4,0:0:0:0:
408,36,39095,1,4,0:0:0:0:
352,104,39437,1,2,0:0:0:0:
176,92,40123,5,4,0:0:0:0:
120,160,40465,1,4,0:0:0:0:
52,104,40809,1,2,0:0:0:0:
84,276,41495,5,4,0:0:0:0:
172,268,41837,1,4,0:0:0:0:
260,260,42180,1,2,0:0:0:0:
424,324,42866,5,4,0:0:0:0:
440,236,43209,1,4,0:0:0:0:
452,148,43552,1,2,0:0:0:0:
396,80,43895,2,0,B|360:52,3,40,4|2|4|2,0:0|0:0|0:0|0:0,0:0:0:0:
344,68,44580,6,2,B|264:48|264:84|184:68,1,160,6|0,0:0|0:0,0:0:0:0:
108,112,45609,2,2,B|116:192,1,80,10|0,0:0|0:0,0:0:0:0:
64,264,46295,1,10,0:0:0:0:
120,332,46637,2,0,B|160:334|208:336,1,80,0|10,0:0|0:0,0:0:0:0:
280,296,47323,6,2,B|352:340|436:308,1,160,0|2,0:0|0:0,0:0:0:0:
500,252,48352,1,10,0:0:0:0:
448,180,48695,2,0,B|456:100,2,80,4|10|0,0:0|0:0|0:0,0:0:0:0:
368,220,49723,1,10,0:0:0:0:
284,196,50066,6,2,B|204:200|124:204,1,160,2|0,0:0|0:0,0:0:0:0:
52,256,51095,1,10,0:0:0:0:
44,168,51437,2,2,B|-4:96|40:16,1,160,2|0,0:0|0:0,0:0:0:0:
120,52,52466,1,10,0:0:0:0:
208,44,52809,6,0,B|248:39|288:36,1,80,0|10,0:0|0:0,0:0:0:0:
368,72,53495,2,0,B|404:76|452:84,1,80,0|10,0:0|0:0,0:0:0:0:
432,168,54180,2,2,B|426:246|420:332,1,160,0|2,0:0|0:0,0:0:0:0:
332,344,55209,1,10,0:0:0:0:
248,312,55552,6,2,B|192:284|132:312,2,120,4|2|8,0:0|0:0|0:0,0:0:0:0:
312,248,56923,2,2,B|372:276|428:248,2,120,4|2|10,0:0|0:0|0:0,0:0:0:0:
252,184,58295,2,2,B|196:156|136:184,2,120,4|2|8,0:0|0:0|0:0,0:0:0:0:
340,192,59666,2,0,B|348:116|360:32,1,160,0|2,0:0|0:0,0:0:0:0:
444,56,60695,1,10,0:0:0:0:
444,56,61037,6,2,B|436:132|424:216,1,160,4|0,0:0|0:0,0:0:0:0:
452,300,62066,1,10,0:0:0:0:
364,316,62409,2,0,B|244:328,2,120,0|2|10,0:0|0:0|0:0,0:0:0:0:
332,236,63780,2,2,B|452:224,2,120,0|2|10,0:0|0:0|0:0,0:0:0:0:
244,236,65152,6,0,B|228:200|240:156,1,80,0|10,0:0|0:0,0:0:0:0:
316,112,65837,2,0,B|332:148|320:192,1,80,2|10,0:0|0:0,0:0:0:0:
324,280,66523,5,4,0:0:0:0:
116,288,85723,5,0,0:0:0:0:
256,180,86409,1,0,0:0:0:0:
396,288,87095,2,0,B|436:280|476:280,3,80
460,192,88466,6,0,B|504:120|468:36,1,160,4|2,0:0|0:0,0:0:0:0:
388,68,89495,1,8,0:0:0:0:
304,44,89837,1,4,0:0:0:0:
232,96,90180,2,0,B|148:92,1,80,8|2,0:0|0:0,0:0:0:0:
64,88,90866,1,8,0:0:0:0:
152,92,91209,6,0,B|196:168|148:244,1,160,4|2,0:0|0:0,0:0:0:0:
72,288,92237,1,8,0:0:0:0:
72,288,92580,2,0,B|148:240|224:288,1,160,4|2,0:0|0:0,0:0:0:0:
292,340,93609,1,8,0:0:0:0:
372,308,93952,6,0,B|492:296,2,120,4|2|8,0:0|0:0|0:0,0:0:0:0:
304,252,95323,2,0,B|344:172|308:96,1,160,4|2,0:0|0:0,0:0:0:0:
252,32,96352,1,8,0:0:0:0:
176,76,96695,6,0,B|56:68,2,120,4|2|8,0:0|0:0|0:0,0:0:0:0:
252,120,98066,2,0,B|320:72|404:104,1,160,4|4,0:0|0:0,0:0:0:0:
492,88,99095,1,8,0:0:0:0:
484,176,99437,6,0,B|480:252|472:336,1,160,4|2,0:0|0:0,0:0:0:0:
384,348,100466,1,8,0:0:0:0:
300,324,100809,2,0,B|220:332,1,80,4|8,0:0|0:0,0:0:0:0:
144,284,101495,2,0,B|136:244|132:200,1,80,2|8,0:0|0:0,0:0:0:0:
48,180,102180,6,0,B|60:100|52:20,1,160,4|2,0:0|0:0,0:0:0:0:
136,44,103209,1,8,0:0:0:0:
216,76,103552,2,0,B|300:64,1,80,4|8,0:0|0:0,0:0:0:0:
340,140,104237,2,0,B|260:152,1,80,2|8,0:0|0:0,0:0:0:0:
172,164,104923,6,0,B|128:240|172:316,1,160,4|2,0:0|0:0,0:0:0:0:
256,348,105952,1,8,0:0:0:0:
336,312,106295,2,0,B|396:284|456:308,2,120,4|2|8,0:0|0:0|0:0,0:0:0:0:
264,264,107666,2,0,B|204:292|144:268,2,120,4|2|8,0:0|0:0|0:0,0:0:0:0:
312,192,109037,2,0,B|320:72,2,120,2|2|8,0:0|0:0|0:0,0:0:0:0:
264,264,110409,5,4,0:0:0:0:
260,268,111095,1,8,0:0:0:0:
136,140,111780,2,0,B|76:128|76:156|16:140,2,120,4|2|0,0:0|0:0|0:0,0:0:0:0:
220,164,113152,5,4,0:0:0:0:
224,168,113837,1,8,0:0:0:0:
400,176,114523,2,0,B|444:252|400:328,1,160,4|8,0:0|0:0,0:0:0:0:
316,304,115552,1,4,0:0:0:0:
236,336,115895,6,0,B|156:316|156:356|76:336,1,160,4|8,0:0|0:0,0:0:0:0:
148,176,117266,2,0,B|228:196|228:156|308:176,1,160,2|8,0:0|0:0,0:0:0:0:
380,220,118295,1,2,0:0:0:0:
452,172,118637,5,4,0:0:0:0:
456,176,119323,1,8,0:0:0:0:
296,100,120009,2,0,B|212:100,3,80,2|4|2|4,0:0|0:0|0:0|0:0,0:0:0:0:
136,132,121380,6,0,B|92:208|136:284,1,160,4|2,0:0|0:0,0:0:0:0:
196,348,122409,1,8,0:0:0:0:
280,316,122752,2,0,B|400:316,2,120,4|2|8,0:0|0:0|0:0,0:0:0:0:
260,232,124123,6,0,B|288:172|260:116,1,120,4|2,0:0|0:0,0:0:0:0:
272,104,124809,2,0,B|356:100,1,80,0|8,0:0|0:0,0:0:0:0:
424,152,125495,2,0,B|420:232|416:316,1,160,4|2,0:0|0:0,0:0:0:0:
324,324,126523,1,8,0:0:0:0:
328,328,126866,6,0,B|332:247|336:164,1,160,4|2,0:0|0:0,0:0:0:0:
256,128,127895,1,8,0:0:0:0:
176,164,128237,2,0,B|116:152|116:180|56:164,2,120,4|2|8,0:0|0:0|0:0,0:0:0:0:
256,128,129609,6,0,B|336:128|416:132,1,160,4|2,0:0|0:0,0:0:0:0:
496,172,130637,1,8,0:0:0:0:
256,192,130980,12,4,132352,0:0:0:0:
88,88,133723,6,0,B|80:168|96:252,1,160,4|2,0:0|0:0,0:0:0:0:
144,320,134752,1,8,0:0:0:0:
168,328,134923,1,2,0:0:0:0:
192,336,135095,2,0,B|264:292|348:328,1,160,0|2,0:0|0:0,0:0:0:0:
432,308,136123,1,8,0:0:0:0:
444,288,136295,1,2,0:0:0:0:
456,268,136466,6,0,B|452:186|448:104,1,160,4|2,0:0|0:0,0:0:0:0:
376,56,137495,1,8,0:0:0:0:
296,92,137837,2,2,B|216:88,1,80,0|10,0:0|0:0,0:0:0:0:
132,64,138523,2,0,B|52:80,1,80,0|10,0:0|0:0,0:0:0:0:
84,164,139209,6,0,B|40:240|88:316,1,160,6|2,0:0|0:0,0:0:0:0:
168,348,140237,1,8,0:0:0:0:
192,348,140409,1,2,0:0:0:0:
216,348,140580,2,0,B|300:348|376:348,1,160,0|2,0:0|0:0,0:0:0:0:
460,320,141609,1,10,0:0:0:0:
424,240,141952,6,0,B|468:164|428:88,1,160,4|2,0:0|0:0,0:0:0:0:
348,48,142980,1,8,0:0:0:0:
324,56,143152,1,2,0:0:0:0:
300,64,143323,2,2,B|216:60|136:60,1,160,0|2,0:0|0:0,0:0:0:0:
52,56,144352,1,10,0:0:0:0:
48,144,144695,6,2,B|24:224|56:304,1,160,6|2,0:0|0:0,0:0:0:0:
132,340,145723,1,8,0:0:0:0:
152,328,145895,1,2,0:0:0:0:
172,316,146066,2,2,B|252:336|332:324,1,160,0|2,0:0|0:0,0:0:0:0:
412,300,147095,1,10,0:0:0:0:
348,244,147437,6,2,B|268:224|188:236,1,160,4|2,0:0|0:0,0:0:0:0:
104,252,148466,1,8,0:0:0:0:
84,240,148637,1,2,0:0:0:0:
64,228,148809,2,2,B|65:142|68:68,1,160,0|2,0:0|0:0,0:0:0:0:
156,88,149837,1,10,0:0:0:0:
240,64,150180,6,2,B|316:28|396:60,1,160,4|2,0:0|0:0,0:0:0:0:
468,116,151209,1,10,0:0:0:0:
412,184,151552,2,2,B|404:308,2,120,0|2|10,0:0|0:0|0:0,0:0:0:0:
328,164,152923,2,2,B|336:40,2,120,0|2|10,0:0|0:0|0:0,0:0:0:0:
256,212,154295,6,2,B|176:192|176:232|96:212,1,160,0|2,0:0|0:0,0:0:0:0:
36,276,155323,1,10,0:0:0:0:
98,213,155666,6,0,B|136:141|95:57,1,160,4|2,0:0|0:0,0:0:0:0:
184,44,156695,1,8,0:0:0:0:
208,52,156866,1,2,0:0:0:0:
232,60,157037,2,0,B|312:52|392:44,1,160,0|2,0:0|0:0,0:0:0:0:
456,100,158066,1,8,0:0:0:0:
448,124,158237,1,2,0:0:0:0:
440,148,158409,6,0,B|448:227|452:312,1,160,4|2,0:0|0:0,0:0:0:0:
364,324,159437,1,8,0:0:0:0:
344,340,159609,1,2,0:0:0:0:
324,356,159780,2,2,B|280:348|244:344,1,80,0|10,0:0|0:0,0:0:0:0:
164,308,160466,1,2,0:0:0:0:
84,348,160809,1,10,0:0:0:0:
48,268,161152,6,2,B|0:196|40:116,1,160,4|2,0:0|0:0,0:0:0:0:
72,32,162180,1,8,0:0:0:0:
96,40,162352,1,2,0:0:0:0:
120,48,162523,2,2,B|192:32|280:40,1,160,0|0,0:0|0:0,0:0:0:0:
356,88,163552,1,10,0:0:0:0:
440,68,163895,6,2,B|484:144|440:220,2,160,4|0|2,0:0|0:0|0:0,0:0:0:0:
356,88,165609,1,8,0:0:0:0:
332,88,165780,1,2,0:0:0:0:
308,88,165952,2,2,B|235:90|148:96,1,160,0|6,0:0|0:0,0:0:0:0:
64,76,166980,5,8,0:0:0:0:
44,164,167323,1,2,0:0:0:0:
132,184,167666,1,8,0:0:0:0:
148,200,167837,1,2,0:0:0:0:
164,216,168009,2,2,B|246:208|324:208,1,160,0|2,0:0|0:0,0:0:0:0:
404,248,169037,1,10,0:0:0:0:
476,200,169380,6,2,B|516:120|472:44,1,160,6|2,0:0|0:0,0:0:0:0:
388,72,170409,1,8,0:0:0:0:
364,64,170580,1,2,0:0:0:0:
340,56,170752,2,2,B|264:60|180:64,1,160,0|2,0:0|0:0,0:0:0:0:
92,68,171780,1,10,0:0:0:0:
144,140,172123,6,2,B|219:136|303:132,1,160,4|0,0:0|0:0,0:0:0:0:
392,128,173152,1,10,0:0:0:0:
416,212,173495,2,2,B|448:264|420:328,2,120,0|2|10,0:0|0:0|0:0,0:0:0:0:
332,192,174866,2,2,B|268:208|216:164,2,120,0|2|10,0:0|0:0|0:0,0:0:0:0:
392,128,176237,2,2,B|400:60|464:40,2,120,0|2|10,0:0|0:0|0:0,0:0:0:0:
416,212,177609,5,4,0:0:0:0:
256,288,178295,1,4,0:0:0:0:
96,212,178980,1,4,0:0:0:0:
256,140,179666,1,4,0:0:0:0:
416,212,180352,5,4,0:0:0:0:
256,140,181037,1,4,0:0:0:0:
96,212,181723,1,4,0:0:0:0:
256,288,182409,1,4,0:0:0:0:
344,272,182752,1,4,0:0:0:0:
432,252,183095,6,4,B|440:164,3,80
368,120,184466,2,4,B|360:208,3,80
292,256,185837,5,4,0:0:0:0:
208,280,186180,1,4,0:0:0:0:
188,196,186523,1,4,0:0:0:0:
272,172,186866,1,12,0:0:0:0:
292,256,187209,5,4,0:0:0:0:
256,192,187380,12,4,188580,0:0:0:0:
80,92,189266,5,2,0:0:0:0:
152,140,189609,2,0,B|236:132,1,80,8|4,0:0|0:0,0:0:0:0:
312,92,190295,2,0,B|388:100|472:112,1,160,8|8,0:0|0:0,0:0:0:0:
456,200,191323,6,0,B|472:240|456:284,1,80,4|8,0:0|0:0,0:0:0:0:
380,316,192009,2,0,B|364:276|380:232,1,80,2|8,0:0|0:0,0:0:0:0:
300,192,192695,1,4,0:0:0:0:
216,224,193037,2,0,B|136:216|56:216,1,160,8|8,0:0|0:0,0:0:0:0:
76,128,194066,6,0,B|68:44,1,80,4|8,0:0|0:0,0:0:0:0:
156,64,194752,2,0,B|164:144,1,80,2|8,0:0|0:0,0:0:0:0:
244,184,195437,1,4,0:0:0:0:
316,132,195780,2,0,B|392:152|400:112|476:132,1,160,8|8,0:0|0:0,0:0:0:0:
436,212,196809,6,0,B|480:292|432:368,1,160,4|2,0:0|0:0,0:0:0:0:
352,336,197837,1,8,0:0:0:0:
268,360,198180,2,0,B|224:280|272:204,1,160,4|4,0:0|0:0,0:0:0:0:
256,188,199037,1,4,0:0:0:0:
240,172,199209,1,8,0:0:0:0:
152,188,199552,5,4,0:0:0:0:
