osu file format v9

[General]
AudioFilename: Masayoshi Minoshima - Bad Apple!! feat. nomico - Touhou PV [iichan].mp3
AudioLeadIn: 1996
PreviewTime: 49927
Countdown: 0
SampleSet: Normal
StackLeniency: 0.7
Mode: 0
LetterboxInBreaks: 1

[Editor]
DistanceSpacing: 1
BeatDivisor: 4
GridSize: 16

[Metadata]
Title:Bad Apple!!
Artist:Masayoshi Minoshima ft. nomico
Creator:ignorethis
Version:Normal
Source:Touhou
Tags:shadow art siriru kanpakyin S i R i R u bakaru cyborg Aenna orioncomet ploy happy30 Card N'FoRcE cnf Alstroemeria Records

[Difficulty]
HPDrainRate:3
CircleSize:4
OverallDifficulty:4
ApproachRate:6
SliderMultiplier:1.28
SliderTickRate:2

[Events]
//Background and Video events
Video,0,"rena2.flv"
0,0,"7589530.jpg"
//Break Periods
2,85011,97674
2,112837,125511
//Storyboard Layer 0 (Background)
//Storyboard Layer 1 (Fail)
//Storyboard Layer 2 (Pass)
//Storyboard Layer 3 (Foreground)
Sprite,Foreground,Centre,"Leorda.png",320,240 M,0,1333,,409,346 F,0,1333,1767,0,1 F,0,1767,,1 F,0,1767,2202,1 F,0,2202,84376,1 F,0,84376,,1 F,0,84376,84811,1,0
Sprite,Foreground,Centre,"NachoPiggy.png",320,240 M,0,56985,,164,327 F,0,98289,,0 F,0,98289,99159,0,0.9272706 F,0,99159,153952,0.9272706,0.8317972 F,0,153952,154387,0.8317972,0
Sprite,Foreground,Centre,"Breeze.png",320,240 M,0,154387,,85,159 F,0,154387,155256,0,1 F,0,155256,210072,1 F,0,210072,210941,1,0 F,0,210941,,0
//Storyboard Sound Samples
//Background Colour Transformations
3,100,0,0,0

[TimingPoints]
1333,434.782608695652,4,1,0,70,1,0
98724,-100,4,2,0,70,0,0
111767,-100,4,1,0,70,0,0
112637,-100,4,2,0,70,0,0
126561,434.782608695652,4,1,1,70,1,0
182246,434.782608695652,4,2,1,49,1,0
210072,-100,4,1,1,49,0,0

[Colours]
Combo1 : 171,105,216
Combo2 : 193,27,9
Combo3 : 108,111,198
Combo4 : 231,148,65
Combo5 : 67,155,203

[HitObjects]
176,63,1333,6,0,B|116:51|43:63,2,128
256,159,2637,2,0,B|256:207,4,32
336,63,3506,2,0,B|396:51|469:63,1,128
464,191,4376,1,0
416,239,4593,1,0
368,287,4811,6,0,B|305:318|243:285,2,128
304,175,6115,2,0,B|304:143,4,32
192,111,6985,2,0,B|154:176|197:242,2,128
224,47,8072,1,0
288,79,8289,6,0,B|416:79,2,128
160,79,9593,2,0,B|112:79,4,32
224,191,10463,2,0,B|188:259|234:327,1,128
352,335,11332,1,0
400,287,11550,1,0
448,239,11767,6,0,B|512:207|497:114,2,128
336,175,13072,2,0,B|304:159,4,32
224,111,13941,1,0
160,223,14376,1,0
272,287,14811,1,0
384,223,15246,6,0,B|432:239|464:287,2,96,4|0|0
320,239,16115,2,0,B|272:223|240:175,2,96
352,175,16985,1,0
384,271,17311,1,0
288,255,17637,1,0
288,320,17854,2,2,B|160:320,1,128
96,143,18724,6,0,B|64:111|48:95|32:47,2,96
160,159,19593,2,0,B|192:191|208:207|224:255,2,96
112,191,20463,1,0
80,95,20789,1,0
176,111,21115,1,0
176,111,21332,2,2,B|304:111,1,128
416,159,22202,5,4
464,239,22528,1,0
368,239,22854,1,0
320,191,23072,1,0
416,159,23398,1,0
400,255,23724,1,0
368,207,23941,6,0,B|320:191|256:191,2,96
384,271,24811,2,2,B|320:255|240:255,1,128
160,335,25680,5,0
80,271,26006,1,0
176,239,26332,1,0
128,287,26550,1,0
128,191,26876,1,0
208,239,27202,1,0
192,175,27419,2,0,B|192:127|144:79,2,96
256,191,28289,2,6,B|260:124|208:54,1,128
352,95,29159,6,0,B|368:63|400:47,2,64,0|0|8
320,159,29811,1,0
384,159,30028,2,0,B|432:222|383:287,1,128,0|8
336,303,30680,1,0
288,271,30898,2,0,B|160:271,2,128,0|8|0
336,303,31985,2,0,B|400:303,1,64,0|8
448,271,32419,1,0
448,271,32637,6,0,B|480:207|436:139,2,128,4|8|0
336,351,33941,2,0,B|304:287,1,64,8|0
281,234,34376,6,0,B|228:258|164:303,2,128,4|8|0
272,175,35463,1,0
272,175,35680,2,0,B|304:159|352:159,1,64,8|0
400,175,36115,6,0,B|436:119|428:43,2,128,4|8|0
304,79,37419,1,8
240,71,37637,1,0
208,127,37854,6,0,B|144:159|64:127,2,128,0|8|0
256,159,38941,1,0
256,159,39159,2,0,B|272:191|288:239,1,64,8|0
304,271,39593,6,0,B|352:223|432:223,2,128,4|8|0
192,335,40898,1,8
144,303,41115,1,0
96,271,41332,1,4
96,271,42202,2,0,B|43:232,5,42.6666666666667
32,223,43072,6,0,B|16:159|32:79,2,128,4|8|0
144,159,44376,1,8
208,191,44593,1,0
272,159,44811,2,0,B|288:223|272:303,2,128,0|8|0
256,95,45898,1,0
256,95,46115,2,0,B|288:63|320:47,1,64,8|0
360,21,46550,6,0,B|432:9|498:43,3,128,4|8|0|8
473,100,48072,1,0
466,163,48289,6,0,B|405:129|339:143,1,128,0|8
281,163,48941,1,0
221,188,49159,2,0,B|156:215|80:174,1,128,0|8
104,54,50028,6,0,B|169:27|245:68,2,128,4|8|0
48,169,51332,1,8
92,214,51550,1,0
138,257,51767,2,0,B|172:190|240:151,1,128,0|8
271,121,52419,1,0
271,121,52637,2,0,B|296:195|370:217,1,128,0|8
447,300,53506,6,0,B|414:317|386:344,1,64,4|0
330,340,53941,2,0,B|294:317|252:304,1,64,8|0
210,297,54376,2,0,B|144:305|75:346,2,128,0|8|4
289,53,56115,1,4
388,133,56550,1,4
437,251,56985,6,0,B|423:213|411:183,1,64,4|0
388,133,57419,2,0,B|356:96|326:77,1,64,8|0
288,53,57854,2,0,B|224:32|151:39,1,128,0|8
71,129,58724,6,0,B|54:168|60:211,1,64
74,253,59159,2,0,B|84:299|113:326,1,64,8|0
154,343,59593,2,0,B|220:370|289:343,1,128,0|8
404,318,60463,6,0,B|447:260|400:196,2,128,4|8|0
282,358,61767,1,8
228,323,61985,1,0
173,355,62202,2,0,B|36:354,2,128,0|8|0
228,323,63289,1,0
228,259,63506,1,8
133,172,63941,6,0,B|84:115|140:47,2,128,4|8|0
256,207,65246,1,8
379,170,65680,2,0,B|428:115|378:55,2,128,0|8|0
256,127,66985,1,8
213,174,67202,1,0
150,163,67419,6,0,B|96:195|51:259,2,128,4|8|0
232,261,68724,1,8
286,294,68941,1,0
336,254,69159,2,0,B|403:228|484:247,2,128,0|8|0
281,137,70463,1,8
163,86,70898,6,0,B|104:128|58:201,2,128,4|8|0
280,136,72202,1,8
356,33,72637,2,0,B|415:75|461:148,2,128,0|8|0
228,22,73941,1,8
149,122,74376,6,0,B|121:193|157:267,2,128,4|8|0
260,185,75680,1,8
375,129,76115,2,0,B|403:200|367:274,2,128,0|8|0
375,129,77202,1,0
375,129,77419,1,8
256,80,77854,6,0,B|201:102|179:53|124:83,2,128,4|8|0
204,197,79159,1,8
330,181,79593,2,0,B|385:203|407:154|469:187,2,128,0|8|0
276,297,80898,1,8
148,303,81332,6,0,B|93:326|71:277|18:309,2,128,4|8|0
206,189,82637,1,8
277,295,83072,1,0
256,192,83289,12,4,84811
326,120,98724,6,0,B|381:215|326:306,2,192,4|0|0
197,122,100463,2,0,B|142:217|197:308,2,192
256,239,102202,6,0,B|256:31,2,192
165,329,103941,2,0,B|258:379|349:329,2,192
71,241,105680,6,0,B|19:156|64:51,2,192,4|0|0
165,155,107419,2,0,B|218:244|172:345,2,192
215,37,109159,6,0,B|124:64|23:32,2,192
342,31,110898,5,0
426,126,111332,1,0
341,222,111767,1,0
427,316,112202,1,0
301,343,112637,1,4
65,93,126561,6,0,B|99:84|144:85,1,64
191,97,126995,2,0,B|224:108|272:96,1,64,8|0
314,87,127430,2,0,B|385:83|448:118,2,128,0|8|0
320,214,128734,1,8
214,287,129169,6,0,B|203:240|212:202,1,64
210,159,129604,2,0,B|219:117|208:76,2,64,8|0|4
84,132,130474,1,8
123,253,130908,1,0
211,160,131343,6,0,B|252:151|289:166,2,64,8|0|0
124,254,132213,2,0,B|83:245|46:260,2,64,8|0|0
239,308,133082,1,8
336,224,133517,5,4
336,224,133952,2,0,B|404:235|473:295,2,128,8|0|8
299,101,135256,2,0,B|228:108|148:143,2,128,0|8|0
344,146,136343,1,0
344,146,136561,2,0,B|384:131|412:105,1,64,8|0
452,79,136995,6,0,B|487:147|443:222,2,128,4|8|0
333,128,138300,1,8
215,179,138734,2,4,B|180:111|224:36,2,128,4|12|4
258,299,140039,1,8
142,244,140474,6,0,B|110:226|84:189,1,64,4|0
72,141,140908,2,0,B|73:106|92:77,1,64,8|0
137,37,141343,2,0,B|209:56|246:143,1,128,0|8
235,180,141995,1,0
235,180,142213,2,0,B|310:171|381:185,2,128,0|8|0
178,150,143300,2,0,B|120:203,1,64,0|8
83,236,143734,1,0
83,236,143952,6,0,B|150:261|196:327,2,128,4|8|0
80,107,145256,1,8
196,52,145691,1,0
259,58,145908,2,0,B|293:70|328:98,1,64,0|8
373,115,146343,2,0,B|404:87|432:72,2,64
313,138,146995,2,0,B|309:171|316:207,1,64,8|0
325,265,147430,6,0,B|389:295|460:256,2,128,4|8|0
205,312,148734,1,8
181,252,148952,1,0
149,196,149169,2,0,B|116:140|72:83,1,128,0|8
203,64,150039,1,0
246,110,150256,2,0,B|283:113|323:134,1,64,0|8
365,153,150691,1,0
389,211,150908,6,0,B|455:185|480:106,2,128,4|8|0
261,228,152213,1,8
197,236,152430,1,0
136,255,152647,6,0,B|74:285|28:345,3,128,4|8|0|8
163,351,154387,5,4
226,347,154604,1,0
279,312,154821,2,0,B|336:286|350:187,2,128,8|0|8
213,201,156126,1,0
150,205,156343,1,0
97,240,156560,2,0,B|40:266|26:365,2,128,8|0|8
173,136,157865,5,4
218,91,158082,1,0
155,75,158300,2,0,B|91:62|25:25,2,128,8|0|8
282,90,159604,1,0
344,78,159821,1,0
330,140,160039,2,0,B|402:142|478:108,2,128,8|0|8
215,196,161343,6,0,B|204:158|182:125,1,64,4|0
137,175,161778,2,0,B|114:107|68:50,2,128,8|0|8
257,219,163082,2,0,B|268:257|290:290,1,64
335,240,163517,2,0,B|358:308|404:365,2,128,8|0|8
313,113,164821,6,0,B|274:108|234:114,1,64,4|0
223,53,165256,2,0,B|292:47|364:58,2,128,8|0|8
171,170,166561,6,0,B|167:209|170:251,1,64
109,257,166995,2,0,B|104:195|109:124,2,128,8|0|8
204,342,168300,5,4
302,260,168734,1,8
398,344,169169,2,0,B|460:295|462:222,1,128,0|8
453,108,170039,5,4
334,156,170474,1,8
275,42,170908,2,0,B|207:27|135:44,1,128,0|8
72,144,171778,6,0,B|36:216|76:283,1,128,4|8
190,303,172647,2,0,B|224:240|185:179,1,128,0|8
157,123,173300,1,0
220,123,173517,6,0,B|275:100|358:95,2,128,0|8|0
91,124,174821,1,8
59,180,175039,1,0
75,241,175256,6,0,B|109:298|194:322,1,128,4|8
296,358,176126,2,0,B|330:301|415:277,1,128,0|8
458,265,176778,1,0
413,219,176995,6,0,B|371:170|397:78,1,128,4|8
266,124,177865,2,0,B|308:173|282:265,1,128,0|8
241,290,178517,1,0
179,308,178734,6,0,B|28:308,3,128,4|8|0|8
53,179,180474,2,0,B|204:179,3,128,4|8|0|8
280,259,182246,6,0,B|380:146|272:21,2,256,4|0|0
34,331,184854,1,2
124,240,185289,1,0
213,332,185724,6,0,B|356:372|463:288,2,256
48,135,188332,1,2
136,42,188767,1,0
263,53,189202,6,0,B|401:82|445:244,2,256
214,171,191376,1,0
85,167,191811,2,0,B|59:227|91:307,1,128,2|0
199,350,192680,6,0,B|260:205|423:240,2,256
72,330,194854,2,0,B|32:280|47:200,1,128,0|2
77,84,195724,1,0
187,149,196159,6,0,B|262:23|426:77,1,256,4|0
387,198,197463,1,0
491,271,197898,2,0,B|416:397|252:343,1,256,0|2
149,301,199202,1,0
58,209,199637,6,0,B|54:95|187:68,2,192,0|2|0
185,201,201376,2,0,B|181:315|314:342,2,192,0|2|0
308,235,203115,6,0,B|399:279|491:219|476:99,1,256
356,74,204419,1,0
233,35,204854,2,0,B|142:-9|50:51|65:171,1,256,0|2
61,281,206159,1,0
160,368,206593,6,0,B|142:234|174:106|320:32|494:58,2,512,0|0|4
