osu file format v9

[General]
AudioFilename: Masayoshi Minoshima - Bad Apple!! feat. nomico - Touhou PV [iichan].mp3
AudioLeadIn: 1996
PreviewTime: 49927
Countdown: 0
SampleSet: Normal
StackLeniency: 0.7
Mode: 0
LetterboxInBreaks: 1

[Editor]
DistanceSpacing: 2
BeatDivisor: 3
GridSize: 8

[Metadata]
Title:Bad Apple!!
Artist:Masayoshi Minoshima ft. nomico
Creator:ignorethis
Version:Insane
Source:Touhou
Tags:shadow art siriru kanpakyin S i R i R u bakaru cyborg Aenna orioncomet ploy happy30 Card N'FoRcE cnf Alstroemeria Records

[Difficulty]
HPDrainRate:5
CircleSize:5
OverallDifficulty:8
ApproachRate:8
SliderMultiplier:1.9
SliderTickRate:0.5

[Events]
//Background and Video events
0,0,"orionrucybBG.jpg"
Video,0,"rena2.flv"
//Break Periods
2,85011,97539
//Storyboard Layer 0 (Background)
//Storyboard Layer 1 (Fail)
//Storyboard Layer 2 (Pass)
//Storyboard Layer 3 (Foreground)
Sprite,Foreground,Centre,"insane\siriru.png",320,240 F,0,1110,2197,0,1 M,0,1110,84806,567,407 F,0,2197,83501,1 F,0,83501,84806,1,0
Sprite,Foreground,Centre,"insane\cyborg.png",320,240 F,0,98284,99588,0,1 M,0,98284,154382,561,406 F,0,99588,153295,1 F,0,153295,154382,1,0
Sprite,Foreground,Centre,"insane\orioncomet.png",320,240 F,0,154382,,1 M,0,154382,210077,563,406
//Storyboard Sound Samples
//Background Colour Transformations
3,100,0,0,0

[TimingPoints]
1333,434.782608695652,4,1,0,70,1,0
56980,-100,4,1,0,70,0,1
63936,-100,4,1,0,70,0,0
70893,-100,4,1,0,70,0,1
77849,-100,4,1,0,70,0,0
98175,-200,4,2,0,30,0,0
98719,-200,4,1,0,80,0,0
98936,-200,4,2,0,80,0,0
111219,-100,4,1,0,70,0,0
126561,434.782608695652,4,1,0,70,1,0
154382,-100,4,1,0,76,0,1
168186,-100,4,1,0,76,0,0
168295,-100,4,1,0,76,0,1
168512,-100,4,1,0,76,0,0
181664,-100,4,1,0,65,0,0
182246,434.782608695652,4,1,0,55,1,0
196055,-100,4,1,0,55,0,0
217028,-100,4,2,0,0,0,0

[Colours]
Combo1 : 171,105,216
Combo2 : 193,27,9
Combo3 : 108,111,198
Combo4 : 231,148,65
Combo5 : 67,155,203

[HitObjects]
64,192,1333,1,0
256,40,1767,1,0
448,192,2202,1,8
200,200,2637,5,0
224,168,2746,1,0
256,160,2854,1,0
296,168,2963,1,0
320,200,3072,1,0
256,336,3506,5,0
256,48,3941,1,8
72,224,4376,6,0,B|128:248|128:328,1,95
48,296,4811,1,4
176,216,5246,1,0
48,296,5680,1,8
256,40,6115,5,0
272,72,6224,1,0
256,104,6332,1,0
272,136,6441,1,0
256,168,6550,1,0
344,296,6985,2,0,B|296:352|208:344|176:296,1,190,0|8
112,88,7854,5,0
256,40,8072,1,0
400,88,8289,1,4
256,144,8724,5,0
256,304,9159,1,8
256,144,9593,5,0
256,184,9702,1,0
256,224,9811,1,0
256,264,9919,1,0
256,304,10028,1,0
48,320,10463,5,0
464,320,10898,1,8
256,48,11332,5,0
216,112,11550,1,0
296,112,11767,1,4
256,336,12202,1,0
256,336,12637,1,8
160,200,13072,5,0
208,200,13180,1,0
256,200,13289,1,0
304,200,13398,1,0
352,200,13506,1,0
256,48,13941,5,0
256,336,14376,1,0
256,336,14811,1,4
40,192,15246,6,0,B|184:192,1,142.5,12|0
256,168,15789,1,0
256,168,15898,1,0
328,192,16115,2,0,B|472:192,1,142.5,8|0
470,192,16659,1,0
470,192,16767,1,0
344,288,16985,6,0,B|296:328|208:336|152:272,1,190,8|0
256,256,17637,1,0
256,256,17854,1,0
224,184,18072,5,0
256,160,18180,1,8
288,184,18289,1,8
256,64,18506,1,0
192,112,18724,6,0,B|168:168|96:152|96:232,1,142.5,8|0
96,288,19267,1,0
128,272,19376,1,0
312,112,19593,6,0,B|336:168|408:152|408:232,1,142.5,8|0
408,288,20137,1,0
376,272,20246,1,0
256,320,20463,6,0,B|256:128,1,190,8|0
256,56,21115,1,0
224,128,21332,5,8
208,152,21441,1,0
224,192,21550,1,0
256,216,21659,1,0
288,240,21767,1,0
296,280,21876,1,0
288,320,21985,1,8
256,352,22093,1,0
256,352,22202,1,12
144,296,22528,5,0
144,296,22637,1,0
104,224,22854,1,0
144,208,22963,1,0
184,224,23072,1,8
256,176,23289,1,0
368,56,23506,5,0
408,128,23724,1,0
368,144,23832,1,0
328,128,23941,1,8
256,176,24159,1,0
256,96,24376,5,0
256,344,24593,1,0
256,304,24702,1,0
256,264,24811,1,0
256,96,25028,5,0
256,136,25137,1,0
256,176,25246,1,0
184,224,25463,5,0
328,224,25680,1,8
256,176,25898,1,0
256,344,26115,5,0
344,344,26332,1,0
384,352,26441,1,0
368,312,26550,1,0
256,344,26767,5,0
256,344,26985,1,0
168,344,27202,1,0
128,352,27311,1,0
136,312,27419,1,0
256,192,27637,5,0
216,112,27854,1,0
256,96,27963,1,0
296,112,28072,1,0
256,192,28289,5,0
256,192,28434,1,0
256,192,28579,1,0
256,192,28724,1,0
256,192,28869,1,0
256,192,29014,1,0
256,120,29159,5,4
184,192,29376,1,0
256,264,29593,1,8
328,192,29811,1,0
256,120,30028,2,0,B|256:24,2,95,0|0|8
256,120,30680,1,0
256,120,30898,1,0
256,320,31332,1,8
256,320,31550,1,0
56,192,31767,6,0,B|112:200|120:256,1,95
456,192,32202,2,0,B|400:184|392:128,1,95,8|0
320,192,32637,5,4
192,192,32854,1,0
256,264,33072,1,8
320,192,33289,1,0
192,192,33506,1,0
256,40,33941,5,8
160,40,34159,2,0,B|56:40,1,95
208,112,34593,1,0
256,184,34811,1,8
352,184,35028,2,0,B|464:184,1,95
304,256,35463,1,0
256,328,35680,1,8
256,328,35898,1,0
256,184,36115,6,0,B|56:184,2,190,0|8|0
256,96,37202,1,0
256,272,37419,1,8
256,184,37637,1,0
256,184,37854,2,0,B|448:184,2,190,0|8|0
312,248,38941,5,0
384,296,39159,1,8
312,344,39376,1,0
240,296,39593,2,0,B|136:296,2,95,4|0|8
312,248,40246,5,0
312,160,40463,1,0
312,160,40572,1,0
312,160,40680,1,0
240,208,40898,1,8
168,160,41115,1,0
168,160,41332,1,4
104,216,41550,1,0
104,216,41659,1,0
104,216,41767,1,0
168,272,41985,1,0
256,56,42202,5,0
256,104,42347,1,0
256,152,42492,1,0
256,200,42637,1,0
256,248,42782,1,0
256,296,42927,1,0
256,344,43072,1,4
336,224,43506,5,8
256,248,43724,1,0
176,224,43941,1,0
256,72,44376,1,8
256,160,44593,1,0
256,72,44811,1,0
256,344,45246,5,8
256,344,45463,1,0
72,192,45680,6,0,B|72:248|120:280,1,95
440,192,46115,2,0,B|440:136|392:104,1,95,8|0
144,192,46550,2,0,B|136:128|72:120,1,95,4|0
368,192,46985,2,0,B|376:256|440:264,1,95,8|0
256,192,47419,5,0
256,104,47637,2,0,B|256:32,2,47.5,0|0|8
256,192,48072,1,0
200,256,48289,2,0,B|152:304,2,47.5
256,192,48724,1,8
312,256,48941,2,0,B|368:312,2,47.5
424,192,49376,5,0
328,88,49593,1,8
184,88,49811,1,0
88,192,50028,1,4
256,232,50463,6,0,B|256:344,2,95,8|0|0
216,152,51115,1,0
256,128,51224,1,0
296,152,51332,1,8
256,232,51550,1,0
212,305,51767,2,0,B|260:337|311:298,2,95,0|0|8
256,232,52419,1,0
168,232,52637,6,0,B|120:272|144:320,1,95
344,232,53072,2,0,B|392:272|368:320,1,95,8|0
256,336,53506,5,0
256,48,53724,1,0
256,264,53941,1,8
256,120,54159,1,0
256,192,54376,1,0
80,192,54811,5,4
256,264,55028,1,0
432,192,55246,1,4
256,40,55680,5,4
256,264,56115,1,0
256,264,56550,1,4
80,192,56985,5,4
80,120,57202,2,0,B|128:120|160:168|152:200,1,95,0|8
152,248,57637,1,0
152,320,57854,1,0
456,192,58289,5,8
416,200,58398,1,0
376,192,58506,1,0
336,200,58615,1,0
296,192,58724,2,0,B|200:192,1,95
184,264,59159,1,8
184,264,59376,1,0
184,264,59593,2,0,B|96:264|56:208|56:200,1,142.5
48,168,60028,5,8
256,64,60246,1,0
464,168,60463,1,4
256,136,60680,5,0
256,344,60898,1,8
256,176,61115,1,0
256,304,61332,1,0
256,240,61550,5,0
184,240,61767,6,0,B|80:240,1,95,8|0
328,240,62202,2,0,B|456:240,1,95
160,176,62637,2,0,B|56:176,1,95,8|0
352,176,63072,2,0,B|448:176,1,95
400,112,63506,5,8
328,80,63724,1,0
256,64,63941,1,4
184,80,64159,1,0
112,112,64376,1,8
184,80,64593,1,0
256,64,64811,6,0,B|256:216,1,142.5
256,248,65246,1,8
256,288,65354,1,0
256,328,65463,1,0
328,312,65680,5,0
184,272,65898,1,0
328,232,66115,1,8
184,192,66332,1,0
328,152,66550,1,0
256,40,66985,5,8
256,40,67093,1,0
256,40,67202,1,0
216,112,67419,2,0,B|168:112|224:192,1,95,0|0
296,112,67854,2,0,B|344:112|288:192,1,95,8|0
256,248,68289,1,0
256,248,68506,2,0,B|256:296,2,47.5,0|0|8
320,280,68941,5,0
320,200,69159,1,0
256,152,69376,1,0
192,200,69593,1,8
192,280,69811,1,0
256,320,70028,5,0
256,272,70173,1,0
256,224,70318,1,0
256,176,70463,1,0
256,128,70608,1,0
256,80,70753,1,0
256,80,70898,1,4
40,192,71332,5,4
256,344,71767,1,4
472,192,72202,1,4
256,40,72637,1,4
176,40,72854,5,0
216,112,73072,1,8
296,112,73289,1,0
336,40,73506,1,0
256,192,73941,6,0,B|256:304,1,95,8|0
320,240,74376,2,0,B|320:160,2,47.5
256,192,74811,2,0,B|256:304,1,95,8|0
192,240,75246,2,0,B|192:184,2,47.5
184,312,75680,5,8
216,336,75789,1,0
256,344,75898,1,0
296,336,76006,1,0
328,312,76115,1,0
256,272,76333,5,0
208,200,76550,1,8
304,200,76767,1,0
384,160,76985,5,0
360,128,77093,1,0
328,104,77202,1,0
296,88,77311,1,0
256,80,77419,1,8
216,88,77528,1,0
184,104,77637,1,0
152,128,77746,1,0
128,160,77854,1,4
112,304,78072,5,0
256,272,78289,1,8
400,304,78506,1,0
256,272,78724,1,0
256,40,79159,6,0,B|256:152,1,95,8|0
184,136,79593,2,0,B|184:208|240:232,1,95
328,136,80028,2,0,B|328:208|272:232,1,95,8|0
256,288,80463,1,0
256,288,80572,1,0
256,288,80680,1,0
176,288,80898,5,8
88,176,81115,1,0
184,72,81333,1,4
328,72,81550,1,0
424,176,81767,1,8
328,280,81985,1,0
400,248,82202,6,0,B|416:304|368:344,1,95,0|0
112,248,82637,2,0,B|96:304|144:344,1,95,8|0
256,192,83072,5,0
256,272,83289,1,0
216,336,83506,1,8
296,336,83724,1,0
256,272,83941,5,0
256,272,84086,1,0
256,272,84231,1,0
256,272,84376,1,0
256,272,84521,1,0
256,272,84666,1,0
256,272,84811,1,4
376,336,98289,6,0,B|400:288|368:232,1,95
168,48,99159,2,0,B|136:104|176:160,1,95,0|2
448,104,100028,6,0,B|408:64|344:64,1,95
56,288,100898,2,0,B|96:328|144:328,1,95,0|2
256,64,101767,5,0
160,64,101985,1,0
103,140,102202,1,0
120,233,102419,1,0
202,281,102637,1,0
290,248,102854,1,0
330,161,103072,1,2
104,248,103506,6,0,B|72:208,1,47.5
64,120,103941,1,0
152,144,104159,2,0,B|208:128,1,47.5,0|0
384,136,104593,2,0,B|328:152,1,47.5,0|2
96,296,105246,6,0,B|152:296|192:336,1,95
232,320,105898,1,0
272,336,106115,1,0
320,320,106333,1,0
368,328,106550,1,2
144,152,106985,6,0,B|176:104|160:56,2,95
160,200,108072,2,0,B|112:240,1,47.5,0|2
352,64,108724,6,0,B|408:88,1,47.5
416,120,109159,2,0,B|448:160,1,47.5
432,200,109593,2,0,B|448:272,1,47.5
416,288,110028,2,0,B|408:336|352:368,1,95,2|0
320,344,110680,1,0
280,320,110898,5,2
224,304,111115,1,2
168,264,111333,1,0
120,208,111550,1,0
88,128,111767,1,2
256,40,112202,1,2
480,344,112637,6,0,B|400:296|272:304,1,190
264,288,113180,1,0
232,272,113289,1,0
208,248,113398,1,0
176,232,113506,2,0,B|128:208|104:160,1,95
136,80,113941,1,0
136,80,114050,1,0
136,80,114159,1,0
224,112,114376,2,0,B|288:136|336:120,1,95
392,184,114811,1,0
408,216,114919,1,0
392,248,115028,1,0
384,288,115137,1,0
352,304,115246,6,0,B|248:320,1,95
168,288,115680,1,0
72,296,115898,1,0
24,216,116115,5,0
104,168,116333,1,0
144,80,116550,1,0
144,80,116659,1,0
144,80,116767,1,0
232,112,116985,1,0
328,96,117202,1,0
392,160,117419,1,0
392,160,117528,1,0
392,160,117637,1,0
312,208,117854,2,0,B|264:224|216:192,1,95
128,200,118289,1,0
128,200,118398,1,0
128,200,118506,1,0
144,296,118724,6,0,B|232:344,1,95
368,336,119159,2,0,B|280:288,1,95,0|0
232,208,119593,6,0,B|240:160|288:128,1,95
336,48,120028,2,0,B|384:32,2,47.5
240,40,120463,1,0
160,88,120680,1,0
72,112,120898,1,0
72,112,121006,1,0
88,208,121224,1,0
88,208,121333,1,0
176,232,121550,1,0
256,176,121767,1,0
296,184,121876,1,0
320,216,121985,1,0
336,312,122202,5,0
272,248,122419,1,0
208,344,122637,1,0
160,216,122854,1,0
96,368,123072,6,0,B|24:296|56:176,1,190
64,160,123615,1,0
88,136,123724,1,0
184,152,123941,1,0
256,88,124159,1,0
336,136,124376,1,0
368,160,124485,1,0
408,152,124593,1,0
464,72,124811,2,0,B|400:40|328:64|264:32,1,190
240,40,125354,1,0
200,48,125463,1,0
128,112,125680,6,0,B|64:96,2,63.3333333333333
104,160,126115,2,0,B|40:176,2,63.3333333333333
128,208,126561,6,0,B|184:192|264:224|280:304,1,190,2|2
352,352,127213,1,0
440,320,127430,2,0,B|488:280|464:224,1,95,2|0
416,152,127865,1,2
288,200,128082,1,0
304,64,128300,1,2
120,256,128734,6,0,B|120:320|160:360|216:352|264:280,1,190,2|2
288,216,129387,1,2
400,192,129604,1,0
288,216,129821,1,2
216,128,130039,6,2,B|144:64,1,95,2|2
176,216,130474,2,0,B|128:344,1,95,0|2
280,200,130908,2,0,B|384:176,1,95,2|0
448,240,131343,5,2
448,240,131561,1,2
352,224,131778,1,2
304,144,131995,1,0
216,184,132213,1,2
264,264,132430,1,2
384,232,132647,1,2
312,112,132865,1,2
184,176,133082,1,2
256,296,133300,1,2
168,336,133517,6,0,B|72:304,1,95,2|2
208,240,133952,2,0,B|328:200,1,95,0|2
176,136,134387,2,2,B|80:104,1,95,2|0
224,56,134821,2,2,B|336:72,1,95,2|0
408,96,135256,1,2
408,288,135691,1,2
216,312,136126,1,2
216,312,136343,1,0
128,272,136561,1,2
128,272,136778,1,2
48,216,136995,6,0,B|88:120,1,95,2|0
160,48,137430,2,0,B|184:160,1,95,2|0
240,216,137865,1,2
384,88,138300,5,2
384,88,138517,1,0
296,128,138734,2,0,B|240:120|224:72,2,95,2|0|2
384,296,139604,6,0,B|424:288|456:248,2,63.3333333333333
336,288,140039,1,0
288,312,140184,2,0,B|224:296,1,63.3333333333333
176,304,140474,6,0,B|112:256|40:272|16:360,2,190,2|2|2
256,128,141778,1,2
200,208,141995,1,0
312,208,142213,1,2
256,288,142430,1,2
336,336,142647,2,0,B|384:312|448:328,2,95,2|0|2
256,288,143300,1,2
176,336,143517,1,2
176,336,143734,1,0
104,272,143952,6,0,B|152:224|152:160|112:96,1,190,2|0
40,40,144604,2,2,B|120:104,1,95
256,232,145256,5,2
184,232,145474,1,2
344,200,145691,1,0
416,200,145908,1,2
256,152,146126,1,2
184,152,146343,1,0
344,120,146561,1,2
416,120,146778,1,2
256,72,146995,2,0,B|152:40,1,95,2|2
96,112,147430,6,0,B|56:160|144:232|104:296,1,190,2|2
176,352,148082,1,2
256,304,148300,1,2
416,64,148734,6,0,B|496:128,1,95,2|0
344,120,149169,2,0,B|232:136,1,95,2|0
368,208,149604,2,0,B|488:368,2,190,2|2|2
296,272,150691,1,2
208,240,150908,6,0,B|112:208,1,95,2|0
32,176,151343,1,2
32,176,151561,1,2
72,264,151778,1,2
72,264,151995,1,0
152,320,152213,1,2
240,288,152430,1,2
328,328,152647,5,2
416,296,152865,1,0
288,256,153082,1,2
448,224,153300,1,0
256,184,153517,1,2
480,152,153734,5,0
224,112,153952,1,2
224,112,154061,1,0
224,112,154169,1,0
168,192,154387,6,0,B|72:192,1,95,2|0
73,192,154821,1,8
72,40,155039,2,0,B|168:40,1,95,0|2
168,192,155474,1,0
272,256,155691,6,0,B|272:352,1,95,8|0
392,320,156126,1,2
392,320,156343,1,0
440,208,156561,2,0,L|440:152|416:120,1,95,8|0
304,72,156995,1,2
184,40,157213,1,0
56,40,157430,6,0,B|56:136,1,95,8|0
248,136,157865,2,0,B|152:136,1,95,2|0
176,328,158300,2,0,B|96:264,1,95,8|0
288,248,158734,2,0,B|288:344,1,95,2|0
104,344,159169,5,8
224,344,159387,1,0
104,344,159604,1,2
224,344,159821,1,0
40,344,160039,6,0,L|32:320|48:280|48:248,1,95,8|0
288,344,160474,2,0,L|288:272|312:256,1,95,2|0
136,144,160908,6,0,L|136:72|160:56,1,95,8|0
320,72,161343,2,0,L|320:144|296:160,1,95,2|0
64,312,161778,6,0,L|64:240|88:224,1,95,8|0
368,240,162213,2,0,L|368:312|344:328,1,95,2|0
208,320,162647,5,8
144,216,162865,1,0
256,160,163082,1,2
168,72,163300,1,0
288,48,163517,1,8
384,128,163734,1,0
296,216,163952,2,0,L|224:152,1,95,2|0
40,40,164387,6,0,L|80:80,2,47.5,8|0|0
40,232,164821,1,2
40,232,164930,1,0
40,232,165039,1,0
208,152,165256,2,0,L|160:152,2,47.5,8|0|0
208,152,165691,1,2
208,152,165908,1,0
416,96,166126,5,8
320,176,166343,1,0
408,264,166561,1,2
408,264,166778,1,0
288,264,166995,1,8
192,336,167213,1,0
72,304,167430,5,8
72,224,167575,1,8
144,264,167720,1,8
216,224,167865,1,8
144,176,168010,1,8
72,136,168155,1,8
144,96,168300,1,4
256,40,168517,5,0
312,152,168734,1,8
256,264,168952,1,0
312,152,169169,1,2
256,264,169387,1,2
472,352,169604,6,0,L|456:336|456:256,1,95,2|0
480,256,170039,2,0,L|496:240|496:160,1,95,8|0
472,152,170474,2,0,L|456:136|456:56,1,95,2|0
480,48,170908,1,2
256,40,171126,5,2
32,40,171343,6,0,L|16:56|16:136,1,95,2|0
40,136,171778,2,0,L|56:152|56:232,1,95,8|0
32,240,172213,2,0,L|16:256|16:336,1,95,2|0
40,344,172647,1,2
184,240,172865,5,2
184,80,173082,5,2
184,80,173300,2,0,L|88:80,1,95,0|8
328,80,173734,1,0
328,80,173952,2,0,L|424:80,1,95,2|0
256,80,174387,1,2
144,112,174604,1,2
144,112,174821,5,2
256,40,175039,1,0
368,112,175256,1,8
256,176,175474,1,0
144,248,175691,1,2
256,312,175908,1,2
368,248,176126,1,4
256,176,176343,1,2
368,248,176561,5,8
256,312,176778,1,0
144,248,176995,1,2
256,176,177213,1,0
368,112,177430,1,2
256,40,177647,1,2
144,112,177865,1,8
256,176,178082,1,2
96,176,178300,6,0,L|96:208|64:208|64:176,1,95,2|0
256,176,178734,1,2
256,176,178952,1,0
96,272,179169,2,0,L|96:304|64:304|64:272,1,95,8|0
256,272,179604,1,2
256,272,179821,1,0
416,304,180039,5,2
416,80,180256,1,2
416,304,180474,1,8
416,80,180691,1,0
416,192,180908,5,2
296,192,181126,1,0
176,192,181343,1,2
56,192,181561,1,0
80,64,181778,5,8
80,64,181887,1,0
80,64,181995,2,0,L|176:64,1,95,0|0
296,64,182463,2,0,L|192:64,1,95
200,184,182898,1,0
80,184,183115,1,4
200,184,183332,1,2
264,296,183550,5,2
264,296,183767,2,0,L|168:296,1,95,2|4
360,296,184202,2,0,L|456:296,1,95,0|0
360,184,184637,1,0
264,184,184854,1,4
200,296,185072,1,0
80,312,185289,6,0,L|80:240|104:224,1,95,2|0
384,240,185724,2,0,L|384:312|360:328,1,95,4|0
152,144,186159,6,0,L|152:72|176:56,1,95,0|0
272,232,186593,2,0,L|272:304|248:320,1,95,0|0
88,336,187028,5,0
56,208,187246,1,0
136,104,187463,1,2
256,48,187680,1,2
376,104,187898,1,0
456,208,188115,1,2
408,336,188332,1,6
256,32,188767,5,4
256,80,188985,1,0
256,128,189202,1,4
256,176,189419,1,0
256,224,189637,1,0
256,272,189854,1,0
256,320,190072,1,2
256,320,190289,1,0
136,320,190506,5,0
136,200,190724,2,0,L|136:96,1,95,0|4
256,104,191159,1,0
336,200,191376,1,2
256,296,191593,1,0
368,344,191811,2,0,L|448:344|456:320,1,95,2|0
440,200,192246,5,0
392,88,192463,2,0,L|320:16,1,95,0|4
232,104,192898,1,0
200,224,193115,1,0
80,200,193332,1,0
96,80,193550,1,2
208,32,193767,1,0
288,128,193985,5,0
232,240,194202,1,0
88,192,194419,1,0
88,72,194637,2,0,B|80:8|144:16,1,95
256,56,195072,1,0
336,152,195289,1,4
248,240,195506,1,0
128,240,195724,5,2
96,120,195941,1,0
200,56,196159,2,0,L|296:56,1,95,4|0
416,56,196593,1,0
352,160,196811,1,0
416,56,197028,1,0
216,336,197463,5,0
136,208,197680,1,2
56,336,197898,1,4
216,336,198115,1,0
136,208,198332,1,0
56,336,198550,1,0
216,336,198767,1,0
216,168,198985,5,0
304,32,199202,5,0
424,32,199419,1,2
488,136,199637,1,4
368,136,199854,1,0
304,32,200072,1,0
424,32,200289,1,0
488,136,200506,1,0
368,136,200724,1,2
416,328,200941,6,0,L|320:328,1,95,2|2
104,280,201376,2,0,L|200:280,1,95,4|0
416,232,201811,2,0,L|320:232,1,95
104,176,202246,2,0,L|200:176,1,95,0|2
256,56,202680,5,2
152,120,202898,1,2
256,192,203115,1,4
360,120,203332,1,0
256,192,203550,1,0
152,264,203767,1,0
256,336,203985,1,2
360,264,204202,1,0
496,344,204419,5,0
496,344,204637,1,0
400,264,204854,1,2
496,192,205072,1,0
400,120,205289,1,2
496,48,205506,1,2
496,48,205724,1,2
376,48,205941,1,0
240,48,206159,6,0,L|312:120,1,95,2|2
200,280,206593,2,0,L|128:208,1,95,4|0
264,80,207028,2,0,L|168:80,1,95,0|0
344,152,207463,1,2
152,152,207680,1,0
320,248,207898,5,0
184,120,208115,1,0
96,288,208332,1,0
256,184,208550,1,0
408,296,208767,1,0
328,120,208985,1,0
256,296,209202,1,4
256,192,210072,5,4
256,192,210181,12,0,217028
