osu file format v13

[General]
AudioFilename: 09. Bad Apple!! feat.nomico(2014 Refix).mp3
AudioLeadIn: 0
PreviewTime: 56201
Countdown: 0
SampleSet: None
StackLeniency: 0.7
Mode: 0
LetterboxInBreaks: 1
WidescreenStoryboard: 1

[Editor]
DistanceSpacing: 1
BeatDivisor: 4
GridSize: 32
TimelineZoom: 2

[Metadata]
Title:Bad Apple!! (2014 Refix)
TitleUnicode:Bad Apple!! (2014 Refix)
Artist:Masayoshi Minoshima ft. nomico
ArtistUnicode:Masayoshi Minoshima ft. nomico
Creator:happy30
Version:burai
Source:Touhou
Tags:dajagl buraimaster1234 burai james
BeatmapID:562383
BeatmapSetID:241641

[Difficulty]
HPDrainRate:6
CircleSize:4
OverallDifficulty:8
ApproachRate:8.5
SliderMultiplier:2
SliderTickRate:1

[Events]
//Background and Video events
0,0,"Konachan.com - 186259 sample.jpg",0,0
//Break Periods
2,42488,55451
2,112053,125091
2,139879,152917
2,223357,236395
//Storyboard Layer 0 (Background)
//Storyboard Layer 1 (Fail)
//Storyboard Layer 2 (Pass)
//Storyboard Layer 3 (Foreground)
//Storyboard Sound Samples

[TimingPoints]
549,434.782608695652,4,3,1,100,1,0
37940,-50,4,3,1,100,0,0
38809,-100,4,3,1,100,0,0
67505,-200,4,3,1,100,0,0
67940,-100,4,3,1,100,0,0
81418,-200,4,3,1,100,0,0
81853,-100,4,3,1,100,0,0
84027,-66.6666666666667,4,3,1,100,0,0
96853,-100,4,3,1,100,0,0
126635,-66.6666666666667,4,3,1,100,0,0
127070,-133.333333333333,4,3,1,100,0,0
127940,-66.6666666666667,4,3,1,100,0,0
128809,-133.333333333333,4,3,1,100,0,0
129679,-66.6666666666667,4,3,1,100,0,0
132070,-100,4,3,1,100,0,0
133157,-66.6666666666667,4,3,1,100,0,0
134027,-133.333333333333,4,3,1,100,0,0
134896,-66.6666666666667,4,3,1,100,0,0
135766,-133.333333333333,4,3,1,100,0,0
137505,-100,4,3,1,100,0,0
195331,-66.6666666666667,4,3,1,100,0,0
209244,-100,4,3,1,100,0,0
250983,-66.6666666666667,4,3,1,100,0,1
255114,-33.3333333333333,4,3,1,100,0,1
255222,-66.6666666666667,4,3,1,100,0,1
255983,-33.3333333333333,4,3,1,100,0,1
256092,-66.6666666666667,4,3,1,100,0,1
262070,-33.3333333333333,4,3,1,100,0,1
262179,-66.6666666666667,4,3,1,100,0,1
262940,-33.3333333333333,4,3,1,100,0,1
263048,-66.6666666666667,4,3,1,100,0,1
264895,-66.6666666666667,4,3,1,100,0,0
264896,-66.6666666666667,4,3,1,100,0,1
277940,-100,4,2,1,100,0,0
292288,-133.333333333333,4,2,0,61,0,0
292288,-133.333333333333,4,2,1,100,0,0
292505,-133.333333333333,4,2,0,80,0,0
292723,-133.333333333333,4,2,0,100,0,0
292940,-133.333333333333,4,2,0,79,0,0
293158,-133.333333333333,4,2,0,61,0,0
293375,-133.333333333333,4,2,0,41,0,0
293592,-133.333333333333,4,2,0,21,0,0
294027,-133.333333333333,4,2,0,51,0,0
294244,-133.333333333333,4,2,0,79,0,0
294462,-133.333333333333,4,2,0,100,0,0
294679,-133.333333333333,4,2,0,80,0,0
294897,-133.333333333333,4,2,0,62,0,0
295114,-133.333333333333,4,2,0,39,0,0
295331,-133.333333333333,4,2,0,22,0,0
295766,-133.333333333333,4,2,0,50,0,0
295984,-133.333333333333,4,2,0,80,0,0
296201,-133.333333333333,4,2,0,100,0,0
296418,-133.333333333333,4,2,0,79,0,0
296636,-133.333333333333,4,2,0,61,0,0
296853,-133.333333333333,4,2,0,39,0,0
297071,-133.333333333333,4,2,0,20,0,0
297505,-133.333333333333,4,2,0,50,0,0
297723,-133.333333333333,4,2,0,80,0,0
297940,-133.333333333333,4,2,0,100,0,0
298158,-133.333333333333,4,2,0,79,0,0
298375,-133.333333333333,4,2,0,62,0,0
298592,-133.333333333333,4,2,0,41,0,0
298809,-133.333333333333,4,2,0,21,0,0
299244,-133.333333333333,4,2,0,50,0,0
299462,-133.333333333333,4,2,0,81,0,0
299679,-133.333333333333,4,2,0,100,0,0
299897,-133.333333333333,4,2,0,81,0,0
300114,-133.333333333333,4,2,0,61,0,0
300331,-133.333333333333,4,2,0,39,0,0
300548,-133.333333333333,4,2,0,21,0,0
300984,-133.333333333333,4,2,0,53,0,0
301201,-133.333333333333,4,2,0,81,0,0
301418,-133.333333333333,4,2,0,100,0,0
301636,-133.333333333333,4,2,0,81,0,0
301853,-133.333333333333,4,2,0,59,0,0
302071,-133.333333333333,4,2,0,41,0,0
302288,-133.333333333333,4,2,0,20,0,0
305766,-133.333333333333,4,2,0,22,0,0
306636,-133.333333333333,4,1,0,100,0,0

[Colours]
Combo1 : 128,0,128
Combo2 : 64,128,128
Combo3 : 128,0,0
Combo4 : 0,128,64

[HitObjects]
400,90,28375,6,0,P|448:91|470:50,1,100,0|2,0:0|0:2,0:0:0:0:
489,37,28701,1,0,0:0:0:0:
256,152,28918,1,0,0:0:0:0:
307,65,29027,1,2,0:2:0:0:
112,216,29244,2,0,P|64:217|42:176,1,100,0|2,0:0|0:2,0:0:0:0:
23,163,29570,1,0,0:0:0:0:
256,280,29788,1,0,0:0:0:0:
205,193,29897,1,2,0:2:0:0:
400,280,30114,6,0,P|448:281|470:240,1,100,0|2,0:0|0:2,0:0:0:0:
489,227,30440,1,0,0:0:0:0:
256,342,30657,1,0,0:0:0:0:
307,255,30766,1,2,0:2:0:0:
235,181,30875,1,0,0:0:0:0:
148,230,30983,2,0,P|106:207|108:160,1,100,0|2,0:0|0:2,0:0:0:0:
208,159,31309,1,0,0:0:0:0:
278,88,31418,2,0,P|313:119|301:165,1,100,0|2,0:0|0:2,0:0:0:0:
208,159,31744,1,0,0:0:0:0:
112,90,31853,6,0,P|64:91|42:50,1,100,0|2,0:0|0:2,0:0:0:0:
23,37,32179,1,0,0:0:0:0:
256,152,32396,1,0,0:0:0:0:
205,65,32505,1,2,0:2:0:0:
400,216,32722,2,0,P|448:217|470:176,1,100,0|2,0:0|0:2,0:0:0:0:
489,163,33048,1,0,0:0:0:0:
256,280,33266,1,0,0:0:0:0:
307,193,33375,1,2,0:2:0:0:
112,280,33592,6,0,P|64:281|42:240,1,100,0|2,0:0|0:2,0:0:0:0:
23,227,33918,1,0,0:0:0:0:
256,342,34135,1,0,0:0:0:0:
205,255,34244,1,2,0:2:0:0:
277,181,34353,1,0,0:0:0:0:
364,230,34462,2,0,P|406:207|404:160,1,100,0|2,0:0|0:2,0:0:0:0:
304,159,34788,1,0,0:0:0:0:
234,88,34897,2,0,P|198:119|210:165,1,100,0|2,0:0|0:2,0:0:0:0:
304,159,35223,1,0,0:0:0:0:
221,241,35331,6,0,P|175:253|143:217,1,100,0|2,0:0|0:2,0:0:0:0:
143,217,35657,2,0,P|101:192|104:144,1,100,0|0,0:0|0:0,0:0:0:0:
278,44,35983,2,0,L|321:68,1,50,2|0,0:2|0:0,0:0:0:0:
355,262,36201,2,0,P|354:309|311:331,1,100,0|2,0:0|0:2,0:0:0:0:
312,331,36527,2,0,P|278:364|232:349,1,100,0|0,0:0|0:0,0:0:0:0:
178,155,36853,2,0,L|213:120,1,50,2|0,0:2|0:0,0:0:0:0:
406,171,37070,6,0,P|451:183|461:230,1,100,0|2,0:0|0:2,0:0:0:0:
461,230,37396,2,0,P|484:271|458:311,1,100,0|0,0:0|0:0,0:0:0:0:
256,311,37722,2,0,L|231:268,1,50,2|0,0:2|0:0,0:0:0:0:
320,96,37940,2,0,L|370:9,1,100
192,96,38157,2,0,L|142:9,1,100,2|0,0:2|0:0,0:0:0:0:
384,192,38375,2,0,L|470:142,1,100
128,192,38592,2,0,L|41:142,1,100,2|0,0:2|0:0,0:0:0:0:
291,241,38809,6,0,P|337:253|369:217,1,100,0|2,0:0|0:2,0:0:0:0:
369,217,39135,2,0,P|410:192|407:144,1,100,0|0,0:0|0:0,0:0:0:0:
234,44,39461,2,0,L|191:68,1,50,2|0,0:2|0:0,0:0:0:0:
157,262,39679,2,0,P|157:309|200:331,1,100,0|2,0:0|0:2,0:0:0:0:
200,331,40005,2,0,P|233:364|279:349,1,100,0|0,0:0|0:0,0:0:0:0:
334,155,40331,2,0,L|299:120,1,50,2|0,0:2|0:0,0:0:0:0:
106,171,40548,6,0,P|60:183|50:230,1,100,0|2,0:0|0:2,0:0:0:0:
51,230,40875,2,0,P|27:271|53:311,1,100,0|0,0:0|0:0,0:0:0:0:
256,311,41201,2,0,L|280:268,1,50,2|0,0:2|0:0,0:0:0:0:
224,32,41418,5,0,1:0:0:0:
192,160,41563,1,0,1:0:0:0:
64,224,41708,1,0,1:0:0:0:
288,352,41853,1,0,1:0:0:0:
320,224,41998,1,0,1:0:0:0:
448,160,42143,1,0,1:0:0:0:
256,192,42288,1,4,1:0:0:0:
70,90,56201,6,0,L|0:19,1,100,0|2,0:0|0:2,0:0:0:0:
138,158,56635,2,0,L|234:132,1,100,0|2,0:0|0:2,0:0:0:0:
41,183,57070,2,0,B|41:255|41:255|90:280|90:280|90:352,1,200,0|0,0:0|0:0,0:0:0:0:
256,298,57722,1,2,0:2:0:0:
422,352,57940,2,0,B|422:280|422:280|471:255|471:255|471:183,1,200,0|2,0:0|0:1,0:0:0:0:
288,100,58809,5,0,0:0:0:0:
157,174,59027,1,2,0:2:0:0:
250,288,59244,1,0,0:0:0:0:
347,173,59462,1,2,0:2:0:0:
217,96,59679,2,0,L|120:69,1,100,0|2,0:0|0:2,0:0:0:0:
309,120,60113,2,0,L|378:49,1,100,0|2,0:0|0:2,0:0:0:0:
238,190,60548,2,0,B|274:252|274:252|328:249|328:249|364:311,1,200,0|0,0:0|0:0,0:0:0:0:
365,313,61201,1,2,0:2:0:0:
146,313,61418,5,0,1:0:0:0:
119,215,61635,1,2,0:2:0:0:
220,205,61853,1,0,1:0:0:0:
211,306,62070,1,2,0:2:0:0:
15,253,62288,1,0,1:0:0:0:
156,112,62505,1,2,1:2:0:0:
270,276,62722,1,0,1:0:0:0:
88,360,62940,1,2,0:2:0:0:
36,166,63157,6,0,L|106:95,1,100,4|2,0:2|0:2,0:0:0:0:
307,95,63592,2,0,L|208:95,1,100,0|2,0:0|0:2,0:0:0:0:
407,95,64027,2,0,B|356:145|356:145|373:198|373:198|322:249,1,200
321,249,64679,1,2,0:2:0:0:
121,249,64896,2,0,B|86:241|70:206|70:206|28:249|57:303|100:301,1,200,0|2,0:0|0:1,0:0:0:0:
100,300,65766,5,0,0:0:0:0:
196,275,65983,1,2,0:2:0:0:
147,188,66201,1,0,0:0:0:0:
233,139,66418,1,2,0:2:0:0:
406,39,66635,2,0,P|453:61|459:104,1,100,0|2,0:0|0:2,0:0:0:0:
106,39,67070,2,0,P|59:61|53:104,1,100,0|2,0:0|0:2,0:0:0:0:
197,143,67505,2,0,B|239:141|222:205|262:208,1,100
262,208,68157,1,2,0:2:0:0:
367,304,68375,6,0,B|462:279|462:279|512:191,1,200,2|2,0:0|0:0,0:0:0:0:
145,80,69244,2,0,B|49:104|49:104|0:192,1,200,2|2,0:0|0:0,0:0:0:0:
442,90,70114,6,0,L|512:19,1,100,0|2,0:0|0:2,0:0:0:0:
374,158,70548,2,0,L|278:132,1,100,0|2,0:0|0:2,0:0:0:0:
471,183,70983,2,0,B|471:255|471:255|422:280|422:280|422:352,1,200,0|0,0:0|0:0,0:0:0:0:
256,298,71635,1,2,0:2:0:0:
90,352,71853,2,0,B|90:280|90:280|41:255|41:255|41:183,1,200,0|2,0:0|0:1,0:0:0:0:
224,100,72722,5,0,0:0:0:0:
355,174,72940,1,2,0:2:0:0:
262,288,73157,1,0,0:0:0:0:
165,173,73375,1,2,0:2:0:0:
295,96,73592,2,0,L|392:69,1,100,0|2,0:0|0:2,0:0:0:0:
203,120,74026,2,0,L|134:49,1,100,0|2,0:0|0:2,0:0:0:0:
274,190,74462,2,0,B|238:252|238:252|183:249|183:249|147:311,1,200,0|0,0:0|0:0,0:0:0:0:
147,313,75114,1,2,0:2:0:0:
366,313,75331,5,0,1:0:0:0:
393,215,75548,1,2,0:2:0:0:
292,205,75766,1,0,1:0:0:0:
301,306,75983,1,2,0:2:0:0:
497,253,76201,1,0,1:0:0:0:
356,112,76418,1,2,1:2:0:0:
242,276,76635,1,0,1:0:0:0:
424,360,76853,1,2,0:2:0:0:
476,166,77070,6,0,L|406:95,1,100,4|2,0:2|0:2,0:0:0:0:
205,95,77505,2,0,L|304:95,1,100,0|2,0:0|0:2,0:0:0:0:
105,95,77940,2,0,B|156:145|156:145|139:198|139:198|190:249,1,200
191,249,78592,1,2,0:2:0:0:
391,249,78809,2,0,B|426:241|442:206|442:206|484:249|455:303|412:301,1,200,0|2,0:0|0:1,0:0:0:0:
412,300,79679,5,0,0:0:0:0:
316,275,79896,1,2,0:2:0:0:
365,188,80114,1,0,0:0:0:0:
279,139,80331,1,2,0:2:0:0:
106,39,80548,2,0,P|59:61|53:104,1,100,0|2,0:0|0:2,0:0:0:0:
406,39,80983,2,0,P|453:61|459:104,1,100,0|2,0:0|0:2,0:0:0:0:
315,143,81418,2,0,B|272:141|289:205|249:208,1,100
249,208,82070,1,2,0:2:0:0:
145,304,82288,6,0,B|49:279|49:279|0:191,1,200,2|2,0:0|0:0,0:0:0:0:
367,80,83157,2,0,B|462:104|462:104|512:192,1,200,2|2,0:0|0:0,0:0:0:0:
192,128,84027,6,0,B|110:81|110:81|105:117|133:125,1,150.000005722046,0|2,0:0|0:2,0:0:0:0:
320,128,84462,2,0,B|402:81|402:81|407:117|379:125,1,150.000005722046,0|2,0:0|0:2,0:0:0:0:
46,295,84896,2,0,B|191:255|191:255|247:305,1,225.000008583069,0|0,0:0|0:0,0:0:0:0:
264,319,85331,1,8,0:1:0:0:
294,203,85548,1,2,0:2:0:0:
354,98,85766,6,0,B|406:77|401:25|401:25|456:39,1,150.000005722046,0|2,0:0|0:2,0:0:0:0:
398,209,86201,2,0,B|449:187|483:226|483:226|511:178,1,150.000005722046,0|2,0:0|0:2,0:0:0:0:
279,191,86635,2,0,B|160:236|160:236|202:220|202:220|161:186,1,225.000008583069
141,170,87070,1,8,0:1:0:0:
37,110,87288,1,2,0:2:0:0:
59,227,87505,6,0,B|59:285|0:285|0:285|0:341,1,150.000005722046,0|2,0:0|0:2,0:0:0:0:
210,340,87940,2,0,B|210:282|269:282|269:282|269:226,1,150.000005722046,0|2,0:0|0:2,0:0:0:0:
479,226,88375,2,0,B|433:180|433:180|450:197|450:197|387:197|387:197|416:197|416:197|385:166,1,225.000008583069
370,151,88809,1,8,0:1:0:0:
284,65,89027,1,2,0:2:0:0:
164,65,89244,6,0,P|92:87|38:137,1,150.000005722046,0|2,0:0|0:2,0:0:0:0:
348,319,89679,2,0,P|419:296|473:246,1,150.000005722046,0|2,0:0|0:2,0:0:0:0:
365,66,90114,1,0,0:0:0:0:
148,215,90331,1,8,0:1:0:0:
405,262,90548,1,8,0:1:0:0:
285,243,90766,1,0,0:0:0:0:
320,128,90983,6,0,B|402:81|402:81|407:117|379:125,1,150.000005722046,0|2,0:0|0:2,0:0:0:0:
192,128,91418,2,0,B|110:81|110:81|105:117|133:125,1,150.000005722046,0|2,0:0|0:2,0:0:0:0:
466,295,91852,2,0,B|320:255|320:255|265:305,1,225.000008583069,0|0,0:0|0:0,0:0:0:0:
248,319,92287,1,8,0:1:0:0:
218,203,92504,1,2,0:2:0:0:
158,98,92722,6,0,B|105:77|110:25|110:25|55:39,1,150.000005722046,0|2,0:0|0:2,0:0:0:0:
114,209,93157,2,0,B|62:187|28:226|28:226|0:178,1,150.000005722046,0|2,0:0|0:2,0:0:0:0:
233,191,93591,2,0,B|351:236|351:236|309:220|309:220|350:186,1,225.000008583069
371,170,94026,1,8,0:1:0:0:
475,110,94244,1,2,0:2:0:0:
453,227,94461,6,0,B|453:285|512:285|512:285|512:341,1,150.000005722046,0|2,0:0|0:2,0:0:0:0:
302,340,94896,2,0,B|302:282|243:282|243:282|243:226,1,150.000005722046,0|2,0:0|0:2,0:0:0:0:
33,226,95331,2,0,B|79:180|79:180|62:197|62:197|125:197|125:197|96:197|96:197|127:166,1,225.000008583069
142,151,95765,1,8,0:1:0:0:
228,65,95983,1,2,0:2:0:0:
348,65,96200,6,0,P|419:87|473:137,1,150.000005722046,0|2,0:0|0:2,0:0:0:0:
164,319,96635,2,0,P|92:296|38:246,1,150.000005722046,0|2,0:0|0:2,0:0:0:0:
147,66,97070,5,0,1:0:0:0:
310,179,97215,1,0,1:0:0:0:
179,212,97360,1,0,1:0:0:0:
214,118,97505,1,0,1:0:0:0:
342,269,97650,1,0,1:0:0:0:
206,267,97795,1,0,1:0:0:0:
264,185,97940,5,4,1:0:0:0:
264,185,98375,1,4,1:0:0:0:
55,64,98809,1,4,1:0:0:0:
55,64,99244,1,4,1:0:0:0:
136,292,99679,1,4,1:0:0:0:
136,292,100114,1,4,1:0:0:0:
376,292,100548,1,4,1:0:0:0:
376,292,100983,1,4,1:0:0:0:
417,178,101201,1,0,1:0:0:0:
457,64,101418,5,4,1:0:0:0:
224,126,101853,1,4,1:0:0:0:
327,185,102288,1,4,1:0:0:0:
94,247,102723,1,4,1:0:0:0:
153,350,102940,1,0,1:0:0:0:
213,247,103157,1,4,1:0:0:0:
332,247,103375,1,0,1:0:0:0:
272,350,103592,1,4,1:0:0:0:
392,350,103809,1,0,1:0:0:0:
452,247,104027,1,4,1:0:0:0:
452,247,104462,5,4,1:0:0:0:
375,183,104679,1,2,0:2:0:0:
451,120,104896,2,0,P|441:68|401:51,1,100,4|2,1:0|0:2,0:0:0:0:
313,101,105331,2,0,P|264:83|229:109,1,100,4|2,1:0|0:2,0:0:0:0:
279,196,105766,2,0,B|170:252|160:144|101:149,1,200,4|4,1:0|1:0,0:0:0:0:
101,149,106418,1,2,0:2:0:0:
61,264,106635,2,0,P|70:315|110:332,1,100,4|2,1:0|0:2,0:0:0:0:
199,283,107070,2,0,P|248:301|283:275,1,100,4|2,1:0|0:2,0:0:0:0:
233,188,107505,2,0,B|341:131|351:239|410:234,1,200,4|4,1:0|1:0,0:0:0:0:
411,235,108157,1,2,0:2:0:0:
200,60,108375,6,0,B|112:50|88:136|88:136|39:136,1,200,4|4,1:0|1:0,0:0:0:0:
213,234,109027,1,2,0:2:0:0:
312,60,109244,2,0,B|400:50|424:136|424:136|473:136,1,200,4|4,1:0|1:0,0:0:0:0:
299,234,109896,1,2,0:2:0:0:
256,96,110114,5,4,1:0:0:0:
188,259,110331,1,2,0:2:0:0:
352,192,110548,1,4,1:0:0:0:
188,124,110766,1,2,0:2:0:0:
256,288,110983,5,0,1:0:0:0:
352,261,111128,1,0,1:0:0:0:
377,164,111273,1,0,0:0:0:0:
256,288,111418,1,0,1:0:0:0:
160,261,111563,1,0,1:0:0:0:
135,164,111708,1,0,0:0:0:0:
256,96,111853,1,0,1:0:0:0:
481,128,125766,6,0,P|434:44|339:46,1,200,0|2,0:0|0:1,0:0:0:0:
146,158,126635,2,2,B|173:174|173:174|155:172|155:172|197:196|197:196|179:195|179:195|221:219|221:219|203:218|203:218|244:242|244:242|226:241|226:241|272:267,1,300.000011444092,0|0,0:0|0:0,0:1:0:0:
360,216,127288,1,0,0:0:0:0:
431,286,127505,2,0,B|395:322|395:322|296:321,1,150.000005722046,0|2,0:0|0:1,0:0:0:0:
136,161,128375,2,2,B|168:152|168:152|150:150|150:150|197:137|197:137|179:134|179:134|226:121|226:121|208:118|208:118|254:105|254:105|236:101|236:101|286:88,1,300.000011444092,0|0,0:0|0:0,0:1:0:0:
357,160,129028,1,0,0:0:0:0:
444,111,129244,6,0,B|418:66|418:66|322:42,1,150.000005722046,0|2,0:0|0:1,0:0:0:0:
126,154,130114,2,2,B|98:170|98:170|116:168|116:168|74:192|74:192|92:191|92:191|50:215|50:215|68:214|68:214|27:238|27:238|45:237|45:237|0:263,1,300.000011444092,0|0,0:0|0:0,0:1:0:0:
0,264,130766,1,0,0:0:0:0:
128,337,130983,1,0,0:0:0:0:
256,264,131201,1,0,0:0:0:0:
255,116,131418,1,2,0:1:0:0:
385,43,131635,1,0,0:0:0:0:
512,116,131853,2,2,B|480:116|480:116|496:124|496:124|464:124|464:124|480:132|480:132|448:132|448:132|432:124,1,150.000005722046,0|0,0:0|0:0,0:1:0:0:
179,242,132288,5,0,0:0:0:0:
82,216,132505,1,0,0:0:0:0:
31,128,132722,2,0,P|77:44|172:46,1,200,0|2,0:0|0:1,0:0:0:0:
366,158,133592,2,2,B|338:174|338:174|356:172|356:172|314:196|314:196|332:195|332:195|290:219|290:219|308:218|308:218|267:242|267:242|285:241|285:241|239:267,1,300.000011444092,0|0,0:0|0:0,0:1:0:0:
152,216,134245,1,0,0:0:0:0:
81,286,134462,2,0,B|117:322|117:322|216:321,1,150.000005722046,0|2,0:0|0:1,0:0:0:0:
376,161,135331,2,2,B|344:152|344:152|362:150|362:150|315:137|315:137|333:134|333:134|286:121|286:121|304:118|304:118|258:105|258:105|276:101|276:101|226:88,1,300.000011444092,0|0,0:0|0:0,0:1:0:0:
155,160,135983,1,0,0:0:0:0:
178,308,136201,5,0,0:0:0:0:
326,331,136418,1,0,0:0:0:0:
393,197,136636,1,2,0:1:0:0:
287,91,136853,1,0,0:0:0:0:
155,160,137070,2,2,B|119:196|119:196|120:295,1,150.000005722046,0|0,0:0|0:0,0:0:0:0:
231,295,137722,1,0,0:0:0:0:
310,215,137940,5,0,0:0:0:0:
310,93,138157,1,0,0:0:0:0:
238,191,138375,1,0,0:0:0:0:
354,154,138592,1,0,0:0:0:0:
238,116,138809,2,0,B|176:116|156:70|156:70|139:117|156:169,1,200,0|0,1:0|1:0,0:0:0:0:
155,167,139679,1,0,1:0:0:0:
355,67,153592,6,0,B|391:67|391:67|415:91|415:91|445:91,1,100,0|2,1:0|0:2,0:0:0:0:
470,91,153918,1,0,0:0:0:0:
305,152,154135,1,0,0:0:0:0:
405,152,154244,1,2,0:2:0:0:
157,131,154462,2,0,B|121:131|121:131|97:155|97:155|66:155,1,100,0|2,1:0|0:2,0:0:0:0:
42,155,154788,1,0,0:0:0:0:
207,216,155005,1,0,0:0:0:0:
107,216,155114,1,2,0:2:0:0:
355,195,155331,6,0,B|391:195|391:195|415:219|415:219|445:219,1,100,0|2,1:0|0:2,0:0:0:0:
470,219,155657,1,0,0:0:0:0:
305,280,155874,1,0,0:0:0:0:
355,280,155983,1,2,0:2:0:0:
405,280,156092,1,0,0:0:0:0:
355,195,156201,2,0,B|336:163|336:163|345:131|345:131|330:105,1,100,0|2,1:0|0:2,0:0:0:0:
256,192,156527,1,0,0:0:0:0:
157,189,156636,2,0,B|175:220|175:220|166:252|166:252|181:278,1,100,0|2,1:0|0:2,0:0:0:0:
256,192,156962,1,0,0:0:0:0:
157,67,157070,6,0,B|121:67|121:67|97:91|97:91|67:91,1,100,0|2,1:0|0:2,0:0:0:0:
42,91,157396,1,0,0:0:0:0:
207,152,157613,1,0,0:0:0:0:
107,152,157722,1,2,0:2:0:0:
355,131,157940,2,0,B|391:131|391:131|415:155|415:155|446:155,1,100,0|2,1:0|0:2,0:0:0:0:
470,155,158266,1,0,0:0:0:0:
305,216,158483,1,0,0:0:0:0:
405,216,158592,1,2,0:2:0:0:
157,195,158809,6,0,B|121:195|121:195|97:219|97:219|67:219,1,100,0|2,1:0|0:2,0:0:0:0:
42,219,159135,1,0,0:0:0:0:
207,280,159353,1,0,0:0:0:0:
157,280,159462,1,2,0:2:0:0:
107,280,159571,1,0,0:0:0:0:
157,195,159679,2,0,B|175:163|175:163|166:131|166:131|181:105,1,100,0|2,1:0|0:2,0:0:0:0:
256,192,160005,1,0,0:0:0:0:
355,189,160114,2,0,B|336:220|336:220|345:252|345:252|330:278,1,100,0|2,1:0|0:2,0:0:0:0:
256,192,160440,1,0,0:0:0:0:
355,67,160548,6,0,P|402:64|425:105,1,100,0|2,1:0|0:2,0:0:0:0:
418,128,160874,1,0,0:0:0:0:
412,152,160983,1,0,1:0:0:0:
405,176,161092,1,0,0:0:0:0:
399,199,161200,1,6,0:2:0:0:
157,317,161418,2,0,P|109:319|86:278,1,100,0|2,1:0|0:2,0:0:0:0:
94,256,161744,1,0,0:0:0:0:
100,232,161853,1,0,1:0:0:0:
107,208,161962,1,0,0:0:0:0:
113,185,162070,1,6,0:2:0:0:
187,55,162288,6,0,L|258:125,1,100,0|2,1:0|0:2,0:0:0:0:
274,143,162614,1,0,0:0:0:0:
291,161,162722,1,0,1:0:0:0:
310,178,162831,1,0,0:0:0:0:
327,196,162940,1,6,0:2:0:0:
177,196,163157,1,0,1:0:0:0:
151,198,163266,1,0,0:0:0:0:
130,211,163375,1,2,0:2:0:0:
114,236,163483,1,0,0:0:0:0:
335,188,163592,1,0,1:0:0:0:
361,186,163701,1,0,0:0:0:0:
382,173,163810,1,2,0:2:0:0:
398,148,163918,1,0,0:0:0:0:
157,67,164027,6,0,P|109:64|86:105,1,100,0|2,1:0|0:2,0:0:0:0:
94,128,164353,1,0,0:0:0:0:
100,152,164462,1,0,1:0:0:0:
107,176,164571,1,0,0:0:0:0:
113,199,164679,1,6,0:2:0:0:
355,317,164896,2,0,P|403:320|426:279,1,100,0|2,1:0|0:2,0:0:0:0:
418,256,165223,1,0,0:0:0:0:
412,232,165332,1,0,1:0:0:0:
405,208,165441,1,0,0:0:0:0:
399,185,165549,1,6,0:2:0:0:
325,55,165767,6,0,L|254:125,1,100,0|2,1:0|0:2,0:0:0:0:
238,143,166093,1,0,0:0:0:0:
221,161,166201,1,0,1:0:0:0:
202,178,166310,1,0,0:0:0:0:
185,196,166419,1,6,0:2:0:0:
326,206,166635,5,0,1:0:0:0:
410,150,166780,1,0,1:0:0:0:
416,49,166925,1,0,1:0:0:0:
185,177,167070,1,0,1:0:0:0:
101,233,167215,1,0,1:0:0:0:
95,334,167360,1,0,1:0:0:0:
256,352,167505,5,0,1:0:0:0:
448,300,167722,1,2,0:2:0:0:
256,248,167940,1,0,1:0:0:0:
204,56,168157,1,2,0:2:0:0:
152,248,168375,2,0,B|143:217|123:233|70:214|50:149|116:95,1,200,0|0,1:0|1:0,0:0:0:0:
256,192,169027,1,2,0:2:0:0:
360,136,169244,2,0,B|369:167|389:151|442:170|462:235|396:289,1,200,0|2,1:0|1:0,0:0:0:0:
128,224,170114,5,0,1:0:0:0:
269,83,170331,1,2,0:2:0:0:
383,247,170548,1,0,1:0:0:0:
201,331,170766,1,2,1:2:0:0:
149,137,170983,2,0,L|248:146,1,100,0|2,1:0|0:2,0:0:0:0:
363,247,171418,2,0,L|264:238,1,100,0|2,1:0|0:2,0:0:0:0:
174,192,171853,2,0,B|135:160|92:170|63:204|62:264|134:273,1,200,0|0,1:0|1:0,0:0:0:0:
229,272,172505,1,2,0:2:0:0:
256,175,172722,6,0,L|256:76,1,100,0|2,1:0|0:2,0:0:0:0:
256,175,173157,2,0,L|256:274,1,100,0|2,1:0|0:2,0:0:0:0:
451,225,173592,2,0,L|364:175,1,100,0|2,1:0|1:2,0:0:0:0:
61,225,174027,2,0,L|147:175,1,100,0|2,1:0|0:2,0:0:0:0:
500,96,174462,5,0,1:0:0:0:
448,288,174679,1,2,0:2:0:0:
396,96,174897,1,0,1:0:0:0:
204,44,175114,1,2,0:2:0:0:
12,96,175331,2,0,B|43:105|27:125|46:178|111:198|165:132,1,200,0|0,1:0|1:0,0:0:0:0:
256,192,175983,1,2,0:2:0:0:
347,252,176201,2,0,B|401:186|466:206|485:259|469:279|500:288,1,200,0|2,1:0|1:0,0:0:0:0:
156,352,177070,5,0,1:0:0:0:
356,352,177288,1,2,0:2:0:0:
156,352,177505,1,0,1:0:0:0:
356,352,177723,1,2,1:2:0:0:
269,302,177940,2,0,P|242:262|267:221,1,100,0|2,1:0|0:2,0:0:0:0:
352,170,178375,2,0,P|399:167|422:208,1,100,0|2,1:0|0:2,0:0:0:0:
396,303,178809,2,0,B|316:351|290:215|216:272,1,200,0|0,1:0|1:0,0:0:0:0:
130,322,179462,1,2,0:2:0:0:
128,224,179679,6,0,B|59:225|52:175|52:175|78:79,1,200,0|0,1:0|1:0,0:0:0:0:
384,224,180548,2,0,B|452:225|459:175|459:175|433:79,1,200,0|0,1:0|1:0,0:0:0:0:
256,352,181418,5,0,1:0:0:0:
64,300,181635,1,2,0:2:0:0:
256,248,181853,1,0,1:0:0:0:
308,56,182070,1,2,0:2:0:0:
360,248,182288,2,0,B|369:217|389:233|442:214|462:149|396:95,1,200,0|0,1:0|1:0,0:0:0:0:
256,192,182940,1,2,0:2:0:0:
152,136,183157,2,0,B|143:167|123:151|70:170|50:235|116:289,1,200,0|2,1:0|1:0,0:0:0:0:
384,224,184027,5,0,1:0:0:0:
243,83,184244,1,2,0:2:0:0:
129,247,184461,1,0,1:0:0:0:
311,331,184679,1,2,1:2:0:0:
363,137,184896,2,0,L|264:146,1,100,0|2,1:0|0:2,0:0:0:0:
149,247,185331,2,0,L|248:238,1,100,0|2,1:0|0:2,0:0:0:0:
338,192,185766,2,0,B|377:160|420:170|449:204|450:264|378:273,1,200,0|0,1:0|1:0,0:0:0:0:
283,272,186418,1,2,0:2:0:0:
256,175,186635,6,0,L|256:76,1,100,0|2,1:0|0:2,0:0:0:0:
256,175,187070,2,0,L|256:274,1,100,0|2,1:0|0:2,0:0:0:0:
61,225,187505,2,0,L|148:175,1,100,0|2,1:0|1:2,0:0:0:0:
451,225,187940,2,0,L|365:175,1,100,0|2,1:0|0:2,0:0:0:0:
12,96,188375,5,0,1:0:0:0:
64,288,188592,1,2,0:2:0:0:
116,96,188810,1,0,1:0:0:0:
308,44,189027,1,2,0:2:0:0:
500,96,189244,2,0,B|469:105|485:125|466:178|401:198|347:132,1,200,0|0,1:0|1:0,0:0:0:0:
256,192,189896,1,2,0:2:0:0:
165,252,190114,2,0,B|111:186|46:206|27:259|43:279|12:288,1,200,0|2,1:0|1:0,0:0:0:0:
356,352,190983,5,0,1:0:0:0:
156,352,191201,1,2,0:2:0:0:
356,352,191418,1,0,1:0:0:0:
156,352,191636,1,2,1:2:0:0:
243,302,191853,2,0,P|269:262|244:221,1,100,0|2,1:0|0:2,0:0:0:0:
160,170,192288,2,0,P|112:167|89:208,1,100,0|2,1:0|0:2,0:0:0:0:
116,303,192722,2,0,B|195:351|221:215|295:272,1,200,0|0,1:0|1:0,0:0:0:0:
382,322,193375,1,2,0:2:0:0:
384,224,193592,6,0,B|452:225|459:175|459:175|433:79,1,200,0|0,1:0|1:0,0:0:0:0:
128,224,194461,2,0,B|59:225|52:175|52:175|78:79,1,200,0|0,1:0|1:0,0:0:0:0:
320,256,195331,6,0,B|402:303|402:303|407:267|379:259,1,150.000005722046,0|2,1:0|0:2,0:0:0:0:
192,256,195766,2,0,B|110:303|110:303|105:267|133:259,1,150.000005722046,0|2,1:0|0:2,0:0:0:0:
466,89,196200,2,0,B|321:129|321:129|265:79,1,225.000008583069,0|0,1:0|0:0,0:0:0:0:
248,65,196635,1,8,1:0:0:0:
218,181,196852,1,2,0:2:0:0:
158,286,197070,6,0,B|106:307|111:359|111:359|56:345,1,150.000005722046,0|2,1:0|0:2,0:0:0:0:
114,175,197505,2,0,B|63:197|29:158|29:158|1:206,1,150.000005722046,0|2,1:0|0:2,0:0:0:0:
233,193,197939,2,0,B|352:148|352:148|310:164|310:164|351:198,1,225.000008583069,0|0,1:0|0:0,0:0:0:0:
371,214,198374,1,8,1:0:0:0:
475,274,198592,1,2,0:2:0:0:
453,157,198809,6,0,B|453:99|512:99|512:99|512:43,1,150.000005722046,0|2,1:0|0:2,0:0:0:0:
302,44,199244,2,0,B|302:102|243:102|243:102|243:158,1,150.000005722046,0|2,1:0|0:2,0:0:0:0:
33,158,199679,2,0,B|79:204|79:204|62:187|62:187|125:187|125:187|96:187|96:187|128:218,1,225.000008583069,0|0,1:0|0:0,0:0:0:0:
142,233,200113,1,8,1:0:0:0:
228,319,200331,1,2,0:2:0:0:
348,319,200548,6,0,P|420:297|474:247,1,150.000005722046,0|2,1:0|0:2,0:0:0:0:
164,65,200983,2,0,P|93:88|39:138,1,150.000005722046,0|2,1:0|0:2,0:0:0:0:
147,318,201418,1,0,1:0:0:0:
364,169,201635,1,8,1:0:0:0:
107,122,201852,1,8,1:0:0:0:
227,141,202070,1,0,0:0:0:0:
192,256,202288,6,0,B|110:303|110:303|105:267|133:259,1,150.000005722046,0|2,1:0|0:2,0:0:0:0:
320,256,202722,2,0,B|402:303|402:303|407:267|379:259,1,150.000005722046,0|2,1:0|0:2,0:0:0:0:
46,89,203157,2,0,B|191:129|191:129|247:79,1,225.000008583069,0|0,1:0|0:0,0:0:0:0:
264,65,203592,1,8,1:0:0:0:
294,181,203809,1,2,0:2:0:0:
354,286,204027,6,0,B|406:307|401:359|401:359|456:345,1,150.000005722046,0|2,1:0|0:2,0:0:0:0:
398,175,204462,2,0,B|449:197|483:158|483:158|511:206,1,150.000005722046,0|2,1:0|0:2,0:0:0:0:
279,193,204896,2,0,B|160:148|160:148|202:164|202:164|161:198,1,225.000008583069,0|0,1:0|0:0,0:0:0:0:
141,214,205331,1,8,1:0:0:0:
37,274,205549,1,2,0:2:0:0:
59,157,205766,6,0,B|59:99|0:99|0:99|0:43,1,150.000005722046,0|2,1:0|0:2,0:0:0:0:
210,44,206201,2,0,B|210:102|269:102|269:102|269:158,1,150.000005722046,0|2,1:0|0:2,0:0:0:0:
479,158,206635,2,0,B|433:204|433:204|450:187|450:187|387:187|387:187|416:187|416:187|384:218,1,225.000008583069,0|0,1:0|0:0,0:0:0:0:
370,233,207070,1,8,1:0:0:0:
284,319,207288,1,2,0:2:0:0:
164,319,207505,6,0,P|92:297|38:247,1,150.000005722046,0|2,1:0|0:2,0:0:0:0:
348,65,207940,2,0,P|419:88|473:138,1,150.000005722046,0|2,1:0|0:2,0:0:0:0:
365,318,208375,1,0,1:0:0:0:
202,205,208519,1,0,1:0:0:0:
333,172,208664,1,0,1:0:0:0:
298,266,208809,1,0,1:0:0:0:
170,115,208954,1,0,1:0:0:0:
306,117,209099,1,0,1:0:0:0:
264,199,209244,5,4,1:0:0:0:
264,199,209679,1,4,1:0:0:0:
55,320,210113,1,4,1:0:0:0:
55,320,210548,1,4,1:0:0:0:
136,92,210983,1,4,1:0:0:0:
136,92,211418,1,4,1:0:0:0:
376,92,211852,1,4,1:0:0:0:
376,92,212287,1,4,1:0:0:0:
417,206,212505,1,0,1:0:0:0:
457,320,212722,5,4,1:0:0:0:
224,258,213157,1,4,1:0:0:0:
327,199,213592,1,4,1:0:0:0:
94,137,214027,1,4,1:0:0:0:
153,34,214244,1,0,1:0:0:0:
213,137,214461,1,4,1:0:0:0:
332,137,214679,1,0,1:0:0:0:
272,34,214896,1,4,1:0:0:0:
392,34,215113,1,0,1:0:0:0:
452,137,215331,1,4,1:0:0:0:
452,137,215766,5,4,1:0:0:0:
375,201,215983,1,2,0:2:0:0:
451,264,216200,2,0,P|441:316|401:333,1,100,4|2,1:0|0:2,0:0:0:0:
313,283,216635,2,0,P|264:301|229:275,1,100,4|2,1:0|0:2,0:0:0:0:
279,188,217070,2,0,B|170:132|160:240|101:235,1,200,4|4,1:0|1:0,0:0:0:0:
101,235,217722,1,2,0:2:0:0:
61,120,217939,2,0,P|70:69|110:52,1,100,4|2,1:0|0:2,0:0:0:0:
199,101,218374,2,0,P|248:83|283:109,1,100,4|2,1:0|0:2,0:0:0:0:
233,196,218809,2,0,B|341:253|351:145|410:150,1,200,4|4,1:0|1:0,0:0:0:0:
411,149,219461,1,2,0:2:0:0:
200,324,219679,6,0,B|112:334|88:248|88:248|39:248,1,200,4|4,1:0|1:0,0:0:0:0:
213,150,220331,1,2,0:2:0:0:
312,324,220548,2,0,B|400:334|424:248|424:248|473:248,1,200,4|4,1:0|1:0,0:0:0:0:
299,150,221200,1,2,0:2:0:0:
256,288,221418,5,4,1:0:0:0:
188,125,221635,1,2,0:2:0:0:
352,192,221852,1,4,1:0:0:0:
188,260,222070,1,2,0:2:0:0:
256,96,222288,2,0,P|327:146|337:253,1,200,0|0,1:0|1:0,0:0:0:0:
338,252,223157,1,0,1:0:0:0:
256,162,237070,6,0,P|303:78|398:80,1,200,0|2,1:0|0:1,0:0:0:0:
256,222,237940,2,2,P|209:306|114:304,1,200,0|0,0:0|0:0,0:1:0:0:
14,192,238592,1,0,1:0:0:0:
89,62,238809,2,0,L|283:114,1,200,0|2,1:0|0:1,0:0:0:0:
423,322,239679,2,2,L|228:269,1,200,0|0,0:0|0:0,0:1:0:0:
54,169,240548,6,0,B|116:125|116:125|116:202|191:202,1,200,0|2,1:0|0:1,0:0:0:0:
458,169,241418,2,2,B|396:125|396:125|396:202|321:202,1,200,0|0,0:0|0:0,0:1:0:0:
256,338,242070,1,0,1:0:0:0:
256,237,242288,2,0,B|188:183|340:113|256:65,1,200,0|2,1:0|0:1,0:0:0:0:
169,141,243157,1,0,0:0:0:0:
342,242,243592,1,0,0:0:0:0:
76,164,244027,6,0,P|169:140|191:48,1,200,0|2,1:0|0:1,0:0:0:0:
319,334,244896,2,2,P|343:241|436:219,1,200,0|0,1:0|0:0,0:1:0:0:
359,88,245548,1,0,1:0:0:0:
213,126,245766,2,0,L|18:74,1,200,0|2,1:0|0:1,0:0:0:0:
492,309,246635,2,2,L|299:258,1,200,0|0,1:0|0:0,0:1:0:0:
154,295,247288,1,0,1:0:0:0:
192,150,247505,6,0,B|160:80|160:80|121:147|56:110,1,200,0|2,1:0|0:1,0:0:0:0:
256,65,248157,1,0,1:0:0:0:
320,150,248375,2,0,B|352:80|352:80|391:147|456:110,1,200,0|2,1:0|0:1,0:0:0:0:
256,65,249027,1,0,1:0:0:0:
256,166,249245,2,0,B|324:220|172:290|256:338,1,200,0|2,1:0|0:1,0:0:0:0:
256,338,249896,1,0,1:0:0:0:
394,192,250114,1,0,1:0:0:0:
118,192,250548,1,0,1:0:0:0:
118,192,250983,6,0,B|150:192|178:150|178:150|175:99|146:83,1,150.000005722046,0|2,1:0|0:2,0:0:0:0:
312,127,251309,2,0,B|279:126|251:168|251:168|254:219|283:235,1,150.000005722046
353,246,251635,1,2,0:2:0:0:
373,173,251744,1,0,0:0:0:0:
312,127,251853,2,0,B|288:149|298:199|298:199|336:233|368:223,1,150.000005722046,0|2,1:0|0:2,0:0:0:0:
220,311,252179,2,0,B|243:288|233:238|233:238|195:204|164:214,1,150.000005722046
106,255,252505,1,2,0:2:0:0:
144,321,252614,1,0,0:0:0:0:
220,311,252722,6,0,B|227:277|283:293|283:293|339:277|345:311,1,150.000005722046,0|2,1:0|0:2,0:0:0:0:
345,311,253048,2,0,B|352:277|408:293|408:293|464:277|470:311,1,150.000005722046,0|0,0:0|0:0,0:0:0:0:
470,197,253375,1,2,0:2:0:0:
395,197,253483,1,0,0:0:0:0:
319,197,253592,2,0,B|312:163|256:179|256:179|200:163|194:197,1,150.000005722046,0|2,1:0|0:2,0:0:0:0:
194,197,253918,2,0,B|187:163|131:179|131:179|75:163|69:197,1,150.000005722046,0|0,0:0|0:0,0:0:0:0:
68,84,254244,1,2,0:2:0:0:
143,84,254353,1,0,0:0:0:0:
218,84,254462,6,0,B|243:128|243:128|286:166|330:124,1,150.000005722046,0|2,1:0|0:2,0:0:0:0:
218,84,254788,2,0,B|243:128|243:128|286:166|330:124,1,150.000005722046
359,270,255114,2,0,L|434:140,1,150.000005722046,2|0,0:2|0:0,0:0:0:0:
294,84,255331,2,0,B|268:128|268:128|225:166|181:124,1,150.000005722046,0|2,1:0|0:2,0:0:0:0:
294,84,255657,2,0,B|268:128|268:128|225:166|181:124,1,150.000005722046
153,270,255983,2,0,L|78:140,1,150.000005722046,2|0,0:2|0:0,0:0:0:0:
78,140,256201,6,0,B|94:65|94:65|174:83|184:169,1,225.000008583069,0|0,1:0|0:0,0:0:0:0:
183,243,256635,2,0,B|198:167|198:167|278:185|288:271,1,225.000008583069,0|0,1:0|0:0,0:0:0:0:
288,347,257070,2,0,P|363:347|395:288,1,150.000005722046,0|2,1:0|0:2,0:0:0:0:
395,287,257396,2,0,P|375:214|310:198,1,150.000005722046
235,217,257722,1,2,0:2:0:0:
181,163,257831,1,0,0:0:0:0:
200,90,257940,6,0,B|200:122|242:150|242:150|293:147|309:118,1,150.000005722046,0|2,1:0|0:2,0:0:0:0:
265,284,258266,2,0,B|266:251|224:223|224:223|173:226|157:255,1,150.000005722046
102,202,258592,1,2,0:2:0:0:
124,131,258700,1,0,0:0:0:0:
200,127,258809,2,0,B|224:149|214:199|214:199|176:233|144:223,1,150.000005722046,0|2,1:0|0:2,0:0:0:0:
292,311,259135,2,0,B|269:288|279:238|279:238|317:204|348:214,1,150.000005722046
406,255,259461,1,2,0:2:0:0:
368,321,259570,1,0,0:0:0:0:
292,311,259678,6,0,B|285:277|229:293|229:293|173:277|167:311,1,150.000005722046,0|2,1:0|0:2,0:0:0:0:
167,311,260004,2,0,B|160:277|104:293|104:293|48:277|42:311,1,150.000005722046,0|0,0:0|0:0,0:0:0:0:
42,197,260331,1,2,0:2:0:0:
117,197,260439,1,0,0:0:0:0:
193,197,260548,2,0,B|200:163|256:179|256:179|312:163|318:197,1,150.000005722046,0|2,1:0|0:2,0:0:0:0:
318,197,260874,2,0,B|325:163|381:179|381:179|437:163|443:197,1,150.000005722046,0|0,0:0|0:0,0:0:0:0:
444,84,261200,1,2,0:2:0:0:
369,84,261309,1,0,0:0:0:0:
294,84,261418,6,0,B|269:128|269:128|226:166|182:124,1,150.000005722046,0|2,1:0|0:2,0:0:0:0:
294,84,261744,2,0,B|269:128|269:128|226:166|182:124,1,150.000005722046
153,270,262070,2,0,L|78:140,1,150.000005722046,2|0,0:2|0:0,0:0:0:0:
218,84,262287,2,0,B|244:128|244:128|287:166|331:124,1,150.000005722046,0|2,1:0|0:2,0:0:0:0:
218,84,262613,2,0,B|244:128|244:128|287:166|331:124,1,150.000005722046
359,270,262940,2,0,L|434:140,1,150.000005722046,2|0,0:2|0:0,0:0:0:0:
433,140,263157,6,0,B|418:65|418:65|338:83|328:169,1,225.000008583069,0|0,1:0|0:0,0:0:0:0:
329,243,263591,2,0,B|313:167|313:167|233:185|223:271,1,225.000008583069,0|0,1:0|0:0,0:0:0:0:
224,347,264026,2,0,P|149:347|117:288,1,150.000005722046,0|2,1:0|0:2,0:0:0:0:
117,287,264352,2,0,P|136:214|201:198,1,150.000005722046
277,217,264678,1,2,0:2:0:0:
331,163,264787,1,0,0:0:0:0:
384,109,264896,6,0,L|490:2,1,150.000005722046,0|2,1:0|0:2,0:0:0:0:
344,253,265331,2,0,L|451:147,1,150.000005722046,0|2,1:0|0:2,0:0:0:0:
167,253,265766,2,0,L|61:147,1,150.000005722046,0|2,1:0|0:2,0:0:0:0:
172,153,266201,5,0,1:0:0:0:
161,142,266310,1,0,1:0:0:0:
150,131,266418,1,0,1:0:0:0:
139,120,266527,1,0,1:0:0:0:
128,109,266635,2,0,L|21:2,1,150.000005722046,0|2,1:0|0:2,0:0:0:0:
167,253,267070,2,0,L|61:147,1,150.000005722046,0|2,1:0|0:2,0:0:0:0:
344,253,267505,2,0,L|451:147,1,150.000005722046,0|2,1:0|0:2,0:0:0:0:
344,40,267940,5,0,1:0:0:0:
238,145,268157,1,2,1:2:0:0:
238,295,268375,2,0,P|313:295|345:236,1,150.000005722046,0|2,1:0|0:2,0:0:0:0:
345,235,268809,2,0,P|280:197|281:130,1,150.000005722046,0|2,1:0|0:2,0:0:0:0:
282,129,269244,2,0,P|246:67|175:69,1,150.000005722046,0|2,1:0|0:2,0:0:0:0:
234,170,269679,5,0,1:0:0:0:
245,181,269788,1,0,1:0:0:0:
256,192,269897,1,0,1:0:0:0:
265,201,270005,1,0,1:0:0:0:
274,295,270114,2,0,P|199:295|167:236,1,150.000005722046,0|2,1:0|0:2,0:0:0:0:
167,235,270548,2,0,P|231:197|230:130,1,150.000005722046,0|2,1:0|0:2,0:0:0:0:
230,129,270983,2,0,P|265:67|336:69,1,150.000005722046,0|2,1:0|0:2,0:0:0:0:
340,321,271418,5,0,1:0:0:0:
234,215,271635,1,2,0:2:0:0:
128,109,271853,2,0,L|21:2,1,150.000005722046,0|2,1:0|0:2,0:0:0:0:
167,253,272288,2,0,L|61:147,1,150.000005722046,0|2,1:0|0:2,0:0:0:0:
344,253,272723,2,0,L|451:147,1,150.000005722046,0|2,1:0|0:2,0:0:0:0:
340,153,273158,5,0,1:0:0:0:
351,142,273267,1,0,1:0:0:0:
362,131,273375,1,0,1:0:0:0:
373,120,273484,1,0,1:0:0:0:
384,109,273592,2,0,L|490:2,1,150.000005722046,0|2,1:0|0:2,0:0:0:0:
344,253,274027,2,0,L|451:147,1,150.000005722046,0|2,1:0|0:2,0:0:0:0:
167,253,274462,2,0,L|61:147,1,150.000005722046,0|2,1:0|0:2,0:0:0:0:
168,40,274897,5,0,1:0:0:0:
274,145,275114,1,2,1:2:0:0:
274,295,275332,2,0,P|199:295|167:236,1,150.000005722046,0|2,1:0|0:2,0:0:0:0:
167,235,275766,2,0,P|231:197|230:130,1,150.000005722046,0|2,1:0|0:2,0:0:0:0:
230,129,276201,2,0,P|265:67|336:69,1,150.000005722046,0|2,1:0|0:2,0:0:0:0:
278,170,276636,5,0,1:0:0:0:
267,181,276745,1,0,1:0:0:0:
256,192,276854,1,0,1:0:0:0:
247,201,276962,1,0,1:0:0:0:
238,295,277071,2,0,P|313:295|345:236,1,150.000005722046,0|2,1:0|0:2,0:0:0:0:
345,235,277505,2,0,P|280:197|281:130,1,150.000005722046,0|2,1:0|0:2,0:0:0:0:
256,153,277940,1,0,1:0:0:0:
256,173,278375,1,0,1:0:0:0:
256,193,278809,1,0,1:0:0:0:
31,99,279027,5,0,0:0:0:0:
118,49,279244,1,0,0:0:0:0:
205,99,279462,1,0,0:0:0:0:
118,149,279679,1,0,0:0:0:0:
256,292,280114,5,0,0:0:0:0:
169,242,280331,1,0,0:0:0:0:
256,192,280548,1,0,0:0:0:0:
343,142,280765,1,0,0:0:0:0:
430,192,280983,1,0,0:0:0:0:
343,242,281201,1,0,0:0:0:0:
256,292,281418,1,0,0:0:0:0:
169,342,281853,5,0,0:0:0:0:
82,292,282070,1,0,0:0:0:0:
169,242,282287,1,0,0:0:0:0:
256,192,282504,1,0,0:0:0:0:
343,242,282722,1,0,0:0:0:0:
256,292,282940,1,0,0:0:0:0:
169,342,283157,1,0,0:0:0:0:
343,342,283592,5,0,0:0:0:0:
256,292,283809,1,0,0:0:0:0:
169,242,284026,1,0,0:0:0:0:
256,192,284244,1,0,0:0:0:0:
343,242,284462,1,0,0:0:0:0:
430,292,284679,1,0,0:0:0:0:
343,342,284896,1,0,0:0:0:0:
256,192,285331,5,0,0:0:0:0:
169,142,285548,1,0,0:0:0:0:
342,142,285766,1,0,0:0:0:0:
342,242,285983,2,0,L|392:329,1,100
170,242,286418,2,0,L|119:329,1,100
256,192,287070,5,0,0:0:0:0:
169,242,287287,1,0,0:0:0:0:
170,142,287505,1,0,0:0:0:0:
342,142,287722,2,0,L|392:54,1,100
342,242,288157,2,0,L|393:330,1,100
134,315,288809,5,0,0:0:0:0:
63,244,289027,1,0,0:0:0:0:
89,147,289244,1,0,0:0:0:0:
185,121,289462,1,0,0:0:0:0:
256,192,289679,1,0,0:0:0:0:
230,289,289896,1,0,0:0:0:0:
159,218,290114,1,0,0:0:0:0:
378,315,290548,5,0,0:0:0:0:
282,289,290766,1,0,0:0:0:0:
256,192,290983,1,0,0:0:0:0:
327,121,291200,1,0,0:0:0:0:
423,147,291418,1,0,0:0:0:0:
449,244,291635,1,0,0:0:0:0:
353,218,291853,1,0,0:0:0:0:
48,32,292288,5,0,0:0:0:0:
120,24,292505,1,0,0:0:0:0:
192,40,292723,1,4,0:0:0:0:
256,72,292940,1,0,0:0:0:0:
320,104,293158,1,0,0:0:0:0:
392,112,293375,1,0,0:0:0:0:
464,104,293592,1,0,0:0:0:0:
464,104,294027,5,0,0:0:0:0:
392,96,294245,1,0,0:0:0:0:
320,112,294462,1,0,0:0:0:0:
256,144,294679,1,0,0:0:0:0:
192,176,294897,1,0,0:0:0:0:
120,184,295114,1,0,0:0:0:0:
48,176,295331,1,0,0:0:0:0:
48,176,295766,5,0,0:0:0:0:
120,168,295984,1,0,0:0:0:0:
192,184,296201,1,0,0:0:0:0:
256,216,296418,1,0,0:0:0:0:
320,248,296636,1,0,0:0:0:0:
392,256,296853,1,0,0:0:0:0:
464,248,297071,1,0,0:0:0:0:
464,248,297505,5,0,0:0:0:0:
392,240,297723,1,0,0:0:0:0:
320,256,297940,1,0,0:0:0:0:
256,288,298158,1,0,0:0:0:0:
192,320,298375,1,0,0:0:0:0:
120,328,298592,1,0,0:0:0:0:
48,320,298810,1,0,0:0:0:0:
48,320,299245,5,0,0:0:0:0:
128,320,299462,1,0,0:0:0:0:
208,320,299679,1,0,0:0:0:0:
280,280,299897,2,0,B|304:248|352:232,1,75.0000028610231,0|0,0:0|0:0,0:0:0:0:
408,208,300331,1,0,0:0:0:0:
488,200,300549,1,0,0:0:0:0:
488,200,300984,5,0,0:0:0:0:
408,200,301201,1,0,0:0:0:0:
328,200,301418,1,0,0:0:0:0:
256,160,301636,2,0,B|232:128|184:112,1,75.0000028610231,0|0,0:0|0:0,0:0:0:0:
128,88,302071,1,0,0:0:0:0:
48,80,302288,1,0,0:0:0:0:
256,192,302723,12,0,305766,0:0:0:0:
256,192,306635,5,0,0:0:0:0:
