osu file format v13

[General]
AudioFilename: Masayoshi Minoshima - Round and Round feat. Mei Ayakura (Original Mix).mp3
AudioLeadIn: 0
PreviewTime: 81533
Countdown: 0
SampleSet: Soft
StackLeniency: 0.7
Mode: 0
LetterboxInBreaks: 1
WidescreenStoryboard: 1

[Editor]
Bookmarks: 12155,26948,53534,81672,109810,121396,147879,177672
DistanceSpacing: 1.5
BeatDivisor: 4
GridSize: 8
TimelineZoom: 1.8

[Metadata]
Title:Round and Round
TitleUnicode:Round and Round
Artist:Masayoshi Minoshima ft. Mei Ayakura
ArtistUnicode:Masayoshi Minoshima ft. Mei Ayakura
Creator:TTommy
Version:Insane
Source:Beatmania IIDX 19 Lincle
Tags:
BeatmapID:537334
BeatmapSetID:231163

[Difficulty]
HPDrainRate:4
CircleSize:4
OverallDifficulty:5
ApproachRate:7
SliderMultiplier:1.99999990463257
SliderTickRate:2

[Events]
//Background and Video events
0,0,"image.png",0,0
//Break Periods
2,109975,120461
//Storyboard Layer 0 (Background)
//Storyboard Layer 1 (Fail)
//Storyboard Layer 2 (Pass)
//Storyboard Layer 3 (Foreground)
//Storyboard Sound Samples
//Background Colour Transformations
3,100,163,162,255

[TimingPoints]
12120,413.793103448276,4,2,0,75,1,0
81672,-100,4,2,0,75,0,1
109810,-100,4,2,0,75,0,0
177672,-100,4,2,0,75,0,1
205810,-100,4,2,0,75,0,0

[HitObjects]
40,192,12120,5,2,0:0:0:0:
181,50,12533,1,4,0:0:0:0:
251,120,12740,1,2,0:0:0:0:
251,120,12844,1,0,0:0:0:0:
251,120,12947,1,4,0:0:0:0:
184,192,13154,1,2,0:0:0:0:
288,192,13361,1,4,0:0:0:0:
358,262,13568,1,2,0:0:0:0:
184,56,13775,6,0,P|128:112|128:136,1,99.9999952316285,4|0,0:0|0:0,0:0:0:0:
256,56,14292,2,0,L|256:0,2,49.9999976158143,0|2|0,0:0|0:0|0:0,0:0:0:0:
328,56,14602,2,6,P|384:112|384:128,1,99.9999952316285,2|0,0:0|0:0,0:0:0:0:
176,152,15120,2,0,P|208:136|224:104,2,49.9999976158143,0|2|0,0:0|0:0|0:0,0:0:0:0:
288,224,15430,2,0,L|360:296,1,99.9999952316285,2|0,0:0|0:0,0:0:0:0:
336,152,15947,2,0,P|304:136|288:104,2,49.9999976158143,0|2|0,0:0|0:0|0:0,0:0:0:0:
224,224,16257,2,0,L|152:296,1,99.9999952316285,4|0,0:0|0:0,0:0:0:0:
336,232,16775,2,0,P|304:248|288:280,2,49.9999976158143,0|2|0,0:0|0:0|0:0,0:0:0:0:
224,160,17085,2,0,L|152:88,1,99.9999952316285,2|0,0:0|0:0,0:0:0:0:
176,232,17602,2,0,P|208:248|224:280,2,49.9999976158143,0|2|0,0:0|0:0|0:0,0:0:0:0:
288,160,17913,2,0,L|360:88,1,99.9999952316285,2|0,0:0|0:0,0:0:0:0:
232,160,18430,2,0,P|256:152|280:160,2,49.9999976158143,0|2|0,0:0|0:0|0:0,0:0:0:0:
256,248,18740,2,0,L|256:368,1,99.9999952316285,2|0,0:0|0:0,0:0:0:0:
142,208,19257,5,2,0:0:0:0:
182,176,19361,1,0,0:0:0:0:
222,144,19464,1,2,0:0:0:0:
272,144,19568,2,0,L|312:176,3,49.9999976158143,0|2|0|2,0:0|0:0|0:0|0:0,0:0:0:0:
361,175,19982,2,0,L|401:143,3,49.9999976158143,0|2|0|2,0:0|0:0|0:0|0:0,0:0:0:0:
336,240,20395,6,0,L|336:352,1,99.9999952316285,4|0,0:0|0:0,0:0:0:0:
185,340,20913,1,0,0:0:0:0:
135,340,21016,1,2,0:0:0:0:
99,304,21120,1,0,0:0:0:0:
99,254,21223,2,0,L|99:154,1,99.9999952316285,2|0,0:0|0:0,0:0:0:0:
205,260,21740,1,0,0:0:0:0:
205,210,21844,1,2,0:0:0:0:
240,174,21947,1,0,0:0:0:0:
275,138,22051,6,0,L|275:240,1,99.9999952316285,4|0,0:0|0:0,0:0:0:0:
381,131,22568,1,0,0:0:0:0:
416,95,22671,1,2,0:0:0:0:
465,95,22775,1,0,0:0:0:0:
500,130,22878,2,0,L|500:232,1,99.9999952316285,0|2,0:0|0:0,0:0:0:0:
301,118,23395,1,0,0:0:0:0:
301,68,23499,1,2,0:0:0:0:
336,32,23602,1,0,0:0:0:0:
385,32,23706,6,0,L|492:32,1,99.9999952316285,4|0,0:0|0:0,0:0:0:0:
214,118,24223,1,0,0:0:0:0:
214,68,24326,1,2,0:0:0:0:
178,32,24430,1,0,0:0:0:0:
128,32,24533,2,0,L|28:32,1,99.9999952316285,2|0,0:0|0:0,0:0:0:0:
221,212,25051,1,0,0:0:0:0:
256,176,25154,1,2,0:0:0:0:
291,211,25257,1,0,0:0:0:0:
255,246,25361,6,0,L|255:350,1,99.9999952316285,2|0,0:0|0:0,0:0:0:0:
88,272,25878,1,0,0:0:0:0:
52,236,25982,1,2,0:0:0:0:
52,186,26086,1,0,0:0:0:0:
120,208,26189,6,0,L|192:168,3,49.9999976158143,4|0|2|0,0:0|0:0|0:0|0:0,0:0:0:0:
213,183,26603,2,0,L|287:183,1,49.9999976158143,4|0,0:0|0:0,0:0:0:0:
313,183,26810,2,0,L|376:208,1,49.9999976158143,4|0,0:0|0:0,0:0:0:0:
256,80,27017,5,4,0:0:0:0:
256,80,27430,1,2,0:0:0:0:
256,80,27844,1,2,0:0:0:0:
43,292,28257,1,0,0:0:0:0:
193,292,28464,1,2,0:0:0:0:
405,79,28878,5,2,0:0:0:0:
299,184,29085,1,0,0:0:0:0:
405,290,29292,1,2,0:0:0:0:
104,290,29706,5,2,0:0:0:0:
104,139,29913,1,0,0:0:0:0:
254,139,30120,1,2,0:0:0:0:
466,351,30533,5,2,0:0:0:0:
357,244,30740,1,0,0:0:0:0:
462,138,30947,1,2,0:0:0:0:
249,350,31361,5,2,0:0:0:0:
249,199,31567,1,0,0:0:0:0:
355,92,31774,1,2,0:0:0:0:
384,320,32188,5,2,0:0:0:0:
296,304,32395,2,0,P|312:256|360:232,1,99.9999952316285,2|0,0:0|0:0,0:0:0:0:
128,64,32809,1,2,0:0:0:0:
216,80,33016,2,0,P|200:128|144:152,1,99.9999952316285,2|0,0:0|0:0,0:0:0:0:
512,0,33637,5,4,0:0:0:0:
512,300,34051,1,2,0:0:0:0:
299,87,34464,1,2,0:0:0:0:
86,299,34878,1,0,0:0:0:0:
86,149,35085,1,2,0:0:0:0:
416,96,35499,5,2,0:0:0:0:
416,246,35706,1,0,0:0:0:0:
416,95,35913,1,2,0:0:0:0:
115,95,36326,5,2,0:0:0:0:
221,201,36533,1,0,0:0:0:0:
114,94,36740,1,2,0:0:0:0:
325,305,37154,5,2,0:0:0:0:
325,154,37361,1,0,0:0:0:0:
325,304,37568,1,2,0:0:0:0:
24,304,37982,5,2,0:0:0:0:
130,197,38188,1,0,0:0:0:0:
280,197,38395,1,2,0:0:0:0:
0,208,38809,6,0,P|48:240|112:232,1,99.9999952316285
194,134,39223,1,2,0:0:0:0:
344,152,39430,2,0,P|384:112|384:72,1,99.9999952316285,4|0,0:0|0:0,0:0:0:0:
344,232,39844,2,0,P|384:272|384:312,1,99.9999952316285,4|4,0:0|0:0,0:0:0:0:
88,48,40257,6,0,B|88:112|88:112|120:112|120:112|120:168|120:168,1,149.999992847443,4|0,0:0|0:0,0:0:0:0:
152,200,40671,2,0,B|208:200|208:200|208:168|208:168|272:168|272:168,1,149.999992847443,2|0,0:0|0:0,0:0:0:0:
304,136,41085,2,0,B|304:72|304:72|336:72|336:72|336:16|336:16,1,149.999992847443,2|0,0:0|0:0,0:0:0:0:
384,136,41499,1,2,0:0:0:0:
455,3,41706,1,2,0:0:0:0:
480,264,42120,5,2,0:0:0:0:
373,370,42326,1,0,0:0:0:0:
222,370,42533,1,2,0:0:0:0:
10,158,42947,5,2,0:0:0:0:
116,51,43154,1,0,0:0:0:0:
266,51,43361,1,2,0:0:0:0:
266,351,43775,5,2,0:0:0:0:
115,351,43982,1,0,0:0:0:0:
8,244,44188,1,2,0:0:0:0:
220,31,44602,5,2,0:0:0:0:
370,31,44809,1,0,0:0:0:0:
475,136,45016,1,2,0:0:0:0:
168,136,45430,6,0,P|176:208|288:224,1,199.999990463257,2|2,0:0|0:0,0:0:0:0:
240,160,46051,2,0,P|304:144|336:168,2,99.9999952316285,2|0|6,0:0|0:0|0:0,0:0:0:0:
272,32,46878,6,0,P|200:56|192:136,1,149.999992847443,4|0,0:0|0:0,0:0:0:0:
264,112,47292,2,0,P|304:176|392:160,1,149.999992847443,2|0,0:0|0:0,0:0:0:0:
344,104,47706,2,0,L|264:240,1,149.999992847443,2|0,0:0|0:0,0:0:0:0:
368,256,48120,2,0,P|424:240|448:192,1,99.9999952316285,2|2,0:0|0:0,0:0:0:0:
156,233,48740,6,0,P|104:253|80:309,2,99.9999952316285,2|0|2,0:0|0:0|0:0,0:0:0:0:
368,20,49568,2,0,P|400:56|472:44,1,99.9999952316285,2|0,0:0|0:0,0:0:0:0:
349,157,49982,1,2,0:0:0:0:
136,369,50395,2,0,P|96:312|64:312,1,99.9999952316285,2|0,0:0|0:0,0:0:0:0:
177,203,50809,1,2,0:0:0:0:
472,136,51223,2,0,L|472:248,2,99.9999952316285,2|0|2,0:0|0:0|0:0,0:0:0:0:
205,278,52051,5,2,0:0:0:0:
155,191,52257,1,2,0:0:0:0:
206,105,52464,1,2,0:0:0:0:
306,105,52671,1,2,0:0:0:0:
356,192,52878,1,2,0:0:0:0:
305,278,53085,1,2,0:0:0:0:
256,192,53292,5,4,0:0:0:0:
256,61,53499,6,0,P|304:72|360:112,2,99.9999952316285,2|0|2,0:0|0:0|0:0,0:0:0:0:
256,192,54120,1,2,0:0:0:0:
256,192,54326,1,2,0:0:0:0:
386,192,54740,6,0,P|376:240|336:296,2,99.9999952316285,2|0|2,0:0|0:0|0:0,0:0:0:0:
256,192,55361,1,2,0:0:0:0:
256,192,55568,1,2,0:0:0:0:
256,322,55982,6,0,P|208:312|152:272,2,99.9999952316285,2|0|2,0:0|0:0|0:0,0:0:0:0:
256,192,56602,1,2,0:0:0:0:
256,192,56809,1,2,0:0:0:0:
126,192,57223,6,0,P|136:144|176:88,2,99.9999952316285,2|0|2,0:0|0:0|0:0,0:0:0:0:
256,192,57844,1,2,0:0:0:0:
256,192,58051,1,2,0:0:0:0:
320,80,58464,6,0,B|320:144|320:144|360:216|288:272,1,199.999990463257,2|0,0:0|0:0,0:0:0:0:
256,352,59085,1,2,0:0:0:0:
216,264,59292,2,0,B|152:208|192:136|192:136|192:40,1,199.999990463257,2|0,0:0|0:0,0:0:0:0:
256,0,59913,1,2,0:0:0:0:
40,40,60120,5,2,0:0:0:0:
170,40,60326,2,0,P|146:104|106:120,2,99.9999952316285,2|0|0,0:0|0:0|0:0,0:0:0:0:
224,160,60947,1,2,0:0:0:0:
457,44,61361,1,2,0:0:0:0:
365,135,61568,2,0,P|416:128|464:176,1,99.9999952316285,2|0,0:0|0:0,0:0:0:0:
376,264,61982,1,2,0:0:0:0:
376,264,62188,1,2,0:0:0:0:
128,343,62602,5,2,0:0:0:0:
36,251,62809,1,2,0:0:0:0:
165,251,63016,1,2,0:0:0:0:
73,159,63223,2,0,B|112:192|112:192|152:160,1,99.9999952316285,0|2,0:0|0:0,0:0:0:0:
381,40,63844,1,2,0:0:0:0:
472,131,64051,1,2,0:0:0:0:
341,131,64257,2,0,P|320:88|272:72,2,99.9999952316285,2|0|2,0:0|0:0|0:0,0:0:0:0:
88,192,65085,5,2,0:0:0:0:
179,283,65292,1,0,0:0:0:0:
179,152,65499,1,0,0:0:0:0:
270,243,65706,1,2,0:0:0:0:
270,112,65913,5,2,0:0:0:0:
361,20,66120,1,0,0:0:0:0:
452,111,66326,1,2,0:0:0:0:
360,202,66533,1,0,0:0:0:0:
256,0,66740,5,2,0:0:0:0:
150,105,66947,1,2,0:0:0:0:
300,105,67154,1,2,0:0:0:0:
193,211,67361,1,2,0:0:0:0:
343,211,67568,1,2,0:0:0:0:
256,384,67982,5,2,0:0:0:0:
362,277,68188,1,2,0:0:0:0:
211,277,68395,1,2,0:0:0:0:
317,170,68602,1,2,0:0:0:0:
166,170,68809,1,2,0:0:0:0:
32,192,69223,5,2,0:0:0:0:
83,39,69430,1,2,0:0:0:0:
132,192,69637,1,2,0:0:0:0:
2,97,69844,1,2,0:0:0:0:
163,97,70051,1,2,0:0:0:0:
511,97,70464,5,2,0:0:0:0:
480,192,70671,1,2,0:0:0:0:
350,97,70878,1,2,0:0:0:0:
380,192,71085,1,2,0:0:0:0:
431,39,71292,1,2,0:0:0:0:
256,264,71706,5,2,0:0:0:0:
149,370,71913,1,2,0:0:0:0:
149,219,72120,1,2,0:0:0:0:
255,325,72326,1,2,0:0:0:0:
361,218,72533,1,2,0:0:0:0:
361,368,72740,1,2,0:0:0:0:
256,264,72947,1,2,0:0:0:0:
256,264,73154,1,2,0:0:0:0:
149,157,73361,5,2,0:0:0:0:
255,50,73568,1,2,0:0:0:0:
361,156,73775,1,2,0:0:0:0:
256,264,73982,1,2,0:0:0:0:
256,160,74188,1,2,0:0:0:0:
48,328,74602,6,2,L|48:216,4,99.9999952316285,2|2|2|2|2,0:0|0:0|0:0|0:0|0:0,0:0:0:0:
464,328,75844,6,2,L|464:208,4,99.9999952316285,2|2|2|2|2,0:0|0:0|0:0|0:0|0:0,0:0:0:0:
160,232,77085,6,0,P|208:240|216:288,1,99.9999952316285,2|2,0:0|0:0,0:0:0:0:
352,232,77499,2,0,P|304:240|296:288,1,99.9999952316285,2|2,0:0|0:0,0:0:0:0:
256,184,77913,1,2,0:0:0:0:
207,317,78326,5,2,0:0:0:0:
136,246,78533,1,2,0:0:0:0:
136,145,78740,1,2,0:0:0:0:
206,74,78947,1,2,0:0:0:0:
306,74,79154,1,2,0:0:0:0:
376,144,79361,1,2,0:0:0:0:
376,244,79568,1,2,0:0:0:0:
305,314,79775,1,2,0:0:0:0:
218,291,79982,5,0,0:0:0:0:
161,234,80188,1,0,0:0:0:0:
161,153,80395,1,0,0:0:0:0:
217,96,80602,1,0,0:0:0:0:
297,96,80809,1,0,0:0:0:0:
353,152,81016,1,0,0:0:0:0:
353,232,81223,1,2,0:0:0:0:
296,288,81430,1,4,0:0:0:0:
376,72,81637,5,4,0:0:0:0:
482,178,81844,2,0,L|482:231,1,49.9999976158143,2|2,0:0|0:0,0:0:0:0:
375,334,82154,2,0,L|328:376,1,49.9999976158143,2|2,0:0|0:0,0:0:0:0:
213,281,82464,1,4,0:0:0:0:
106,174,82671,2,0,L|166:148,1,49.9999976158143,2|2,0:0|0:0,0:0:0:0:
83,287,82982,2,2,L|133:312,1,49.9999976158143,2|2,0:0|0:0,0:0:0:0:
265,249,83292,5,4,0:0:0:0:
334,115,83499,2,0,L|387:144,1,49.9999976158143,2|2,0:0|0:0,0:0:0:0:
243,69,83809,2,2,L|187:95,1,49.9999976158143
152,233,84120,5,4,0:0:0:0:
258,126,84326,1,2,0:0:0:0:
258,276,84533,1,2,0:0:0:0:
364,169,84740,1,2,0:0:0:0:
433,36,84947,5,4,0:0:0:0:
302,110,85154,2,0,L|251:140,1,49.9999976158143,2|2,0:0|0:0,0:0:0:0:
388,212,85464,2,0,L|442:260,1,49.9999976158143,2|2,0:0|0:0,0:0:0:0:
319,351,85775,5,4,0:0:0:0:
174,310,85982,2,0,L|214:278,1,49.9999976158143,2|2,0:0|0:0,0:0:0:0:
139,147,86292,2,0,L|181:191,1,49.9999976158143,2|2,0:0|0:0,0:0:0:0:
227,42,86602,1,4,0:0:0:0:
374,12,86809,2,0,L|430:12,1,49.9999976158143,2|2,0:0|0:0,0:0:0:0:
476,64,87016,2,0,B|503:109|503:109|447:125|447:125|439:165,1,149.999992847443,2|0,0:0|0:0,0:0:0:0:
439,163,87430,5,4,0:0:0:0:
361,291,87637,1,2,0:0:0:0:
281,163,87844,1,2,0:0:0:0:
174,269,88051,1,2,0:0:0:0:
23,219,88257,6,0,P|-7:159|9:111,1,99.9999952316285,4|2,0:0|0:0,0:0:0:0:
72,160,88568,2,0,P|88:120|144:88,1,99.9999952316285,2|2,0:0|0:0,0:0:0:0:
152,168,88878,1,2,0:0:0:0:
257,62,89085,2,0,P|304:88|344:64,1,99.9999952316285,4|2,0:0|0:0,0:0:0:0:
394,14,89395,2,0,P|418:72|394:120,1,99.9999952316285,2|2,0:0|0:0,0:0:0:0:
348,152,89706,1,2,0:0:0:0:
419,283,89913,6,0,L|316:283,1,99.9999952316285,4|2,0:0|0:0,0:0:0:0:
283,247,90223,1,2,0:0:0:0:
156,327,90430,2,0,L|101:328,1,49.9999976158143,2|2,0:0|0:0,0:0:0:0:
27,198,90740,1,4,0:0:0:0:
167,248,90947,1,2,0:0:0:0:
231,112,91154,1,2,0:0:0:0:
307,241,91361,1,2,0:0:0:0:
376,107,91568,2,0,P|452:14|408:139,1,349.9999833107,4|0,0:0|0:0,0:0:0:0:
429,144,92395,1,4,0:0:0:0:
116,129,92809,5,2,0:0:0:0:
327,340,93223,1,4,0:0:0:0:
327,39,93637,1,2,0:0:0:0:
114,251,94051,1,4,0:0:0:0:
414,251,94464,1,2,0:0:0:0:
312,144,94671,2,0,L|344:120,3,24.9999988079071,0|0|0|0,0:0|0:0|0:0|0:0,0:0:0:0:
312,144,94878,5,4,0:0:0:0:
283,290,95085,1,2,0:0:0:0:
234,275,95188,2,0,P|192:249|184:177,1,99.9999952316285,2|2,0:0|0:0,0:0:0:0:
177,152,95499,1,2,0:0:0:0:
283,45,95706,1,4,0:0:0:0:
425,90,95913,2,0,L|385:138,1,49.9999976158143,2|2,0:0|0:0,0:0:0:0:
344,270,96223,2,2,L|392:295,1,49.9999976158143
436,150,96533,6,0,P|388:126|364:86,1,99.9999952316285,4|2,0:0|0:0,0:0:0:0:
352,38,96844,2,0,P|284:11|268:43,1,99.9999952316285,2|2,0:0|0:0,0:0:0:0:
233,47,97154,1,2,0:0:0:0:
126,153,97361,1,4,0:0:0:0:
126,303,97568,1,2,0:0:0:0:
232,196,97775,1,2,0:0:0:0:
232,45,97982,1,2,0:0:0:0:
386,127,98188,5,4,0:0:0:0:
307,211,98395,2,0,L|358:237,1,49.9999976158143,2|2,0:0|0:0,0:0:0:0:
488,295,98706,2,2,L|435:332,1,49.9999976158143
300,357,99016,1,4,0:0:0:0:
193,250,99223,2,0,L|229:204,1,49.9999976158143,2|2,0:0|0:0,0:0:0:0:
84,153,99533,2,0,L|52:202,1,49.9999976158143,2|2,0:0|0:0,0:0:0:0:
162,88,99844,6,0,B|202:128|202:128|234:96,1,99.9999952316285,4|2,0:0|0:0,0:0:0:0:
268,61,100154,2,0,B|306:24|306:24|426:24,1,149.999992847443,2|2,0:0|0:0,0:0:0:0:
320,152,100671,2,0,P|360:152|360:232,1,99.9999952316285,4|2,0:0|0:0,0:0:0:0:
277,307,101085,2,0,P|237:307|237:227,1,99.9999952316285,2|2,0:0|0:0,0:0:0:0:
143,124,101499,5,4,0:0:0:0:
16,42,101706,1,2,0:0:0:0:
16,92,101809,2,0,P|24:160|48:200,1,99.9999952316285,2|2,0:0|0:0,0:0:0:0:
66,228,102120,1,2,0:0:0:0:
172,334,102326,1,4,0:0:0:0:
237,199,102533,2,0,L|280:232,1,49.9999976158143,2|2,0:0|0:0,0:0:0:0:
347,97,102844,2,0,L|288:128,1,49.9999976158143,2|2,0:0|0:0,0:0:0:0:
408,14,103154,6,0,P|448:48|448:120,1,99.9999952316285,4|2,0:0|0:0,0:0:0:0:
456,143,103464,2,0,B|456:192|488:192|488:272,1,99.9999952316285,2|2,0:0|0:0,0:0:0:0:
485,287,103775,1,2,0:0:0:0:
337,257,103982,1,4,0:0:0:0:
230,363,104188,2,0,B|230:323|190:323|190:259,1,99.9999952316285,2|2,0:0|0:0,0:0:0:0:
297,166,104602,1,2,0:0:0:0:
156,114,104809,2,0,P|44:42|108:162,1,349.9999833107,4|0,0:0|0:0,0:0:0:0:
92,164,105637,1,4,0:0:0:0:
373,61,106051,5,2,0:0:0:0:
160,273,106464,1,4,0:0:0:0:
460,273,106878,1,2,0:0:0:0:
248,61,107292,1,2,0:0:0:0:
248,361,107706,1,2,0:0:0:0:
256,192,108120,12,2,109775,0:0:0:0:
216,192,121361,6,0,P|208:248|288:296,1,149.999992847443,4|0,0:0|0:0,0:0:0:0:
280,224,121775,2,0,P|344:192|344:120,1,149.999992847443,2|0,0:0|0:0,0:0:0:0:
280,152,122188,2,0,P|224:112|144:176,1,149.999992847443,2|0,0:0|0:0,0:0:0:0:
129,213,122602,1,2,0:0:0:0:
129,213,122809,1,2,0:0:0:0:
376,144,123223,6,0,P|392:192|440:208,2,99.9999952316285,2|0|2,0:0|0:0|0:0,0:0:0:0:
136,144,124051,2,0,P|120:192|72:208,2,99.9999952316285,2|0|2,0:0|0:0|0:0,0:0:0:0:
448,240,124878,2,0,P|416:304|368:312,1,99.9999952316285,2|0,0:0|0:0,0:0:0:0:
307,189,125292,1,2,0:0:0:0:
120,64,125706,5,2,0:0:0:0:
47,195,125913,1,0,0:0:0:0:
197,195,126120,1,2,0:0:0:0:
437,219,126533,6,0,B|416:264|416:264|368:280,2,99.9999952316285,2|0|2,0:0|0:0|0:0,0:0:0:0:
330,112,127154,1,2,0:0:0:0:
436,5,127361,2,0,L|436:124,1,99.9999952316285,0|2,0:0|0:0,0:0:0:0:
144,40,127982,6,0,P|112:128|160:176,1,149.999992847443,4|0,0:0|0:0,0:0:0:0:
216,168,128395,2,0,P|256:120|216:40,1,149.999992847443,2|0,0:0|0:0,0:0:0:0:
182,104,128809,2,0,P|112:156|88:212,1,149.999992847443,2|0,0:0|0:0,0:0:0:0:
66,287,129223,1,2,0:0:0:0:
211,324,129430,1,2,0:0:0:0:
397,333,129844,5,2,0:0:0:0:
397,182,130051,1,0,0:0:0:0:
290,288,130257,1,2,0:0:0:0:
397,50,130671,5,2,0:0:0:0:
246,50,130878,1,0,0:0:0:0:
352,156,131085,1,2,0:0:0:0:
114,50,131499,5,2,0:0:0:0:
114,200,131706,1,0,0:0:0:0:
220,93,131913,1,2,0:0:0:0:
114,333,132326,5,2,0:0:0:0:
264,333,132533,1,0,0:0:0:0:
158,227,132740,1,2,0:0:0:0:
264,120,133154,6,0,B|300:218|300:218|376:64|480:160,1,299.999985694885,2|2,0:0|0:0,0:0:0:0:
325,72,133982,1,2,0:0:0:0:
400,200,134188,1,2,0:0:0:0:
280,296,134395,1,2,0:0:0:0:
118,205,134602,6,0,P|128:129|102:61,1,149.999992847443,4|0,0:0|0:0,0:0:0:0:
165,21,135016,2,0,P|237:69|301:69,1,149.999992847443,2|0,0:0|0:0,0:0:0:0:
298,145,135430,2,0,P|234:169|186:257,1,149.999992847443,2|0,0:0|0:0,0:0:0:0:
192,120,135844,1,2,0:0:0:0:
248,0,136051,1,2,0:0:0:0:
406,340,136464,5,2,0:0:0:0:
255,340,136671,1,0,0:0:0:0:
104,340,136878,1,2,0:0:0:0:
104,40,137292,5,2,0:0:0:0:
254,40,137499,1,0,0:0:0:0:
404,40,137706,1,2,0:0:0:0:
191,252,138120,5,2,0:0:0:0:
40,252,138326,1,0,0:0:0:0:
40,101,138533,1,2,0:0:0:0:
339,101,138947,5,2,0:0:0:0:
489,101,139154,1,0,0:0:0:0:
489,251,139361,1,2,0:0:0:0:
216,192,139775,6,0,P|160:184|136:144,1,99.9999952316285,2|0,0:0|0:0,0:0:0:0:
208,112,140188,1,2,0:0:0:0:
304,272,140395,1,2,0:0:0:0:
296,192,140602,2,0,P|352:200|384:264,1,99.9999952316285,2|2,0:0|0:0,0:0:0:0:
256,40,141223,5,4,0:0:0:0:
106,300,141637,1,2,0:0:0:0:
406,300,142051,1,2,0:0:0:0:
256,232,142464,2,0,L|256:120,1,99.9999952316285,2|2,0:0|0:0,0:0:0:0:
176,184,143085,6,0,P|128:136|128:104,1,99.9999952316285,2|0,0:0|0:0,0:0:0:0:
256,24,143499,1,2,0:0:0:0:
336,184,143913,2,0,P|384:136|384:104,1,99.9999952316285,2|0,0:0|0:0,0:0:0:0:
256,24,144326,1,2,0:0:0:0:
256,324,144740,1,2,0:0:0:0:
208,176,144947,2,0,P|264:160|304:176,1,99.9999952316285,0|2,0:0|0:0,0:0:0:0:
368,224,145568,6,0,P|408:192|408:144,1,99.9999952316285,2|0,0:0|0:0,0:0:0:0:
408,297,145982,1,2,0:0:0:0:
144,224,146395,2,0,P|104:192|104:144,1,99.9999952316285,2|0,0:0|0:0,0:0:0:0:
103,297,146809,1,2,0:0:0:0:
256,248,147016,5,2,0:0:0:0:
176,120,147223,1,2,0:0:0:0:
336,120,147430,1,2,0:0:0:0:
256,168,147637,1,2,0:0:0:0:
216,48,147844,6,0,P|136:48|112:72,1,99.9999952316285,2|0,0:0|0:0,0:0:0:0:
8,160,148257,1,2,0:0:0:0:
144,224,148464,2,0,P|184:264|184:336,1,99.9999952316285,0|2,0:0|0:0,0:0:0:0:
296,48,149085,2,0,P|376:48|400:72,1,99.9999952316285,2|0,0:0|0:0,0:0:0:0:
504,160,149499,1,2,0:0:0:0:
368,224,149706,2,0,P|328:264|328:336,1,99.9999952316285,0|2,0:0|0:0,0:0:0:0:
118,290,150326,5,2,0:0:0:0:
118,139,150533,1,0,0:0:0:0:
224,32,150740,1,2,0:0:0:0:
256,192,150947,1,0,0:0:0:0:
256,192,151154,1,2,0:0:0:0:
395,96,151568,5,2,0:0:0:0:
395,246,151775,1,0,0:0:0:0:
288,352,151982,1,2,0:0:0:0:
256,192,152188,1,0,0:0:0:0:
256,192,152395,1,2,0:0:0:0:
80,128,152809,6,0,P|40:128|0:168,1,99.9999952316285,2|0,0:0|0:0,0:0:0:0:
128,80,153223,2,0,P|128:40|88:0,1,99.9999952316285,2|0,0:0|0:0,0:0:0:0:
128,176,153637,2,0,P|128:216|168:256,1,99.9999952316285,2|0,0:0|0:0,0:0:0:0:
176,128,154051,2,0,P|216:128|256:88,1,99.9999952316285,2|0,0:0|0:0,0:0:0:0:
512,40,154464,5,2,0:0:0:0:
512,190,154671,1,0,0:0:0:0:
406,295,154878,1,2,0:0:0:0:
255,295,155085,1,0,0:0:0:0:
148,188,155292,1,2,0:0:0:0:
0,296,155706,5,2,0:0:0:0:
0,145,155913,1,0,0:0:0:0:
106,38,156120,1,2,0:0:0:0:
256,38,156326,1,0,0:0:0:0:
362,144,156533,1,2,0:0:0:0:
200,352,156947,6,0,P|200:312|160:272,1,99.9999952316285,2|0,0:0|0:0,0:0:0:0:
52,165,157361,2,0,P|12:125|12:77,1,99.9999952316285,2|0,0:0|0:0,0:0:0:0:
104,88,157775,1,2,0:0:0:0:
312,352,158188,6,0,P|312:312|352:272,1,99.9999952316285,2|0,0:0|0:0,0:0:0:0:
459,165,158602,2,0,P|498:125|498:77,1,99.9999952316285,2|0,0:0|0:0,0:0:0:0:
408,88,159016,1,2,0:0:0:0:
152,192,159430,5,2,0:0:0:0:
256,88,159637,1,0,0:0:0:0:
360,192,159844,1,2,0:0:0:0:
256,296,160051,1,0,0:0:0:0:
340,107,160257,2,0,P|340:59|300:19,1,99.9999952316285,2|0,0:0|0:0,0:0:0:0:
170,275,160671,2,0,P|170:323|210:363,1,99.9999952316285,2|0,0:0|0:0,0:0:0:0:
149,85,161085,5,2,0:0:0:0:
255,191,161292,1,0,0:0:0:0:
149,85,161499,1,2,0:0:0:0:
149,235,161706,2,0,P|104:192|104:152,1,99.9999952316285,0|2,0:0|0:0,0:0:0:0:
360,296,162326,5,2,0:0:0:0:
254,192,162533,1,0,0:0:0:0:
359,297,162740,1,2,0:0:0:0:
359,146,162947,2,0,P|408:192|408:232,1,99.9999952316285,0|2,0:0|0:0,0:0:0:0:
72,80,163568,6,0,B|128:136|224:40|264:80,1,199.999990463257,2|2,0:0|0:0,0:0:0:0:
194,212,164188,1,0,0:0:0:0:
336,160,164395,1,2,0:0:0:0:
123,372,164809,6,0,P|104:328|128:264,1,99.9999952316285
222,172,165223,1,2,0:0:0:0:
279,310,165430,1,0,0:0:0:0:
222,171,165637,1,2,0:0:0:0:
344,264,166051,6,0,B|312:264|312:264|256:320|200:264|200:264|160:264,1,199.999990463257,2|2,0:0|0:0,0:0:0:0:
256,192,166671,1,2,0:0:0:0:
160,120,166878,2,0,B|200:120|200:120|256:64|312:120|312:120|344:120,1,199.999990463257,2|2,0:0|0:0,0:0:0:0:
256,192,167499,1,2,0:0:0:0:
64,192,167706,6,0,P|64:152|104:112,2,99.9999952316285,2|0|2,0:0|0:0|0:0,0:0:0:0:
64,342,168326,1,2,0:0:0:0:
170,235,168533,1,2,0:0:0:0:
256,0,168947,6,0,P|296:0|336:40,2,99.9999952316285,2|0|2,0:0|0:0|0:0,0:0:0:0:
105,0,169568,1,2,0:0:0:0:
211,106,169775,1,2,0:0:0:0:
448,192,170188,6,0,P|448:232|408:272,2,99.9999952316285,2|0|2,0:0|0:0|0:0,0:0:0:0:
448,41,170809,1,2,0:0:0:0:
341,147,171016,1,2,0:0:0:0:
256,384,171430,6,0,P|216:384|176:344,2,99.9999952316285,2|0|2,0:0|0:0|0:0,0:0:0:0:
406,384,172051,1,2,0:0:0:0:
299,277,172257,1,0,0:0:0:0:
16,232,172671,5,2,0:0:0:0:
157,90,172878,1,0,0:0:0:0:
157,289,173085,1,2,0:0:0:0:
15,147,173292,1,0,0:0:0:0:
215,147,173499,1,2,0:0:0:0:
73,288,173706,1,0,0:0:0:0:
73,87,173913,1,2,0:0:0:0:
214,228,174120,1,0,0:0:0:0:
437,90,174326,5,4,0:0:0:0:
437,290,174533,1,2,0:0:0:0:
295,148,174740,1,2,0:0:0:0:
494,148,174947,1,2,0:0:0:0:
352,289,175154,1,2,0:0:0:0:
352,88,175361,1,2,0:0:0:0:
493,229,175568,1,2,0:0:0:0:
292,229,175775,1,2,0:0:0:0:
256,192,176602,5,0,0:0:0:0:
256,192,176809,1,0,0:0:0:0:
256,192,177016,1,0,0:0:0:0:
256,192,177223,1,0,0:0:0:0:
256,192,177430,1,2,0:0:0:0:
198,53,177637,5,4,0:0:0:0:
69,130,177844,2,0,L|112:168,1,49.9999976158143,2|2,0:0|0:0,0:0:0:0:
249,116,178154,2,2,L|176:144,1,49.9999976158143,2|2,0:0|0:0,0:0:0:0:
236,280,178464,5,4,0:0:0:0:
367,207,178671,2,0,L|424:240,1,49.9999976158143,2|2,0:0|0:0,0:0:0:0:
410,81,178982,2,0,L|352:120,1,49.9999976158143,2|2,0:0|0:0,0:0:0:0:
235,39,179292,5,4,0:0:0:0:
166,172,179499,2,0,L|216:216,1,49.9999976158143,2|2,0:0|0:0,0:0:0:0:
96,311,179809,2,2,L|48:336,1,49.9999976158143,2|2,0:0|0:0,0:0:0:0:
198,301,180120,5,2,0:0:0:0:
342,342,180326,1,2,0:0:0:0:
379,196,180533,1,2,0:0:0:0:
234,153,180740,1,2,0:0:0:0:
155,24,180947,5,4,0:0:0:0:
70,148,181154,2,0,L|16:168,1,49.9999976158143,2|2,0:0|0:0,0:0:0:0:
129,271,181464,2,0,L|88:312,1,49.9999976158143,2|2,0:0|0:0,0:0:0:0:
238,347,181775,1,4,0:0:0:0:
382,306,181982,1,2,0:0:0:0:
401,260,182085,2,0,B|456:224|376:208|456:160,1,99.9999952316285,2|2,0:0|0:0,0:0:0:0:
470,139,182395,1,2,0:0:0:0:
363,32,182602,5,4,0:0:0:0:
256,138,182809,1,2,0:0:0:0:
235,183,182913,2,0,P|176:232|112:184,1,149.999992847443,2|0,0:0|0:0,0:0:0:0:
119,201,183430,1,4,0:0:0:0:
12,94,183637,1,2,0:0:0:0:
12,244,183844,1,2,0:0:0:0:
118,137,184051,1,2,0:0:0:0:
253,74,184257,5,4,0:0:0:0:
218,219,184464,2,0,L|168:256,1,49.9999976158143,2|2,0:0|0:0,0:0:0:0:
303,166,184775,2,0,L|347:191,1,49.9999976158143,2|2,0:0|0:0,0:0:0:0:
422,50,185085,2,0,P|464:104|464:168,1,99.9999952316285,4|2,0:0|0:0,0:0:0:0:
469,183,185395,1,2,0:0:0:0:
406,319,185602,2,0,L|360:352,1,49.9999976158143,2|2,0:0|0:0,0:0:0:0:
297,213,185913,6,0,P|296:296|272:336,1,99.9999952316285,4|2,0:0|0:0,0:0:0:0:
267,355,186223,1,2,0:0:0:0:
160,248,186430,2,0,L|240:272,1,49.9999976158143,2|2,0:0|0:0,0:0:0:0:
155,121,186740,6,0,P|104:200|120:240,1,99.9999952316285,4|2,0:0|0:0,0:0:0:0:
210,305,187154,2,0,P|256:264|264:208,1,99.9999952316285,2|2,0:0|0:0,0:0:0:0:
265,77,187568,2,0,P|432:80|416:232,1,349.9999833107,4|0,0:0|0:0,0:0:0:0:
423,225,188395,1,4,0:0:0:0:
211,13,188809,5,2,0:0:0:0:
79,282,189223,1,2,0:0:0:0:
291,69,189637,1,2,0:0:0:0:
168,343,190051,1,2,0:0:0:0:
379,131,190464,1,2,0:0:0:0:
242,192,190671,2,0,L|266:168,3,24.9999988079071,2|0|0|0,0:0|0:0|0:0|0:0,0:0:0:0:
242,192,190878,5,4,0:0:0:0:
135,85,191085,2,0,L|104:40,1,49.9999976158143,2|2,0:0|0:0,0:0:0:0:
256,43,191395,2,0,L|256:104,1,49.9999976158143,2|2,0:0|0:0,0:0:0:0:
399,140,191706,1,4,0:0:0:0:
480,266,191913,1,2,0:0:0:0:
431,276,192016,2,0,B|392:287|384:336|344:336,1,99.9999952316285,2|2,0:0|0:0,0:0:0:0:
302,335,192326,1,2,0:0:0:0:
233,201,192533,6,0,P|272:128|264:104,1,99.9999952316285,4|2,0:0|0:0,0:0:0:0:
250,69,192844,2,0,P|192:48|136:64,1,99.9999952316285,2|2,0:0|0:0,0:0:0:0:
114,82,193154,1,2,0:0:0:0:
58,221,193361,6,0,P|80:272|160:312,1,99.9999952316285,2|2,0:0|0:0,0:0:0:0:
258,340,193775,1,2,0:0:0:0:
404,306,193982,1,2,0:0:0:0:
404,156,194188,5,4,0:0:0:0:
262,206,194395,2,0,L|216:240,1,49.9999976158143,2|2,0:0|0:0,0:0:0:0:
89,163,194706,2,0,L|128:128,1,49.9999976158143,2|2,0:0|0:0,0:0:0:0:
232,23,195016,2,0,B|280:8|288:48|344:48,1,99.9999952316285,4|2,0:0|0:0,0:0:0:0:
375,55,195326,1,2,0:0:0:0:
481,161,195533,2,0,L|512:224,1,49.9999976158143,2|2,0:0|0:0,0:0:0:0:
361,258,195844,5,4,0:0:0:0:
223,317,196051,2,0,B|192:312|192:312|208:280|152:224,1,99.9999952316285,2|0,0:0|0:0,0:0:0:0:
139,213,196361,1,2,0:0:0:0:
226,6,196671,5,4,0:0:0:0:
332,112,196878,1,2,0:0:0:0:
438,218,197085,1,2,0:0:0:0:
331,111,197292,1,2,0:0:0:0:
437,6,197499,5,4,0:0:0:0:
332,112,197706,2,0,L|270:162,1,49.9999976158143,2|2,0:0|0:0,0:0:0:0:
186,249,198016,2,0,L|134:290,1,49.9999976158143,2|2,0:0|0:0,0:0:0:0:
278,352,198326,2,0,P|302:306|294:250,1,99.9999952316285,4|2,0:0|0:0,0:0:0:0:
278,212,198637,1,2,0:0:0:0:
217,74,198844,2,0,L|172:115,1,49.9999976158143,2|2,0:0|0:0,0:0:0:0:
35,65,199154,5,4,0:0:0:0:
92,203,199361,1,2,0:0:0:0:
110,249,199464,2,0,B|134:282|158:282|179:332,1,99.9999952316285,2|2,0:0|0:0,0:0:0:0:
195,370,199775,1,2,0:0:0:0:
301,263,199982,1,4,0:0:0:0:
424,346,200188,2,0,P|446:266|438:234,1,99.9999952316285,2|2,0:0|0:0,0:0:0:0:
409,104,200602,1,2,0:0:0:0:
258,104,200809,2,0,B|290:224|90:312|98:56|210:32|210:160,1,349.9999833107,4|0,0:0|0:0,0:0:0:0:
209,149,201637,1,4,0:0:0:0:
509,149,202051,5,2,0:0:0:0:
297,360,202464,1,2,0:0:0:0:
297,59,202878,1,2,0:0:0:0:
509,271,203292,1,2,0:0:0:0:
208,271,203706,1,2,0:0:0:0:
256,192,204120,12,2,205775,0:0:0:0:
