osu file format v9

[General]
AudioFilename: nomico - dreaming.mp3
AudioLeadIn: 1000
PreviewTime: 86560
Countdown: 0
SampleSet: Soft
StackLeniency: 0.4
Mode: 0
LetterboxInBreaks: 0

[Editor]
Bookmarks: 59115,87560,116004,144448,158671,172893
DistanceSpacing: 1.4
BeatDivisor: 4
GridSize: 8

[Metadata]
Title:Dreaming
Artist:Masayoshi Minoshima feat. nomico
Creator:Natteke
Version:Normal
Source:Touhou
Tags:Alstroemeria Records hakurei reimu

[Difficulty]
HPDrainRate:2
CircleSize:3
OverallDifficulty:2
ApproachRate:4
SliderMultiplier:1.2
SliderTickRate:1

[Events]
//Background and Video events
0,0,"bg.jpg"
//Break Periods
//Storyboard Layer 0 (Background)
//Storyboard Layer 1 (Fail)
//Storyboard Layer 2 (Pass)
//Storyboard Layer 3 (Foreground)
//Storyboard Sound Samples
//Background Colour Transformations
3,100,163,162,255

[TimingPoints]
449,444.444444444444,4,2,1,40,1,0
2005,-200,4,2,1,40,0,0
30671,-100,4,2,1,50,0,0
58226,-100,4,1,1,55,0,0
63670,-100,4,2,1,55,0,0
63893,-100,4,1,1,55,0,0
72560,-100,4,2,1,55,0,0
72893,-100,4,1,1,55,0,0
116004,-100,4,1,2,55,0,0
144448,-100,4,1,1,55,0,1
144560,-100,4,1,2,55,0,0

[Colours]
Combo1 : 17,254,176
Combo2 : 173,255,95
Combo3 : 255,88,100
Combo4 : 255,94,55

[HitObjects]
152,72,1337,1,0
152,72,1782,1,0
152,72,2226,2,0,B|120:152|152:256,1,180
256,304,4004,1,0
362,248,4448,2,0,B|392:152|360:72,1,180
464,48,6226,6,0,B|525:123|515:270|455:335,1,300
336,288,8893,1,0
256,208,9337,6,0,B|189:187|117:220|102:285,1,180
208,312,11115,1,0
312,312,11560,1,0
256,208,12004,1,0
256,208,12448,1,0
312,104,12893,6,0,B|369:66|448:78|480:136,1,180
464,248,14671,2,0,B|406:285|327:273|295:215,1,180
256,112,16448,5,0
136,104,16893,1,0
120,216,17337,2,0,B|111:261|130:298|186:309,1,120
256,128,19115,6,0,B|262:68,1,60
384,48,20004,2,0,B|448:64|480:128|456:200,1,180
416,304,21782,1,0
296,304,22226,1,0
176,304,22671,2,0,B|104:304,1,60
72,192,23560,6,0,B|88:136|72:96,2,90
192,216,25337,2,0,B|180:152|192:88,1,120
304,128,26671,1,0
304,128,27115,6,0,B|314:183|302:247,1,120
408,312,28448,1,0
408,312,28893,2,0,B|396:248|406:192,1,120
56,256,30671,6,0,B|141:249|248:256,1,180,4|2
400,256,31782,1,2
432,88,32226,1,2
264,88,32671,1,2
96,88,33115,2,0,B|80:216,1,120,2|2
248,208,34004,1,2
376,96,34448,5,2
472,232,34893,1,2
360,352,35337,1,2
192,328,35782,1,2
128,168,36226,5,2
240,48,36671,1,2
408,64,37115,1,2
304,200,37560,1,2
136,200,38004,6,0,B|83:195|42:225|32:256,1,120,2|2
176,336,38893,1,2
336,336,39337,1,2
432,200,39782,6,0,B|440:128|432:72,2,120,2|2|2
256,144,41337,6,0,B|256:216,1,60,0|2
432,200,42003,1,2
336,336,42448,1,2
176,336,42892,1,2
80,200,43337,6,0,B|72:128|80:72,2,120,2|2|2
256,224,44671,1,2
256,224,45115,6,0,B|264:152|256:96,1,120,2|2
416,96,46004,1,2
432,256,46448,6,0,B|432:320|328:352|288:288,1,180,2|0
216,264,47337,2,0,B|179:224|111:237|96:285,2,120,2|2|2
216,264,48671,6,0,B|216:128,1,120,2|2
88,72,49560,1,2
80,232,50004,1,2
200,352,50448,5,2
200,192,50893,2,0,B|336:192,1,120,2|2
456,192,51782,1,2
456,192,52226,6,0,B|440:128|368:104,1,120,2|2
256,192,53115,1,2
256,192,53560,1,2
168,352,54004,5,2
344,352,54448,1,2
256,192,54893,1,2
256,40,55337,1,2
256,192,55560,12,0,58226
256,192,58671,5,0
88,192,59115,6,0,B|72:128|92:56,1,120,4|8
256,40,60004,1,0
416,40,60448,1,8
440,208,60893,6,2,B|400:296|288:320,1,180
208,316,61782,2,2,B|112:296|72:208,1,180
96,128,62671,5,0
256,192,63115,1,8
416,128,63560,1,0
416,128,63782,1,2
416,128,64004,1,8
472,288,64448,6,2,B|384:232|304:304,1,180
208,288,65337,2,2,B|130:357|42:301,1,180
40,216,66226,6,0,B|40:88,2,120,0|8|0
160,96,67560,1,8
216,256,68004,6,2,B|336:232,1,120,2|8
416,208,68671,1,2
416,208,68893,2,2,B|440:104|352:40,1,180
256,88,69782,5,0
256,88,70226,1,8
176,232,70671,1,0
336,232,71115,1,8
256,88,71560,5,0
256,264,72004,1,8
256,264,72448,2,0,B|256:328,2,60,4|2|8
88,296,73337,6,0,B|48:224|48:136|96:48,1,240,4|0
256,96,74671,1,8
424,65,75115,2,0,B|464:136|464:224|424:296,1,240,0|0
256,288,76448,1,8
356,247,76893,6,0,B|321:196|256:159|179:196|155:254,1,240
256,112,78226,1,8
88,120,78671,5,0
168,264,79115,1,8
344,264,79560,1,0
424,120,80004,1,8
424,120,80226,1,8
424,120,80448,6,0,B|320:96|264:192,1,180
256,264,81337,1,0
256,264,81782,1,8
88,120,82226,6,0,B|192:96|248:192,1,180
256,264,83115,1,0
256,80,83560,1,8
256,80,83782,1,8
256,80,84004,6,0,B|384:80,1,120,0|8
464,224,84893,2,0,B|328:224,1,120,0|8
256,192,85560,12,0,86671
256,192,87115,5,0
120,96,87560,6,0,B|104:160|120:224,1,120,4|8
117,214,88448,1,0
256,312,88893,1,8
394,214,89337,6,0,B|408:160|392:96,1,120,0|8
392,96,90226,1,0
256,192,90671,1,8
168,336,91115,6,0,B|32:336,1,120,0|8
200,240,92004,2,0,B|95:152,1,120,0|8
312,240,92893,2,0,B|416:152,1,120,0|8
344,336,93782,2,0,B|480:336,1,120,0|8
413,213,94671,6,0,B|400:64|258:9|96:64|97:241,1,480,4|4
256,280,96893,1,8
256,280,97337,1,4
256,280,97782,1,8
424,280,98226,6,0,B|448:208|416:136,1,120,4|8
368,104,98893,1,0
368,104,99115,2,0,B|240:104,1,120,0|8
152,192,100004,6,0,B|280:192,1,120
360,280,100893,2,0,B|232:280,1,120,0|8
72,280,101782,6,0,B|72:272|40:184|80:88,1,180,4|0
74,102,102671,1,0
240,104,103115,2,0,B|256:160|240:232,2,120,8|0|8
392,24,104448,2,0,B|376:80|392:152,1,120,0|8
432,216,105115,1,0
432,216,105337,6,0,B|296:352,1,180
207,343,106226,2,0,B|80:216,1,180
32,144,107115,5,0
168,48,107560,1,8
344,48,108004,1,0
480,144,108449,1,8
480,312,108893,6,2,B|424:344|344:304,1,120,2|0
336,232,109560,2,2,B|328:112,1,120,2|0
328,112,110226,1,8
160,120,110671,2,2,B|168:240,2,120,2|8|2
8,192,112004,1,8
48,352,112448,6,2,B|104:312|176:336,1,120,2|8
248,336,113115,2,2,B|306:355|362:315,1,120
424,256,113782,1,2
424,88,114226,5,4
256,72,114671,1,4
88,80,115115,1,0
88,80,115560,1,0
176,160,116004,5,4
288,136,116448,1,8
288,136,116671,2,2,B|304:208|280:264,1,120,2|0
216,304,117337,2,2,B|96:312,1,120,10|4
88,144,118226,6,0,B|80:64,2,60,8|8|0
256,136,119115,2,0,B|264:208,2,60,8|8|4
424,112,120004,5,8
424,112,120226,2,2,B|440:240,1,120,2|0
448,312,120893,2,2,B|400:360|320:328,1,120,10|0
256,184,121782,5,8
112,112,122226,1,0
256,32,122671,1,8
400,112,123115,5,4
336,240,123560,2,2,B|320:168,1,60,10|0
200,72,124226,1,0
200,72,124448,2,2,B|168:136|184:216,1,120,10|2
256,336,125337,5,10
256,192,125782,1,2
256,48,126226,1,10
256,48,126448,1,10
256,48,126671,6,0,B|192:32|112:48,1,120,4|8
104,208,127560,2,2,B|96:336,1,120,0|10
256,288,128448,6,2,B|264:160,1,120,2|8
415,128,129337,2,2,B|408:248,1,120,0|10
416,128,130226,5,4
248,128,130670,1,8
248,128,130893,2,2,B|264:200|240:256,1,120,2|0
176,296,131559,2,2,B|56:304,1,120,10|4
48,136,132448,6,0,B|40:56,2,60,8|8|0
216,128,133337,2,0,B|224:200,2,60,8|8|4
384,104,134226,5,8
384,104,134448,2,2,B|400:232,1,120,2|0
408,304,135115,2,2,B|360:352|280:320,1,120,10|0
200,192,136004,5,8
56,104,136448,1,0
200,24,136893,1,8
344,104,137337,5,4
280,256,137782,2,2,B|264:184,1,60,10|0
144,88,138448,1,0
144,88,138670,2,2,B|112:152|128:232,1,120,10|2
200,352,139559,5,10
200,208,140004,1,2
200,64,140448,1,10
200,64,140893,6,0,B|136:48|56:64,1,120,4|8
48,224,141782,2,2,B|40:352,1,120,0|10
200,304,142670,2,2,B|208:176,1,120,2|2
368,136,143560,5,0
368,136,144004,1,0
256,16,144448,5,4
104,88,144893,2,0,B|80:144|104:224,2,120,8|0|8
256,160,146226,2,0,B|280:216|256:296,1,120,0|8
408,192,147115,2,0,B|388:130|412:74,1,120,0|8
412,74,148004,5,0
256,128,148448,1,8
99,74,148893,1,0
256,128,149337,1,8
392,224,149782,6,0,B|344:280|272:240,1,120,0|8
120,336,150671,2,0,B|168:280|240:320,1,120,0|8
416,344,151560,5,4
416,344,152004,2,0,B|464:232|408:96,1,240,8|8
256,48,153337,1,0
98,110,153782,2,0,B|48:232|96:344,1,240,8|8
256,288,155115,5,0
392,192,155560,1,8
120,192,156448,1,8
392,192,157337,1,8
312,272,157782,2,8,B|184:272,1,120
256,368,158671,5,4
104,296,159115,2,2,B|80:240|104:160,2,120,8|2|8
256,224,160449,2,2,B|280:168|256:88,1,120,2|8
408,192,161338,2,2,B|388:254|412:310,1,120,2|8
412,310,162227,5,0
256,256,162671,1,10
99,310,163116,1,0
256,256,163560,1,10
392,160,164004,6,2,B|344:104|272:144,1,120,2|10
120,40,164894,2,2,B|168:96|240:56,1,120,2|8
416,40,165783,5,4
416,40,166227,2,2,B|464:152|408:288,1,240,10|10
256,336,167560,1,0
98,273,168005,2,2,B|48:152|96:40,1,240,10|10
256,96,169338,5,4
392,192,169783,1,8
120,192,170671,1,8
392,192,171560,1,8
256,288,172004,5,2
256,120,172448,1,2
256,288,172893,1,4
