osu file format v9

[General]
AudioFilename: nomico - dreaming.mp3
AudioLeadIn: 1000
PreviewTime: 86560
Countdown: 0
SampleSet: Soft
StackLeniency: 0.6
Mode: 0
LetterboxInBreaks: 0

[Editor]
Bookmarks: 59115,87560,116004,144448,158671,172893
DistanceSpacing: 1.3
BeatDivisor: 4
GridSize: 8

[Metadata]
Title:Dreaming
Artist:Masayoshi Minoshima feat. nomico
Creator:Natteke
Version:Hard
Source:Touhou
Tags:Alstroemeria Records hakurei reimu

[Difficulty]
HPDrainRate:7
CircleSize:4
OverallDifficulty:7
ApproachRate:8
SliderMultiplier:1.6
SliderTickRate:1

[Events]
//Background and Video events
0,0,"bg.jpg"
//Break Periods
//Storyboard Layer 0 (Background)
//Storyboard Layer 1 (Fail)
//Storyboard Layer 2 (Pass)
//Storyboard Layer 3 (Foreground)
//Storyboard Sound Samples
//Background Colour Transformations
3,100,163,162,255

[TimingPoints]
449,444.444444444444,4,2,1,40,1,0
2005,-200,4,2,1,40,0,0
30671,-100,4,2,1,55,0,0
55560,-200,4,2,1,15,0,0
58226,-100,4,1,1,55,0,0
59226,-100,4,2,1,55,0,0
59448,-100,4,1,1,55,0,0
60114,-100,4,2,1,55,0,0
60336,-100,4,1,1,55,0,0
62782,-100,4,2,1,55,0,0
63004,-100,4,1,1,55,0,0
63670,-100,4,2,1,55,0,0
63892,-100,4,1,1,55,0,0
66337,-100,4,2,1,55,0,0
66559,-100,4,1,1,55,0,0
67225,-100,4,2,1,55,0,0
67447,-100,4,1,1,55,0,0
68337,-100,4,2,1,55,0,0
68781,-100,4,1,1,55,0,0
69226,-100,4,2,1,55,0,0
69448,-100,4,1,1,55,0,0
69893,-100,4,2,1,55,0,0
70115,-100,4,1,1,55,0,0
70781,-100,4,2,1,55,0,0
71003,-100,4,1,1,55,0,0
71671,-100,4,2,1,55,0,0
71893,-100,4,1,1,55,0,0
72115,-100,4,2,1,55,0,0
72337,-100,4,1,1,55,0,0
72671,-100,4,2,1,55,0,0
72893,-100,4,1,1,55,0,0
76337,-100,4,2,1,55,0,0
76559,-100,4,1,1,55,0,0
79893,-100,4,2,1,55,0,0
80115,-100,4,1,1,55,0,0
84115,-100,4,2,1,55,0,0
84337,-100,4,1,1,55,0,0
84560,-100,4,2,1,55,0,0
85226,-100,4,1,1,55,0,0
85448,-100,4,2,1,55,0,0
85670,-100,4,1,1,55,0,0
116004,-100,4,1,2,55,0,0
144448,-100,4,1,1,55,0,1
144560,-100,4,1,2,55,0,0

[Colours]
Combo1 : 17,254,176
Combo2 : 173,255,95
Combo3 : 255,88,100
Combo4 : 255,94,55

[HitObjects]
64,64,1337,1,0
64,64,1783,1,0
64,64,2227,2,0,B|48:120|64:192,1,120
152,184,3116,2,0,B|320:184,1,160
416,184,4448,1,0
400,288,4894,1,0
400,288,5338,1,0
400,288,5783,6,0,B|344:304|280:288,1,120
280,200,6672,2,0,B|280:32,1,160
176,32,8005,1,0
72,32,8448,1,0
72,32,8894,1,0
72,32,9338,6,0,B|64:160,1,120
64,152,10227,2,0,B|160:112|200:208,1,160
312,296,11561,1,0
312,296,12005,2,0,B|400:296,1,80
456,232,12894,6,0,B|480:168|448:112,1,120
376,72,13783,2,0,B|216:72,1,160
128,72,15115,1,0
40,72,15560,2,0,B|24:104|40:152,1,80
120,184,16448,6,0,B|240:184,1,120
320,208,17337,2,0,B|344:264|320:336,1,120
323,325,18226,5,0
416,192,18671,1,0
320,56,19115,1,0
227,189,19560,1,0
348,189,20004,6,0,B|228:189,1,120
148,165,20893,2,0,B|124:109|148:37,1,120
144,47,21782,5,0
52,181,22227,1,0
148,317,22671,1,0
176,248,22893,1,0
248,272,23115,1,0
224,344,23337,1,0
148,317,23560,6,0,B|64:288,1,80
88,216,24226,2,0,B|104:152|88:88,1,120
232,40,25337,1,0
320,40,25782,1,0
408,40,26226,1,0
496,40,26671,1,0
496,128,27115,6,0,B|512:168|496:214,1,80
424,240,27782,2,0,B|336:240,1,80
264,264,28448,2,0,B|248:304|264:350,1,80,0|0
256,192,29115,12,4,30671
152,88,30893,5,2
152,88,31115,2,0,B|156:176,1,80,0|2
40,320,31782,1,2
40,320,32004,2,0,B|36:232,1,80,0|2
152,88,32671,5,2
152,88,32893,2,0,B|156:176,1,80,0|2
168,256,33337,2,0,B|256:256,1,80,0|2
336,256,33782,2,0,B|352:296|384:320,1,80,0|2
432,248,34226,5,0
432,160,34448,1,2
432,160,34671,2,0,B|424:80,1,80,0|2
256,192,35337,1,2
256,192,35560,2,0,B|248:272,1,80,0|2
432,160,36226,5,2
432,160,36449,2,0,B|424:80,1,80,0|2
344,56,36893,2,0,B|264:56,1,80,0|2
176,56,37337,2,0,B|152:96|112:112,1,80,0|2
40,152,37782,5,0
56,240,38004,1,2
80,328,38226,2,0,B|160:336,1,80,0|2
176,56,38893,1,2
200,144,39115,2,0,B|280:152,1,80,0|2
56,240,39782,5,2
80,328,40004,2,0,B|160:336,1,80,0|2
248,344,40448,2,0,B|256:256,1,80,0|2
264,176,40893,2,0,B|304:160|344:184,1,80,0|2
400,248,41337,6,0,B|392:336,2,80,0|2|0
408,160,42004,1,2
408,160,42448,1,2
320,160,42671,1,0
232,160,42893,1,2
88,328,43337,5,2
176,328,43560,1,0
264,328,43782,1,2
352,328,44004,2,0,B|360:240,1,80,0|2
368,160,44448,2,0,B|456:160,1,80,0|2
384,56,44893,5,0
296,56,45115,2,0,B|208:56,1,80,2|0
128,56,45560,2,0,B|88:128|128:216,1,160,2|2
216,224,46226,2,0,B|296:224,1,80,0|2
24,336,46893,5,2
112,336,47115,1,0
200,336,47337,2,0,B|360:336,1,160,2|2
448,336,48004,2,0,B|456:248,1,80,0|2
368,256,48448,6,0,B|272:256,1,80,0|2
200,256,48893,1,0
112,256,49115,2,0,B|72:176|120:96,1,160,2|2
200,64,49782,1,0
280,104,50004,2,0,B|324:177|284:257,1,160,2|2
200,296,50671,5,0
112,296,50893,2,0,B|24:296,1,80,2|0
32,208,51337,2,0,B|40:160|32:128,1,80,2|0
24,40,51782,1,2
112,40,52004,5,0
168,104,52226,2,0,B|160:192,2,80,2|0|2
256,256,53115,2,0,B|264:344,2,80,2|0|2
344,104,54004,2,0,B|352:192,2,80,2|0|2
448,272,54893,2,0,B|440:360,2,80,2|0|2
416,184,55560,6,0,B|88:184,1,320
256,192,57448,12,0,58226
256,192,58671,5,0
48,296,59115,5,4
136,296,59337,1,2
224,296,59560,2,2,B|320:304,1,80,0|2
392,296,60004,2,0,B|400:208,1,80,0|2
320,184,60448,2,2,B|224:176,1,80,0|2
152,168,60893,6,0,B|101:88|168:15,1,160,0|8
248,24,61560,1,0
336,24,61782,2,0,B|397:91|346:171,1,160,0|8
248,176,62448,1,0
48,176,62671,6,0,B|56:256,1,80,0|2
120,320,63115,2,2,B|160:304|208:328,1,80,0|2
280,352,63560,2,0,B|312:272,1,80,0|2
344,192,64004,2,2,B|440:192,1,80,0|2
388,292,64448,6,0,B|308:308|221:289,1,160,0|8
144,288,65115,1,0
144,288,65337,2,0,B|120:128,1,160,0|8
240,80,66004,1,0
240,80,66115,1,0
240,80,66226,5,0
336,80,66448,1,2
432,80,66671,2,2,B|440:176,1,80,0|2
448,256,67115,1,0
456,352,67337,1,2
360,344,67560,2,2,B|353:264,1,80,0|2
256,48,68004,6,0,B|176:56,1,80
256,192,68448,2,0,B|336:200,1,80,4|2
256,344,68893,2,0,B|176:352,1,80
256,192,69337,1,4
64,48,69782,6,0,B|48:88|64:144,1,80,0|2
152,128,70226,2,2,B|256:136,1,80,0|2
328,144,70671,2,0,B|341:186|326:232,1,80,0|2
368,312,71115,2,2,B|448:312,1,80,0|2
272,312,71560,5,0
176,312,71782,1,2
80,312,72004,1,8
48,224,72226,1,2
48,224,72337,2,0,B|40:128,1,80,8|0
112,80,72782,1,2
112,80,72893,2,0,B|280:80,1,160,8|4
456,80,73560,6,0,B|368:80,1,80,0|8
448,192,74004,2,0,B|360:192,1,80,0|0
440,312,74448,2,0,B|352:312,1,80,0|8
264,312,74893,1,8
264,312,75115,6,2,B|208:240|104:288,1,160,2|8
119,281,75782,1,2
40,232,76004,2,2,B|32:56,1,160,2|4
32,72,76671,1,2
120,40,76893,6,0,B|200:48,1,80
232,128,77337,2,0,B|224:168|248:216,1,80,8|0
328,256,77782,2,0,B|424:264,1,80
480,200,78226,2,8,B|487:160|468:122,1,80,8|8
384,72,78671,6,2,B|192:72,1,160,2|8
256,192,79337,1,2
128,312,79560,2,2,B|320:312,1,160,2|4
256,192,80226,1,2
256,192,80337,1,0
256,192,80448,6,0,B|168:192,1,80
80,192,80893,1,8
80,192,81115,2,0,B|64:112|80:24,1,160
176,24,81782,1,8
176,24,82004,2,0,B|336:16,1,160
256,336,82671,6,0,B|177:341,1,80,2|0
256,48,83115,2,0,B|335:43,1,80,2|0
296,195,83560,2,2,B|208:187,1,80
120,176,84004,5,0
24,160,84226,1,2
8,256,84448,1,8
104,272,84671,1,2
104,272,85115,1,2
120,176,85337,1,8
24,160,85560,1,2
40,64,85782,6,2,B|128:80,1,80,2|0
216,88,86226,2,2,B|232:128|213:174,1,80,2|0
192,256,86671,5,0
464,256,87115,1,0
192,256,87560,6,2,B|112:280|24:256,1,160,6|0
16,152,88226,1,2
128,152,88448,2,2,B|288:152,1,160,2|0
400,152,89115,1,0
400,264,89337,6,0,B|408:360,1,80,2|0
249,319,89782,2,0,B|256:240,1,80,2|0
336,104,90226,2,0,B|344:200,1,80,2|2
185,159,90671,2,0,B|192:80,1,80,0|2
80,184,91115,6,2,B|32:256|80:344,1,160,2|0
192,336,91782,1,2
296,336,92004,2,2,B|472:336,1,160,2|0
448,240,92671,1,2
392,144,92893,6,2,B|296:136,1,80,2|0
312,137,93226,2,2,B|294:193|219:227,1,120
48,239,93782,2,2,B|144:231,1,80,2|0
128,232,94115,2,2,B|146:288|221:322,1,120
288,336,94671,6,2,B|371:375|448:333,1,160,6|0
440,224,95337,2,2,B|357:185|280:227,1,160,2|0
285,223,96004,2,2,B|272:144,1,80,2|0
200,40,96448,5,6
96,72,96671,1,0
200,160,96893,1,0
304,128,97116,1,2
408,224,97337,1,6
304,256,97560,1,0
200,296,97782,2,2,B|121:324,1,80,2|0
200,160,98226,6,2,B|48:208,1,160,6|0
16,320,98893,1,2
47,208,99115,2,2,B|72:136|40:48,1,160,2|0
41,51,99782,1,0
152,48,100004,6,0,B|168:128,1,80,2|0
192,232,100448,2,2,B|232:175|316:209,1,120,2|2
299,202,100893,1,0
280,304,101115,1,2
280,304,101337,1,0
280,304,101448,1,0
280,304,101560,1,2
280,304,101782,6,0,B|200:312,1,80,4|0
88,328,102226,2,2,B|64:264|72:200,1,120,2|2
70,210,102671,2,2,B|160:200,1,80,0|2
264,184,103115,2,2,B|288:120|280:56,1,120,2|2
281,66,103560,6,2,B|191:55,1,80,0|2
320,144,104004,2,2,B|245:193,1,80,0|2
392,192,104448,2,2,B|366:277,1,80,2|0
480,192,104893,2,2,B|515:274,1,80,0|2
256,320,105337,6,2,B|96:328,1,160,2|0
56,216,106004,2,2,B|40:152|64:72,1,120,2|0
57,97,106448,2,2,B|144:96,1,80,0|2
454,97,106893,2,2,B|368:96,1,80,0|2
374,96,107337,2,2,B|392:176|376:264,1,160,2|2
304,312,108004,1,0
208,312,108226,1,2
112,312,108448,1,0
16,312,108671,1,2
16,312,108893,6,2,B|0:216|24:144,1,160,6|0
176,40,109560,1,2
176,40,109782,2,2,B|197:102|181:198,1,160,2|2
181,198,110448,1,0
440,336,110671,6,2,B|336:344,1,80,6|0
440,192,111115,2,2,B|336:200,1,80,2|0
432,56,111560,2,2,B|328:64,1,80,6|0
264,96,112004,2,2,B|240:128|248:184,1,80,2|0
232,264,112448,6,2,B|160:288|64:264,1,160,6|0
304,152,113115,2,2,B|376:176|472:152,1,160,2|0
208,48,113782,2,2,B|136:72|40:48,1,160,2|2
56,144,114448,1,0
64,240,114671,1,2
72,336,114893,1,2
256,192,115115,5,0
256,192,115560,1,0
464,336,116004,5,4
352,336,116226,1,2
240,336,116448,1,0
128,336,116671,2,0,B|40:336,1,80,2|0
48,336,117115,1,2
368,192,117337,1,0
256,192,117560,2,0,B|168:192,1,80,2|0
176,192,118004,1,2
440,40,118226,6,0,B|360:48,1,80,0|2
368,192,118671,2,0,B|448:200,1,80,2|8
440,344,119115,2,0,B|360:352,1,80,8|2
256,304,119560,5,0
240,192,119782,1,2
216,80,120004,2,2,B|128:80,1,80,0|2
360,192,120670,1,2
384,304,120892,2,2,B|472:304,1,80,0|2
240,192,121560,1,2
216,80,121782,2,2,B|128:80,1,80,0|2
64,112,122226,5,0
96,184,122448,1,8
168,152,122671,1,8
136,80,122893,1,2
8,152,123115,5,2
112,152,123337,1,0
216,152,123560,1,2
320,152,123782,2,2,B|400:176|488:151,1,160
478,153,124448,1,0
478,153,124671,1,2
288,296,125115,1,2
288,296,125337,6,0,B|232:272|168:288,1,120,8|8
170,287,125782,2,0,B|152:240|152:192,1,80,0|8
256,168,126226,2,0,B|274:120|273:90,1,80,8|0
168,48,126671,6,2,B|72:56,2,80,0|0|2
152,160,127337,2,0,B|126:232|153:326,1,160,2|2
256,352,128004,1,0
361,317,128226,2,0,B|386:232|360:160,1,160,2|2
256,40,128893,6,0,B|264:136,1,80,8|2
256,344,129337,2,0,B|248:248,1,80,2|8
176,176,129782,2,2,B|104:120|24:176,1,160,2|4
104,336,130448,6,2,B|104:256,1,80,0|10
208,304,130893,2,0,B|288:336|376:299,1,160,2|0
364,303,131560,1,8
368,192,131782,2,0,B|288:160|212:192,1,160,2|0
48,72,132448,6,2,B|128:80,1,80,8|2
48,192,132893,2,2,B|128:184,1,80,0|10
48,312,133337,2,2,B|128:320,1,80,10|0
240,320,133782,6,2,B|272:288|320:288,1,80,0|2
424,280,134226,1,8
424,280,134448,2,0,B|440:112,1,160,2|0
352,48,135115,1,10
248,96,135337,2,0,B|232:264,1,160,2|0
144,328,136004,6,0,B|56:336,1,80,8|2
96,232,136448,2,2,B|112:168|88:104,1,120,2|0
91,113,136893,2,0,B|8:120,1,80,8|2
160,48,137337,6,2,B|243:41,1,80,0|2
256,152,137782,1,8
256,152,138004,2,2,B|264:312,1,160
455,175,138671,2,2,B|447:83,1,80,8|2
448,96,139337,5,2
448,96,139560,1,8
320,96,139782,1,2
320,96,140004,1,0
192,96,140226,1,2
192,96,140448,1,10
64,96,140671,1,2
48,272,140893,6,2,B|120:216|208:280,1,160,2|8
312,216,141560,2,2,B|382:271|459:214,1,160,2|2
459,215,142226,1,8
472,112,142448,1,2
376,64,142671,2,2,B|192:64,1,160,2|10
160,152,143337,1,0
88,224,143560,5,0
424,224,144004,1,0
88,224,144448,6,2,B|80:136,1,80,6|0
208,256,144893,2,2,B|200:344,1,80,2|0
192,144,145337,2,2,B|296:144,1,80,0|2
376,144,145782,1,0
480,144,146004,2,2,B|512:216|480:320,1,160
384,336,146671,2,2,B|224:336,1,160
256,240,147337,1,0
256,240,147448,2,2,B|280:176|248:112,1,120
168,64,148004,5,0
72,96,148226,1,0
104,192,148448,2,2,B|128:280,1,80,2|0
192,344,148893,2,2,B|232:296|312:304,1,120,2|0
299,303,149337,2,2,B|296:216,1,80,0|2
464,240,149782,6,2,B|384:248,1,80,0|2
432,128,150226,2,2,B|352:136,1,80,2|0
144,216,150671,2,2,B|288:208,1,120,2|0
263,209,151115,2,2,B|272:160|256:112,1,80,0|2
80,56,151560,6,2,B|71:105|87:153,1,80,2|0
32,224,152004,2,2,B|48:288|40:344,1,120,2|0
40,342,152448,1,2
144,336,152671,2,2,B|224:328,1,80,0|2
424,224,153115,2,2,B|360:264|264:248,1,160
360,360,153782,6,2,B|352:272,1,80,2|0
344,40,154226,2,2,B|352:104|336:168,1,120,2|0
338,159,154671,2,2,B|264:184,1,80,0|2
160,208,155115,6,0,B|112:288|160:368,1,160,0|2
155,360,155782,1,2
338,160,156004,2,2,B|386:240|338:320,1,160,0|2
256,256,156671,1,2
152,264,156893,6,2,B|56:272,1,80,0|2
32,176,157337,2,2,B|16:104|24:40,1,120,2|0
22,56,157782,1,2
112,104,158004,2,2,B|200:104,1,80,0|2
296,104,158448,1,2
400,104,158671,6,0,B|432:192|392:280,2,160,6|10|2
296,96,159782,1,0
192,88,160004,1,10
88,80,160226,6,2,B|56:168|96:256,1,160
296,96,160893,2,2,B|328:184|288:272,1,160,10|2
192,352,161560,2,0,B|184:312|192:248,1,80,0|8
280,224,162004,6,2,B|456:216,1,160,2|0
271,345,162671,2,2,B|192:352,1,80,10|0
376,328,163115,2,0,B|424:336|472:336,2,80,2|0|10
296,264,163782,6,2,B|288:184|296:88,1,160,2|0
480,104,164448,2,2,B|486:183|478:263,1,160,10|2
408,344,165115,2,2,B|320:352,1,80,0|10
192,272,165560,2,2,B|280:280,1,80,2|4
112,336,166004,5,0
48,256,166226,1,8
48,256,166448,2,2,B|40:160|48:80,1,160,2|0
136,48,167115,2,2,B|144:128,1,80,10|0
168,232,167560,6,2,B|256:248|328:232,1,160,2|8
472,128,168226,2,2,B|384:144|312:128,1,160,2|0
232,64,168893,2,0,B|224:112|208:144,1,80,10|0
104,144,169337,6,2,B|64:224|72:312,1,160,2|8
160,256,170004,1,2
240,272,170226,2,2,B|416:264,1,160,2|8
399,264,170893,1,2
392,160,171115,6,2,B|376:72,1,80,2|0
240,272,171560,2,2,B|225:350,1,80,2|0
120,352,172004,5,2
112,352,172448,1,2
104,352,172893,1,4
