osu file format v9

[General]
AudioFilename: Masayoshi Minoshima - Bad Apple!! feat. nomico.mp3
AudioLeadIn: 982
PreviewTime: 97120
Countdown: 1
SampleSet: Normal
StackLeniency: 0.5
Mode: 0
LetterboxInBreaks: 1
CountdownOffset: 1

[Editor]
Bookmarks: 13280,16106,18207,68497,97120,222627,250236
DistanceSpacing: 0.8
BeatDivisor: 6
GridSize: 8

[Metadata]
Title:Bad Apple!! (full ver.)
Artist:Masayoshi Minoshima feat. nomico
Creator:chibidanil
Version:Hard
Source:Touhou
Tags:touhou

[Difficulty]
HPDrainRate:5
CircleSize:5
OverallDifficulty:6
ApproachRate:7
SliderMultiplier:2.09999990463257
SliderTickRate:2

[Events]
//Background and Video events
0,0,"sakuya_izayoi____bad_apple____by_adiyasa-d3bfu3a.jpg"
//Break Periods
2,55944,67887
2,111595,123974
2,138987,151365
2,222465,233974
2,292465,301365
//Storyboard Layer 0 (Background)
//Storyboard Layer 1 (Fail)
//Storyboard Layer 2 (Pass)
//Storyboard Layer 3 (Foreground)
//Storyboard Sound Samples
//Background Colour Transformations
3,100,255,255,255

[TimingPoints]
167,434.782608695652,4,1,1,69,1,0
68497,-80,4,1,1,69,0,0
97482,-80,4,1,1,69,0,1
111613,-80,4,1,1,69,0,0
208642,-80,4,1,1,69,0,1
222700,-80,4,1,1,69,0,0
250526,-80,4,1,1,69,0,1
278352,-80,4,1,1,69,0,0

[Colours]
Combo1 : 64,0,64
Combo2 : 5,240,5
Combo3 : 5,5,240
Combo4 : 240,5,5
Combo5 : 248,240,148
Combo6 : 255,150,0
Combo7 : 128,128,128
Combo8 : 204,0,204

[HitObjects]
24,96,14000,1,0
48,96,14217,1,0
120,96,14544,1,0
144,96,14656,1,0
192,96,14874,2,0,B|240:96|304:96,1,104.999995231628
232,144,15414,5,0
256,144,15523,1,0
304,144,15743,2,0,B|352:144|408:144,1,104.999995231628
416,56,16308,1,0
384,56,16395,1,0
336,56,16613,1,0
286,56,16830,1,0
257,56,16975,1,0
237,56,17048,1,0
192,80,17265,5,0
176,96,17374,1,0
160,112,17482,1,0
136,152,17700,1,0
208,160,18062,5,0
248,160,18171,1,0
276,193,18352,2,0,B|416:192,1,139.999993642171
208,224,18932,5,0
248,224,19041,1,0
276,257,19222,2,0,B|416:256,1,139.999993642171
208,304,19801,1,0
184,296,19895,1,0
144,272,20091,1,0
123,226,20308,1,0
119,192,20453,1,0
127,177,20526,1,0
144,130,20743,1,0
163,103,20888,1,0
176,92,20961,1,0
225,88,21178,1,0
264,96,21540,37,0
264,117,21649,1,0
266,155,21830,2,0,B|265:286|266:287,1,104.999995231629
306,263,22410,1,0
335,262,22482,1,0
388,262,22700,2,0,B|387:288|388:157,1,104.999995231629
389,136,23244,1,0
389,117,23352,1,0
388,78,23584,1,0
388,63,23787,1,0
344,32,24019,1,0
312,32,24222,1,0
272,32,24439,5,0
240,32,24656,1,0
190,34,24983,1,0
169,34,25091,1,0
127,38,25308,2,0,B|40:34|31:110,1,104.999995231629
64,143,25853,1,0
90,143,25962,1,0
120,171,26178,2,0,B|245:171,1,104.999995231629
336,208,26721,1,0
336,232,26830,1,0
376,264,27048,2,0,B|456:264,6,69.9999968210856
328,264,28135,5,0
292,264,28207,1,0
216,264,28497,1,0
192,264,28606,1,0
152,264,28787,2,0,B|32:264,2,104.999995231628
152,208,29330,1,0
152,184,29439,1,0
152,152,29656,2,0,B|152:48,2,104.999995231628
208,152,30202,1,0
232,152,30308,1,0
280,152,30526,2,0,B|392:152,1,104.999995231628
389,223,30961,2,0,B|389:343,1,104.999995231628
336,328,31395,37,0
288,328,31612,1,0
240,328,31830,1,0
176,328,32048,1,0
176,312,32121,1,0
176,272,32265,2,0,B|176:216|176:168,2,104.999995231628
208,272,32917,1,0
224,272,32989,1,0
272,272,33135,2,0,B|272:224|272:160,2,104.999995231628
320,272,33787,1,0
353,272,33932,1,0
368,272,34004,1,0
416,272,34222,2,0,B|416:152,1,104.999995231628
368,168,34656,2,0,B|256:168,1,104.999995231628
272,120,35091,21,0
238,120,35236,1,0
221,120,35308,1,0
170,120,35526,2,0,B|58:120,1,104.999995231628
72,152,35960,1,0
72,185,36106,1,0
72,201,36178,1,0
72,250,36395,2,0,B|70:364|74:371,1,104.999995231628
121,352,36830,1,0
154,352,36975,1,0
170,352,37048,1,0
219,352,37265,2,0,B|219:242|220:242,1,104.999995231628
269,251,37700,1,0
285,251,37772,1,0
301,251,37845,1,0
367,251,38135,1,0
383,251,38207,1,0
399,251,38279,1,0
465,251,38569,6,0,B|465:134,1,104.999995231628
414,151,39004,1,0
397,151,39077,1,0
380,151,39149,1,0
313,151,39439,2,0,B|313:268,1,104.999995231628
262,254,39874,1,0
245,254,39947,1,0
228,254,40019,1,0
139,229,40308,2,0,B|204:69|280:186,1,209.999990463257
301,211,40961,1,0
301,211,41106,1,0
301,211,41251,1,0
301,211,41395,1,0
301,211,41540,1,0
301,211,41685,1,0
301,211,41830,38,2,B|646:130|297:37,1,384.999982515971
314,43,43135,2,8,B|190:38|203:112|128:266,1,314.999985694885
131,264,44004,2,2,B|278:130|470:279,1,349.999984105428
450,263,45743,54,8,B|278:128|131:262,1,349.999984105428
132,261,47482,38,2,B|253:356|351:342|470:237,1,349.999984105428
448,255,49222,86,2,B|351:342|253:356|132:261,1,349.999984105428
131,264,51033,6,2,B|278:130|470:279,1,349.999984105428
448,261,52700,6,8,B|260:130|115:280,1,349.999984105428
130,266,54366,6,0,B|128:128,1,139.999993642171
127,127,54874,1,0
127,126,55019,1,0
127,126,55164,1,0
127,126,55309,1,0
127,126,55454,1,0
127,126,55599,1,0
127,126,55744,1,0
64,64,68787,6,0,B|160:64,6,87.4999947225056
64,96,70091,1,0
64,128,70308,1,0
64,160,70526,1,0
64,224,70961,1,0
96,224,71178,1,0
128,224,71395,2,0,B|400:224,1,262.499980255962
392,224,72265,5,0
392,200,72482,1,0
368,200,72700,1,0
368,176,72917,1,0
344,176,73135,1,0
344,152,73352,1,0
320,152,73569,1,0
320,128,73787,1,0
304,128,74004,2,0,B|168:128,1,131.249992083758
144,128,74439,5,0
120,128,74656,1,0
96,128,74874,1,0
96,152,75091,1,0
96,176,75308,1,0
96,200,75526,1,0
112,216,75743,1,0
120,224,75816,1,0
128,232,75888,1,0
136,264,76178,1,0
144,272,76251,1,0
152,280,76323,1,0
216,304,76613,5,0
216,280,76830,1,0
240,280,77048,1,0
240,256,77265,1,0
264,256,77482,2,0,B|424:256,1,131.249992083758
424,256,77917,5,0
448,256,78135,1,0
440,232,78352,2,0,B|520:176|432:128,1,131.249992083758
400,136,78787,1,0
96,128,79222,5,0
128,152,79439,1,0
160,128,79656,1,0
184,152,79874,1,0
224,152,80091,1,0
256,128,80308,1,0
288,152,80526,1,0
320,128,80743,1,0
360,128,80961,1,0
96,248,81395,1,0
214,244,81613,1,0
96,248,81830,86,0,B|168:184|232:264,1,131.249992083758
96,248,82265,102,0,B|168:184|232:264,1,131.249992083758
96,248,82700,102,0,B|168:184|232:264,1,131.249992083758
96,248,83135,70,0,B|168:184|232:264,1,131.249992083758
248,248,83569,1,0
248,288,83787,1,0
288,288,84004,1,0
288,328,84222,1,0
328,328,84439,2,0,B|400:272|328:192,1,131.249992083758
384,208,84874,5,0
384,168,85091,1,0
424,168,85308,1,0
424,128,85526,1,0
464,128,85743,1,0
464,88,85961,1,0
504,88,86178,2,0,B|432:24|368:104,1,131.249992083758
352,72,86613,5,0
320,96,86830,1,0
288,72,87048,1,0
256,96,87265,1,0
232,64,87482,1,0
200,88,87700,1,0
168,64,87917,2,0,B|112:8|16:80,1,131.249992083758
64,96,88352,5,0
88,128,88569,1,0
40,128,88787,1,0
24,168,89004,1,0
72,168,89222,1,0
112,168,89439,2,0,B|32:224|128:280,1,131.249992083758
112,272,89874,1,0
112,312,90092,1,0
168,224,90308,1,0
168,264,90526,1,0
168,304,90743,1,0
248,216,90961,2,0,B|248:347,3,131.249992083758
344,344,91830,6,0,B|344:192,3,131.249992083758
416,224,92700,1,0
416,264,92917,1,0
416,304,93135,1,0
472,336,93606,5,0
472,296,93823,1,0
472,256,94040,1,0
472,216,94258,2,0,B|536:144|472:80,1,131.249992083758
486,97,94656,2,0,B|440:24|352:96,1,131.249992083758
376,80,95308,2,0,B|232:80,3,131.249992083758
248,80,96178,2,0,B|96:80,1,131.249992083758
248,80,96613,2,0,B|352:80,4,87.4999947225056
248,80,97482,2,0,B|8:256,1,262.499984167517
36,235,98135,1,0
36,236,98352,2,0,B|109:20|173:244,1,262.499984167517
170,236,99004,1,0
170,237,99222,2,0,B|243:21|307:245,1,262.499984167517
304,237,99874,1,0
305,236,100091,2,0,B|378:20|442:244,1,262.499984167517
439,236,100743,53,0
439,236,100961,2,0,B|378:20|305:236,1,262.499984167517
306,232,101613,1,0
306,232,101830,2,0,B|244:15|171:231,1,262.499984167517
172,228,102482,1,0
172,228,102700,2,0,B|110:11|37:227,1,262.499984167517
38,224,103352,1,0
80,224,103569,1,0
120,224,103787,1,0
160,224,104004,5,0
208,224,104203,1,0
256,192,104421,2,0,B|256:48,4,131.249992083758
253,195,105508,1,0
256,192,105725,6,0,B|256:336,4,131.249992083758
256,192,106812,5,0
256,192,107029,2,0,B|416:192,4,131.249992083758
256,192,108116,5,0
256,192,108352,2,0,B|104:192,4,131.249992083758
256,192,109294,12,0,110308
256,192,110526,1,0
256,192,110671,1,0
256,192,110816,1,0
256,192,110961,1,0
256,192,111106,1,0
256,192,111251,1,0
256,192,111395,1,0
28,59,124874,5,0
64,88,125091,1,0
100,59,125308,1,0
144,32,125526,1,0
180,59,125743,1,0
216,80,125961,1,0
260,59,126178,2,0,B|404:59,1,131.249992083758
394,140,126613,5,0
360,165,126830,1,0
323,140,127048,1,0
280,120,127265,1,0
243,140,127483,1,0
202,159,127700,1,0
163,140,127917,2,0,B|27:140,1,131.249992083758
32,224,128352,5,0
64,240,128569,1,0
104,224,128786,1,0
144,207,129004,1,0
184,224,129221,1,0
223,245,129439,1,0
264,224,129656,2,0,B|408:224,1,131.249992083758
397,304,130091,5,0
360,326,130308,1,0
321,302,130526,1,0
281,276,130743,1,0
241,302,130961,2,0,B|183:303,3,43.7499973612528
161,302,131395,2,0,B|25:302,1,131.249992083758
29,302,131830,6,0,B|30:164|29:164,4,131.249992083758
29,170,132917,2,0,B|29:12,1,131.249992083758
29,38,133569,6,0,B|147:124,4,131.249992083758
135,115,134656,2,0,B|256:195,1,131.249992083758
245,188,135309,5,0
286,155,135526,5,0
290,207,135744,5,0
249,239,135961,5,0
199,220,136178,5,0
192,168,136395,5,0
238,143,136613,5,0
256,192,136830,12,0,138352
256,192,138787,5,0
64,64,152265,6,0,B|112:16|152:80,6,87.4999947225056
64,128,153352,2,0,B|64:288,1,131.249992083758
132,264,153787,2,0,B|300:264,1,131.249992083758
328,264,154222,2,0,B|496:264,1,131.249992083758
464,195,154657,2,0,B|464:64,1,131.249992083758
387,64,155091,2,0,B|256:64,1,131.249992083758
192,64,155562,2,0,B|60:64,1,131.249992083758
55,132,156214,6,0,B|55:268,2,131.249992083758
60,63,156866,2,0,B|192:63,1,131.249992083758
256,64,157301,2,0,B|387:64,1,131.249992083758
464,63,157736,2,0,B|464:195,1,131.249992083758
459,264,158171,2,0,B|328:264,1,131.249992083758
263,264,158606,2,0,B|132:264,1,131.249992083758
47,262,159040,2,0,B|47:131,1,131.249992083758
47,50,159693,6,0,B|47:186,2,131.249992083758
64,64,160345,2,0,B|120:136|176:56,1,131.249992083758
170,63,160779,2,0,B|226:-9|282:71,1,131.249992083758
276,64,161214,2,0,B|332:136|388:56,1,131.249992083758
384,64,161649,2,0,B|456:114|384:170,1,131.249992083758
385,168,162084,2,0,B|313:224|393:280,1,131.249992083758
385,274,162519,2,0,B|334:346|278:274,1,131.249992083758
243,239,163171,2,0,B|192:166|136:238,2,131.249992083758
279,276,163823,2,0,B|334:346|385:274,1,131.249992083758
385,274,164258,2,0,B|313:224|385:168,1,131.249992083758
386,169,164693,2,0,B|456:114|384:64,1,131.249992083758
382,63,165128,2,0,B|332:136|276:64,1,131.249992083758
276,63,165563,2,0,B|226:-9|170:63,1,131.249992083758
170,63,165997,2,0,B|120:136|64:64,1,131.249992083758
65,66,166323,1,0
65,66,166468,1,0
65,66,166613,1,0
65,66,166758,1,0
65,66,166903,1,0
65,66,167048,6,0,B|80:248|440:256|480:32,1,524.999968335033
408,72,168352,1,0
368,72,168569,1,0
304,72,168787,2,0,B|0:72,1,262.499984167517
56,144,169656,1,0
101,174,169874,1,0
144,144,170091,1,0
184,176,170308,1,0
224,144,170526,1,0
264,176,170743,1,0
304,144,170961,1,0
344,176,171178,1,0
376,144,171395,2,0,B|520:144,1,131.249992083758
464,232,171830,2,0,B|328:232,1,131.249992083758
304,296,172265,2,0,B|160:296,3,131.249992083758
120,256,173135,1,0
56,256,173352,1,0
88,200,173569,2,0,B|88:48,1,131.249992083758
152,48,174004,5,0
192,80,174222,1,0
232,48,174439,1,0
272,80,174656,1,0
312,48,174874,1,0
416,48,175308,1,0
416,112,175526,1,0
416,176,175743,2,0,B|416:296|368:328|232:328,1,262.499984167517
192,328,176613,5,0
168,320,176830,1,0
144,312,177048,1,0
120,304,177265,1,0
96,296,177482,1,0
72,288,177700,1,0
48,280,177917,1,0
48,256,178135,1,0
48,232,178352,1,0
48,160,178787,5,0
88,160,179004,1,0
128,160,179222,1,0
208,160,179656,1,0
264,160,180091,1,0
272,168,180237,1,0
280,176,180381,1,0
288,184,180525,1,0
296,192,180671,1,0
304,200,180816,1,0
312,208,180961,6,0,B|456:208,1,131.249992083758
440,272,181395,2,0,B|304:272,1,131.249992083758
264,272,181830,1,0
192,272,182265,1,0
160,272,182482,1,0
120,272,182700,2,0,B|0:144|128:40,1,262.499984167517
192,48,183569,1,0
232,64,183787,1,0
272,48,184004,1,0
320,32,184222,1,0
352,48,184439,1,0
392,64,184656,1,0
432,48,184874,1,0
472,32,185091,1,0
504,56,185308,1,0
472,112,185743,6,0,B|312:112,1,131.249992083758
416,176,186178,2,0,B|264:176,1,131.249992083758
360,240,186613,2,0,B|192:240,1,131.249992083758
312,304,187048,2,0,B|160:304,1,131.249992083758
152,304,187482,1,0
128,304,187700,1,0
64,304,187917,5,0
64,288,188135,1,0
64,272,188352,1,0
64,256,188569,1,0
64,240,188787,2,0,B|64:80,1,131.249992083758
64,96,189222,1,0
80,96,189439,1,0
96,96,189656,2,0,B|200:-16|328:96,1,262.499984167517
376,128,190526,5,0
328,168,190743,1,0
376,208,190961,1,0
328,248,191178,1,0
376,288,191395,1,0
336,336,191613,1,0
280,336,191830,1,0
224,336,192048,1,0
160,336,192265,2,0,B|56:336|56:248,1,131.249992083758
56,224,192700,1,0
56,168,192917,1,0
56,120,193135,6,0,B|112:48|168:120,1,131.249992083758
164,114,193569,6,0,B|220:42|276:114,1,131.249992083758
272,109,194004,6,0,B|328:37|384:109,1,131.249992083758
381,104,194439,6,0,B|437:32|493:104,1,131.249992083758
488,136,194874,1,0
488,176,195091,1,0
488,216,195308,1,0
488,256,195526,1,0
488,296,195743,2,0,B|336:296,1,131.249992083758
320,296,196178,1,0
280,296,196395,1,0
240,296,196613,1,0
200,296,196830,1,0
160,296,197048,1,0
128,296,197265,2,0,B|72:344|0:296,1,131.249992083758
40,248,197917,5,0
64,224,198135,1,0
88,200,198352,1,0
64,168,198569,1,0
40,144,198787,1,0
64,112,199004,1,0
88,88,199222,2,0,B|88:24|184:24,1,131.249992083758
216,24,199656,5,0
256,40,199874,1,0
296,24,200091,1,0
336,8,200308,1,0
376,24,200526,1,0
416,40,200743,1,0
464,24,200961,2,0,B|512:80|464:152,1,131.249992083758
464,192,201395,5,0
416,208,201613,1,0
376,192,201830,1,0
336,176,202048,1,0
296,192,202265,1,0
256,208,202482,1,0
216,184,202700,2,0,B|168:240|216:312,1,131.249992083758
216,344,203135,5,0
256,360,203353,1,0
296,344,203570,1,0
336,328,203787,1,0
376,344,204005,1,0
416,360,204222,1,0
452,337,204440,2,0,B|496:272|448:216,1,131.249992083758
408,208,204874,1,0
368,224,205091,1,0
328,240,205308,1,0
288,256,205526,1,0
248,272,205743,1,0
208,288,205961,2,0,B|144:360|96:280,1,131.249992083758
80,256,206395,1,0
80,224,206613,1,0
80,184,206830,1,0
80,144,207048,1,0
80,104,207265,1,0
80,64,207482,2,0,B|208:0|336:80,1,262.499984167517
320,96,208062,1,0
312,112,208207,1,0
304,128,208352,1,0
296,144,208497,1,0
288,160,208642,1,0
280,176,208787,1,0
280,200,209004,1,0
280,224,209222,1,0
280,264,209439,1,0
280,304,209656,1,0
440,304,210091,5,0
440,264,210308,1,0
440,224,210526,1,0
440,184,210743,1,0
440,144,210961,2,0,B|440:8,2,131.249992083758
376,144,211830,5,0
336,144,212048,1,0
296,144,212265,1,0
256,144,212482,1,0
224,144,212700,2,0,B|88:144,2,131.249992083758
224,200,213569,1,0
192,224,213787,1,0
160,248,214004,1,0
128,272,214222,1,0
96,296,214439,2,0,B|96:32,1,262.499984167517
160,32,215308,5,0
200,32,215526,1,0
200,72,215743,1,0
240,72,215961,1,0
280,72,216178,1,0
280,32,216395,1,0
320,32,216613,1,0
400,32,217048,5,0
400,72,217266,1,0
440,72,217483,1,0
440,112,217700,1,0
440,152,217917,1,0
400,152,218135,1,0
400,192,218352,1,0
456,248,218787,5,0
456,288,219005,1,0
456,328,219222,1,0
416,336,219439,1,0
376,336,219656,1,0
376,296,219874,1,0
336,296,220091,2,0,B|192:296,1,131.249992083758
256,192,220526,12,0,221830
256,192,222265,1,0
176,184,234874,5,0
216,184,235091,1,0
256,184,235308,1,0
296,184,235526,1,0
336,184,235743,1,0
256,192,236033,12,0,236613
192,160,236830,5,0
248,192,237048,1,0
312,168,237265,2,0,B|240:216|192:160,1,131.249992083758
96,112,237917,5,0
152,192,238135,1,0
200,104,238352,1,0
256,192,238569,1,0
312,104,238787,1,0
368,192,239004,2,0,B|368:344,1,131.249992083758
264,328,239656,5,0
176,272,239874,1,0
264,208,240091,1,0
176,152,240308,1,0
264,88,240526,1,0
176,24,240743,1,0
200,24,240961,2,0,B|352:24,1,131.249992083758
408,32,241395,5,0
480,104,241613,1,0
408,184,241830,1,0
472,256,242048,1,0
400,328,242265,2,0,B|336:392|272:312,2,131.249992083758
360,264,243569,5,0
336,208,244439,2,0,B|192:208,1,131.249992083758
312,152,245091,1,0
296,152,245308,1,0
288,96,246178,2,0,B|144:96,1,131.249992083758
264,32,246831,1,0
248,32,247048,1,0
184,32,247700,1,0
168,32,247917,2,0,B|24:32,1,131.249992083758
32,96,248569,1,0
32,120,248786,1,0
32,184,249222,1,0
32,248,249656,1,0
32,312,250091,1,0
128,224,250526,5,0
240,288,250961,1,0
344,208,251395,1,0
392,120,251830,1,0
400,120,251975,1,0
408,120,252120,1,0
416,120,252265,1,0
288,88,252700,1,0
216,200,253135,1,0
280,312,253569,5,0
216,312,253787,1,0
152,312,254004,1,0
216,200,254439,1,0
120,112,254874,1,0
240,56,255308,1,0
248,56,255453,1,0
256,56,255598,1,0
264,56,255743,1,0
312,192,256178,1,0
448,144,256613,1,0
392,56,257048,5,0
336,56,257265,1,0
280,56,257482,1,0
152,56,257917,1,0
48,128,258352,1,0
144,216,258787,1,0
152,216,258932,1,0
160,216,259077,1,0
168,216,259222,1,0
296,216,259656,1,0
368,328,260091,1,0
456,264,260526,5,0
456,208,260743,1,0
456,152,260961,1,0
360,64,261395,1,0
232,64,261830,1,0
128,64,262265,1,0
120,64,262410,1,0
112,64,262555,1,0
104,64,262700,1,0
16,160,263135,1,0
56,280,263569,1,0
104,160,264004,1,0
168,280,264439,5,0
216,160,264874,1,0
264,280,265308,1,0
352,160,265743,2,0,B|408:160,6,43.7499973612528
392,280,266613,1,0
392,152,267048,1,0
432,88,267482,5,0
392,56,267700,1,0
352,88,267917,1,0
224,56,268352,1,0
160,144,268787,1,0
64,48,269222,2,0,B|64:96,6,43.7499973612528
120,176,270091,1,0
80,256,270526,1,0
112,320,270961,5,0
168,320,271178,1,0
224,320,271395,1,0
352,320,271830,1,0
416,320,272265,1,0
384,240,272700,1,0
376,240,272845,1,0
368,240,272990,1,0
360,240,273135,1,0
280,240,273569,1,0
200,240,274004,1,0
72,200,274439,1,0
72,128,274656,1,0
72,56,274874,1,0
168,56,275308,1,0
264,56,275743,1,0
368,56,276178,2,0,B|416:56,6,43.7499973612528
368,256,277048,1,0
168,256,277482,1,0
168,56,277917,1,0
264,152,278352,85,0
216,200,279222,2,0,B|80:96|400:96|280:208,1,262.499984167517
267,256,280526,2,0,B|224:256,1,43.7499973612528
224,256,280961,2,0,B|267:256,1,43.7499973612528
104,312,281395,2,0,B|-80:0|232:24|552:0|384:328,1,787.49995250255
393,308,283135,102,0,B|552:0|232:24|-80:0|104:312,1,787.49995250255
120,328,284946,70,0,B|72:208|72:208|104:80|104:80|224:24|224:24|328:72|328:72|368:192|368:192|288:352|288:352,1,787.49995250255
299,328,286613,70,0,B|304:336|368:192|368:192|328:72|328:72|224:24|224:24|104:80|104:80|72:208|72:208|120:328,1,787.49995250255
16,336,288352,70,0,B|496:336|496:336|496:8,1,787.49995250255
496,28,290091,70,0,B|16:28|16:28|16:336,1,787.49995250255
24,336,291540,1,0
32,336,291685,1,0
40,336,291830,1,0
48,336,291975,1,0
56,336,292120,1,0
64,336,292265,1,0
256,192,302265,12,0,303569
256,192,303859,12,0,305308
256,192,305526,12,0,306178
