osu file format v9

[General]
AudioFilename: Masayoshi Minoshima - Bad Apple!! feat. nomico.mp3
AudioLeadIn: 0
PreviewTime: -1
Countdown: 1
SampleSet: Normal
StackLeniency: 0.7
Mode: 0
LetterboxInBreaks: 1

[Editor]
Bookmarks: 13280
DistanceSpacing: 0.4
BeatDivisor: 4
GridSize: 8

[Metadata]
Title:Bad Apple!! (full ver.)
Artist:Masayoshi Minoshima feat. nomico
Creator:chibidanil
Version:Boring
Source:Touhou
Tags:touhou

[Difficulty]
HPDrainRate:3
CircleSize:4
OverallDifficulty:3
ApproachRate:2
SliderMultiplier:1.10000000596047
SliderTickRate:2

[Events]
//Background and Video events
0,0,"sakuya_izayoi____bad_apple____by_adiyasa-d3bfu3a.jpg"
//Break Periods
2,138999,151588
2,222048,235072
2,250746,255508
//Storyboard Layer 0 (Background)
//Storyboard Layer 1 (Fail)
//Storyboard Layer 2 (Pass)
//Storyboard Layer 3 (Foreground)
//Storyboard Sound Samples
//Background Colour Transformations
3,100,163,162,255

[TimingPoints]
167,434.782608695652,4,1,0,100,1,0
97492,-100,4,1,0,100,0,1
153148,-100,4,1,0,100,0,0
208804,-100,4,1,0,100,0,1
235762,-100,4,1,0,100,0,0
264460,-100,4,1,0,100,0,1
279244,-100,4,1,0,100,0,0

[Colours]
Combo1 : 64,128,128
Combo2 : 5,240,5
Combo3 : 5,5,240
Combo4 : 240,5,5
Combo5 : 255,128,255
Combo6 : 255,150,0

[HitObjects]
120,64,14007,1,0
224,64,14877,1,0
136,152,15747,1,0
256,152,16616,2,0,B|368:152,2,110.000000596047
136,152,18356,5,0
168,248,19225,1,0
264,256,20095,2,0,B|376:256,2,110.000000596047
168,248,21834,5,0
136,152,22704,1,0
232,152,23573,2,0,B|344:152,2,110.000000596047
136,144,25313,1,0
96,48,26182,1,0
192,48,27052,1,0
264,48,27487,1,0
336,48,27922,1,0
384,112,28791,1,0
296,112,29661,1,0
216,112,30530,5,0
160,112,30965,1,0
104,112,31400,1,0
128,192,32270,1,0
208,192,33139,1,0
288,192,34009,1,0
344,192,34444,1,0
400,192,34879,1,0
440,288,35748,5,0
352,288,36618,1,0
272,288,37487,1,0
216,288,37922,1,0
160,288,38357,1,0
104,200,39227,5,0
184,200,40096,1,0
272,200,40966,6,0,B|496:200,1,220.000001192094
432,288,42705,6,0,B|208:288,1,220.000001192094
72,288,44444,2,0,B|72:68,1,220.000001192094
160,64,46184,6,0,B|392:64,1,220.000001192094
432,136,47923,6,0,B|212:136,1,220.000001192094
88,88,49662,6,0,B|88:308,1,220.000001192094
176,312,51401,6,0,B|396:312,1,220.000001192094
480,320,53141,6,0,B|480:88,1,220.000001192094
392,96,54880,6,0,B|172:96,1,220.000001192094
104,152,56619,5,0
192,152,57489,1,0
136,224,58358,1,0
104,304,59228,1,0
192,304,60098,1,0
280,304,60967,2,0,B|400:304,3,110.000000596047
472,304,62707,5,0
472,216,63576,1,0
472,128,64446,1,0
472,40,65315,1,0
384,40,66185,1,0
296,40,67055,1,0
208,40,67924,2,0,B|16:40|16:184|208:184,1,330.000001788141
256,192,69664,5,0
344,192,70533,1,0
432,192,71403,1,0
432,280,72273,1,0
344,280,73142,1,0
256,280,74012,1,0
168,280,74881,2,0,B|8:224|8:136|216:40,1,357.500001937152
232,64,76621,5,0
344,64,77490,1,0
416,64,77925,2,0,B|512:72|512:208|400:200,1,220.000001192094
344,200,79230,1,0
248,200,80099,1,0
160,200,80969,1,0
72,192,81838,2,0,B|72:80,3,110.000000596047
152,80,83578,6,0,B|384:80,1,220.000001192094
464,80,85317,1,0
464,168,86187,1,0
464,256,87056,1,0
376,256,87926,1,0
288,256,88795,2,0,B|56:256,1,220.000001192094
64,80,90535,5,0
152,152,91404,1,0
240,80,92274,1,0
328,16,93144,1,0
416,80,94013,1,0
416,168,94883,1,0
416,256,95752,2,0,B|176:256,1,220.000001192094
104,256,97492,5,0
64,168,98361,1,0
104,80,99231,2,0,B|216:0|304:80,1,220.000000596047
392,88,100970,6,0,B|504:168|392:280,1,220.000000596047
280,256,102709,2,0,B|176:336|64:240,1,220.000000596047
80,160,104449,5,0
80,72,105318,1,0
160,32,106188,1,0
256,72,107058,1,0
344,72,107927,2,0,B|496:136|336:224,1,220.000000596047
256,224,109666,1,0
168,280,110536,1,0
80,224,111406,1,0
80,136,112275,6,2,B|192:136,1,110.000000298024,10|0
320,136,114015,2,0,B|440:136,1,110.000000298024,10|0
448,264,115754,2,0,B|328:264,1,110.000000298024,10|0
248,264,117058,2,0,B|128:264,1,110.000000298024,8|10
48,264,118363,6,2,B|48:40,1,220.000000596047,2|8
136,40,120102,2,2,B|368:40,1,220.000000596047,2|8
448,40,121841,2,2,B|520:128|456:248,1,220.000000596047,2|8
368,248,123581,2,0,B|240:248,2,110.000000298024
457,245,125320,2,2,B|520:128|448:40,1,220.000000596047,2|8
356,40,127059,2,2,B|136:40,1,220.000000596047,2|8
48,44,128798,2,2,B|48:264,1,220.000000596047,2|8
136,264,130538,2,0,B|256:264,2,110.000000298024
128,176,132277,5,0
216,176,133146,1,0
216,88,134016,1,0
304,88,134886,1,0
256,192,135755,12,0,137495
216,192,138364,5,0
304,192,138799,1,0
56,72,153148,6,0,B|184:72,6,110.000000298024
104,144,156626,6,0,B|232:144,6,110.000000298024
152,216,160105,6,0,B|280:216,6,110.000000298024
288,136,163583,6,0,B|416:136,6,110.000000298024
56,56,167062,5,0
144,56,167932,1,0
88,128,168801,1,0
176,128,169671,1,0
128,200,170540,1,0
216,200,171410,1,0
168,272,172280,2,0,B|288:272,3,110.000000298024
352,272,174019,5,0
440,272,174889,1,0
384,200,175758,1,0
472,200,176628,1,0
416,128,177497,1,0
416,40,178367,1,0
336,8,179237,1,0
256,8,179671,2,0,B|128:8,2,110.000000298024
256,56,180976,5,0
256,128,181846,1,0
208,208,182715,1,0
256,304,183585,1,0
320,208,184454,1,0
256,128,185324,1,0
256,40,186194,1,0
168,40,187063,2,0,B|40:104|176:232,1,220.000000596047
248,216,188803,5,0
336,216,189672,1,0
424,216,190542,1,0
512,216,191411,1,0
480,136,192281,1,0
392,136,193151,2,8,B|264:136,3,110.000000298024
200,136,194890,1,0
112,136,195760,1,0
24,136,196629,1,0
72,64,197499,1,0
160,64,198368,1,0
248,64,199238,1,0
336,64,200108,2,0,B|472:64|472:208,1,220.000000596047
472,288,201847,6,0,B|224:288,1,220.000000596047
160,288,203586,2,0,B|24:288|24:152,1,220.000000596047
32,64,205325,2,0,B|256:64,1,220.000000596047
344,64,207065,1,0
432,64,207934,1,0
432,152,208804,6,0,B|320:152,2,110.000000298024
432,240,210543,2,0,B|304:240,2,110.000000298024
432,328,212282,2,0,B|312:328,2,110.000000298024
432,240,214022,2,0,B|304:240,2,110.000000298024
488,176,215761,2,0,B|376:96|264:192,1,220.000000596047
312,96,217500,2,0,B|200:16|88:112,1,220.000000596047
256,192,219240,12,0,221848
56,56,236632,5,0
144,56,237502,2,0,B|272:56,1,110.000000298024,2|0
224,128,238371,1,0
312,128,239241,2,0,B|432:128,1,110.000000298024
392,208,240111,1,0
304,208,240980,2,0,B|184:208,1,110.000000298024
136,296,241850,2,0,B|408:296,1,220.000000596047
440,296,243589,5,0
440,224,244459,2,0,B|440:104,1,110.000000298024
440,40,245328,1,0
352,40,246198,2,0,B|224:40,1,110.000000298024
168,40,247068,1,0
168,128,247937,1,0
168,216,248807,2,0,B|280:216,2,110.000000298024
160,296,250111,1,0
232,296,250546,1,0
80,106,257068,6,0,B|80:216,2,110.000000298024
80,32,258373,1,0
168,32,259242,2,0,B|288:32,1,110.000000298024
352,32,260112,1,0
464,32,260982,2,0,B|464:280,1,220.000000596047
376,248,262721,2,0,B|232:248,2,110.000000298024
448,296,264460,2,0,B|496:192|440:80,1,220.000000596047
360,48,266199,2,0,B|251:-6|147:41,1,220.000000596047
72,88,267939,2,0,B|17:196|65:300,1,220.000000596047
155,326,269678,2,0,B|259:374|368:320,1,220.000000596047
320,248,271417,1,0
256,192,272287,1,0
184,248,273156,1,0
120,184,274026,1,0
72,112,274896,1,0
136,48,275765,1,0
224,48,276635,1,0
296,48,277070,1,0
368,48,277505,1,0
336,112,277939,1,0
264,112,278374,1,0
