osu file format v9

[General]
AudioFilename: StrawbellyCake - Bad Apple.mp3
AudioLeadIn: 0
PreviewTime: 57086
Countdown: 0
SampleSet: Soft
StackLeniency: 0.7
Mode: 0
LetterboxInBreaks: 1

[Editor]
DistanceSpacing: 0.9
BeatDivisor: 4
GridSize: 4

[Metadata]
Title:Bad Apple!! (German Version)
Artist:Masayoshi Minoshima feat. StrawbellyCake
Creator:Larto
Version:Normal
Source:Touhou
Tags:touhou bad apple shadow art masayoshi minoshima nomico OnosakiHito

[Difficulty]
HPDrainRate:3
CircleSize:3
OverallDifficulty:3
ApproachRate:3
SliderMultiplier:1.6
SliderTickRate:2

[Events]
//Background and Video events
0,0,"Touhou___Bad_Apple_Wallpaper_by_ieka95.jpg"
Video,0,"rena2.flv"
//Break Periods
2,112958,124361
//Storyboard Layer 0 (Background)
//Storyboard Layer 1 (Fail)
//Storyboard Layer 2 (Pass)
//Storyboard Layer 3 (Foreground)
//Storyboard Sound Samples
//Background Colour Transformations
3,100,163,162,255

[TimingPoints]
1454,434.782608695652,4,1,0,51,1,0
85015,-100,4,2,0,66,0,0
110994,-100,4,2,0,0,0,0
111102,-100,4,1,0,51,0,0
111868,-100,4,1,0,51,0,1
112742,-100,4,1,0,51,0,0
126683,434.782608695652,4,1,0,51,1,0
182196,-100,4,1,0,71,0,0
182364,434.782608695652,4,2,0,69,1,0
210180,-100,4,1,0,40,0,0

[Colours]
Combo1 : 254,95,71
Combo2 : 216,226,84
Combo3 : 124,254,37
Combo4 : 248,198,48

[HitObjects]
168,192,28410,5,4
344,192,28845,1,4
256,48,29280,5,4
176,40,29497,1,0
104,80,29714,1,8
8,192,30149,1,2
104,304,30584,1,8
256,336,31018,1,6
328,192,31453,1,8
472,128,31888,2,2,B|512:40|456:0|400:0,2,160,2|2|6
320,192,33193,5,8
256,136,33410,1,0
192,192,33627,1,2
256,336,34062,1,8
120,256,34497,1,6
168,104,34932,1,8
344,104,35367,1,0
392,256,35801,1,0
232,288,36236,6,0,B|176:360|72:352|72:336,1,160,4|8
24,200,37106,2,0,B|80:128|184:136|184:152,1,160,6|8
328,160,37975,1,2
256,16,38410,1,8
184,160,38845,1,2
256,192,39062,1,0
256,272,39280,1,8
336,384,39714,6,4,B|160:384,2,160,4|8|2
368,224,41019,1,8
328,152,41236,1,0
360,80,41453,1,2
256,192,41888,1,8
152,80,42323,1,2
256,192,42758,1,2
352,320,43193,6,4,B|456:320|512:240|512:152|512:144,1,240,4|0
432,168,44062,2,4,B|433:184|433:96|377:16|273:16,1,240,6|0
252,100,44932,2,2,B|220:72|180:60|140:72|108:100,1,160,2|8
112,260,45801,2,0,B|144:288|184:300|224:288|256:260,1,160,2|2
364,140,46671,5,4
256,20,47106,1,8
148,140,47540,1,6
256,256,47975,1,8
308,316,48193,1,0
228,332,48410,2,2,B|132:364|60:332|16:256|20:224,1,240,2|0
52,176,49280,2,2,B|148:144|220:176|264:252|260:284,1,240,2|0
336,240,50149,5,4
256,112,50584,1,8
176,240,51019,1,6
256,112,51453,1,8
400,184,51888,2,2,B|452:256|396:320|348:344,1,160,2|8
220,296,52758,2,2,B|168:224|224:160|272:136,1,160
384,76,53627,5,4
304,76,53845,1,0
224,76,54062,1,8
64,80,54497,2,2,B|-32:80|-24:188,1,160
128,236,55367,1,6
180,384,55801,1,2
332,384,56236,1,6
384,236,56670,1,2
344,64,57106,6,2,B|320:140|256:144|192:140|168:64,1,240,2|0
256,48,57975,2,0,B|256:224,1,160,2|8
396,288,58845,1,6
256,364,59280,1,8
116,288,59714,1,2
80,132,60149,5,8
156,160,60367,1,0
176,84,60584,2,6,B|348:84,1,160,6|2
336,244,61453,2,6,B|164:244,1,160,6|8
120,92,62323,1,2
176,36,62540,1,0
256,24,62758,1,8
392,92,63193,1,2
340,244,63627,5,8
180,248,64062,2,0,B|136:196|184:80|276:76|304:96,1,240,6|0
312,168,64932,1,2
256,320,65367,1,8
100,324,65801,1,6
28,184,66236,1,8
100,60,66671,1,2
256,28,67106,5,8
300,96,67323,1,0
212,96,67540,1,6
120,228,67975,1,8
256,312,68410,1,2
392,228,68845,1,8
452,172,69062,1,0
379,132,69280,2,2,B|338:57|289:27|222:27|173:57|132:132,2,320,2|2|6
448,296,71453,5,2
316,180,71888,1,2
332,356,72323,1,8
256,320,72540,1,0
180,356,72758,5,6
196,180,73193,1,2
64,296,73628,1,2
76,120,74062,5,8
112,40,74280,1,0
200,40,74497,2,0,B|376:40,1,160,6|2
336,192,75367,2,0,B|160:192,1,160,6|8
152,344,76236,6,0,B|312:344,1,160,6|2
396,320,76888,1,0
484,340,77106,1,2
456,168,77540,5,8
428,84,77758,1,0
368,148,77975,1,6
256,284,78410,1,8
144,148,78845,1,2
256,12,79280,5,8
300,88,79497,1,0
212,88,79714,1,6
92,220,80149,1,8
256,164,80584,1,2
420,220,81019,5,8
460,300,81236,1,0
388,352,81453,2,6,B|336:268|256:256|176:268|124:352,2,320
372,176,83627,1,8
140,176,84062,1,6
256,28,84932,5,4
64,260,85801,2,2,B|176:264|240:180|256:132,1,240,2|0
176,108,86671,1,4
256,268,87106,1,2
336,108,87540,1,6
476,216,87975,5,2
372,336,88410,2,2,B|288:376|184:376|128:352|84:284|80:252,1,320
184,128,89714,5,2
328,128,90149,1,0
328,256,90584,1,2
184,256,91019,1,2
148,108,91453,5,2
180,32,91671,1,0
256,8,91888,2,4,B|360:-4|440:40|464:124|464:204,1,320,4|2
364,276,93193,5,2
332,352,93411,1,0
256,376,93628,2,4,B|152:388|72:344|48:260|48:180,1,320,4|2
192,196,94932,5,2
256,152,95149,1,0
320,196,95367,1,6
388,68,95801,1,0
256,8,96236,1,2
332,116,96671,5,0
184,116,97106,1,2
184,268,97540,1,0
328,268,97975,1,2
256,376,98410,5,0
112,372,98845,2,0,B|24:336|-20:236|16:148,1,240,4|0
72,136,99714,1,2
188,220,100149,2,0,B|216:180|256:180|296:180|324:220,2,160,0|2|0
256,104,101453,1,2
400,96,101888,5,0
508,192,102323,1,6
472,332,102758,1,0
404,376,102975,1,0
324,376,103193,1,2
324,220,103627,2,0,B|296:180|256:180|216:180|188:220,2,160,0|2|0
256,104,104931,1,2
128,148,105367,5,0
174,22,105801,2,2,B|60:59|38:88|-1:192|38:295|60:324|174:361,1,480
337,361,107540,2,2,B|451:324|473:295|513:192|473:88|451:59|337:22,1,480
256,192,109280,12,0,111019
256,72,111888,5,6
359,252,112323,1,6
152,252,112758,1,6
344,192,125801,5,4
168,192,126236,1,4
44,88,126671,6,0,B|92:12|164:4|208:12,1,160,4|8
336,9,127552,2,0,B|348:4|432:24|468:88,1,160,6|8
348,192,128422,1,2
164,192,128856,1,8
196,348,129291,1,2
256,296,129509,1,8
316,348,129726,1,8
256,200,130161,5,6
104,276,130596,1,8
104,116,131030,1,2
256,40,131465,1,8
348,172,131900,5,6
164,172,132335,1,2
348,256,132769,1,6
164,256,133204,1,8
96,100,133639,6,0,B|180:40|284:96|260:216,1,240,6|0
336,256,134509,2,0,B|252:316|148:260|172:140,1,240,6|0
264,188,135378,1,2
344,48,135813,1,8
416,192,136248,1,2
488,48,136683,1,2
356,132,137117,6,4,B|320:144|320:144|316:112|256:80|196:112|192:144|192:144|156:132,1,240,4|0
160,216,137987,2,0,B|184:276|256:296|328:276|352:216,1,240,2|0
256,196,138856,1,6
144,320,139291,1,2
32,196,139726,1,6
144,72,140161,1,2
304,56,140596,6,0,B|308:108|356:180|484:208,1,240,4|0
504,132,141465,1,2
420,276,141900,1,8
256,264,142335,1,2
92,276,142769,1,8
8,132,143204,1,2
172,112,143639,1,2
340,112,144074,6,4,B|336:168|256:224|176:168|172:112,1,240,4|0
256,96,144943,2,0,B|256:280,1,160,2|8
328,384,145813,1,6
184,384,146248,1,2
328,384,146683,1,6
184,384,147117,1,8
64,280,147552,6,0,B|52:192|156:168|208:216|240:132|228:100,1,240,4|0
184,64,148422,2,2,B|208:36|256:28|304:36|328:68,1,160
328,228,149291,2,2,B|304:256|256:264|208:256|184:224,1,160
256,144,150161,1,2
256,144,150378,1,0
256,144,150596,1,8
408,192,151030,5,4
344,336,151465,1,8
168,336,151900,1,6
104,192,152335,1,8
184,52,152769,5,2
328,52,153204,1,2
324,212,153639,1,2
180,212,154074,1,2
76,332,154509,5,2
156,332,154726,1,0
236,332,154943,1,8
392,304,155378,2,0,B|448:208|380:140,1,160,6|8
256,72,156248,2,2,B|188:100|168:176|256:192|344:208|324:284|256:312,1,320
96,304,157552,5,8
136,148,157987,1,6
256,252,158422,1,8
296,96,158856,1,2
340,248,159291,5,8
300,320,159509,1,0
220,328,159726,2,2,B|116:360|4:288|20:144,1,320
192,96,161030,5,8
256,244,161465,1,6
320,96,161900,1,8
256,244,162335,1,6
112,316,162769,5,8
60,252,162987,1,0
140,236,163204,1,2
256,152,163639,1,8
372,236,164074,1,2
256,152,164509,1,8
80,184,164943,6,2,B|72:84|130:34|152:20|224:20,1,240,6|0
299,20,165813,2,2,B|360:20|381:34|440:84|432:184,1,240,6|0
356,208,166683,1,2
256,84,167117,1,8
156,208,167552,2,2,B|460:356,1,320,2|6
480,196,168856,5,6
384,72,169291,1,2
296,204,169726,1,8
256,132,169943,1,0
216,204,170161,5,6
128,72,170596,1,2
32,196,171030,1,2
116,332,171465,5,8
180,284,171683,1,0
248,324,171900,2,2,B|332:352|408:288,1,160,6|2
408,136,172769,2,2,B|324:108|248:172,1,160,2|8
100,48,173639,6,2,B|184:20|260:84,1,160
260,236,174508,2,2,B|176:264|100:200,1,160,2|8
156,140,175161,1,0
204,76,175378,5,2
344,152,175813,1,2
204,232,176248,1,2
344,308,176683,1,8
256,308,176900,1,0
168,308,177117,5,2
308,232,177552,1,2
168,152,177987,1,2
308,76,178422,1,8
256,16,178639,1,0
204,76,178856,1,6
256,192,178965,12,4,181465
200,88,182364,6,2,B|144:88|83:133|78:191|83:249|144:295|197:295,1,320
256,192,183668,1,0
312,88,184103,2,2,B|367:88|428:133|433:191|428:249|367:295|314:295,1,320
256,192,185407,1,0
84,188,185842,6,2,B|81:241|87:391|210:410|333:391|339:241|256:192,1,480,2|0
256,192,187581,2,2,B|173:240|179:390|302:409|425:390|431:240|428:187,1,480,2|0
392,116,189103,1,0
336,60,189320,5,4
256,192,189755,1,2
112,260,190190,2,2,B|168:304|220:336|292:332|340:300,1,240,2|0
400,264,191059,5,4
256,192,191494,1,2
176,60,191929,1,2
44,132,192364,1,0
44,276,192798,6,2,B|33:339|132:354|182:300|118:236|168:183|267:197|257:261,1,320
256,372,194103,1,0
256,260,194537,2,2,B|245:197|344:183|394:236|330:300|380:353|479:339|469:275,1,320
424,124,195842,5,2
376,60,196059,1,0
312,12,196277,1,4
256,128,196711,1,0
256,256,197146,1,2
88,260,197581,5,2
136,324,197798,1,0
200,372,198016,1,4
256,256,198450,1,0
256,128,198885,1,2
120,172,199320,5,2
48,120,199537,1,0
107,61,199755,2,2,B|140:29|187:11|256:4|324:11|371:29|404:61,1,320
392,212,201059,5,2
464,264,201276,1,0
404,322,201494,2,2,B|371:354|324:372|256:379|187:372|140:354|107:322,1,320
40,192,202798,5,0
164,116,203233,2,2,B|116:208|152:304|256:336|360:304|396:208|348:116,1,480,2|0
256,32,204972,2,2,B|256:388,2,320,2|2|6
256,192,206820,12,4,210190
