osu file format v9

[General]
AudioFilename: StrawbellyCake - Bad Apple.mp3
AudioLeadIn: 0
PreviewTime: 57086
Countdown: 0
SampleSet: Normal
StackLeniency: 0.7
Mode: 0
LetterboxInBreaks: 1

[Editor]
DistanceSpacing: 0.9
BeatDivisor: 4
GridSize: 4

[Metadata]
Title:Bad Apple!! (German Version)
Artist:Masayoshi Minoshima feat. StrawbellyCake
Creator:Larto
Version:Hard
Source:Touhou
Tags:touhou bad apple shadow art masayoshi minoshima nomico OnosakiHito

[Difficulty]
HPDrainRate:5
CircleSize:4
OverallDifficulty:6
ApproachRate:6
SliderMultiplier:1.92
SliderTickRate:2

[Events]
//Background and Video events
0,0,"Touhou___Bad_Apple_Wallpaper_by_ieka95.jpg"
Video,0,"rena2.flv"
//Break Periods
2,112958,124751
//Storyboard Layer 0 (Background)
//Storyboard Layer 1 (Fail)
//Storyboard Layer 2 (Pass)
//Storyboard Layer 3 (Foreground)
//Storyboard Sound Samples
//Background Colour Transformations
3,100,163,162,255

[TimingPoints]
1454,434.782608695652,4,1,0,51,1,0
85015,-100,4,2,0,66,0,0
110994,-100,4,2,0,0,0,0
111102,-100,4,1,0,51,0,0
111868,-100,4,1,0,51,0,1
112742,-100,4,1,0,51,0,0
126683,434.782608695652,4,1,0,51,1,0
182196,-100,4,1,0,71,0,0
182364,434.782608695652,4,2,0,69,1,0
210180,-100,4,1,0,40,0,0

[Colours]
Combo1 : 254,95,71
Combo2 : 216,226,84
Combo3 : 124,254,37
Combo4 : 248,198,48

[HitObjects]
114,192,28410,6,0,B|99:115|176:76,1,128,4|0
228,120,28845,2,0,B|300:84|288:8,1,128,4|0
364,52,29280,5,4
364,228,29714,1,8
321,304,29932,1,0
241,300,30149,2,2,B|195:310|134:308|108:240|120:200,1,192,2|8
120,116,30801,1,0
208,84,31019,2,2,B|254:74|314:76|341:144|329:184,1,192,2|8
448,315,31888,5,2
412,246,32106,1,0
463,188,32323,2,2,B|459:101|357:79|325:108,1,192,2|4
299,271,33193,5,8
212,271,33410,1,0
197,192,33627,2,2,B|197:137|256:92|314:137|314:192,2,192,2|2|6
45,104,34932,1,8
107,43,35149,1,0
186,79,35367,1,2
340,80,35801,1,2
473,166,36236,6,0,B|470:239|419:297|339:297,1,192,4|8
280,300,36888,1,0
256,228,37106,2,2,B|240:160|172:152|116:160|96:192,1,192
45,39,37975,1,6
216,83,38410,1,8
256,253,38845,1,2
179,293,39062,1,0
92,308,39280,2,0,B|56:221,1,96,2|0
32,148,39714,5,4
154,32,40149,1,8
179,115,40367,1,0
259,144,40584,2,2,B|344:172|401:97|394:50,1,192
320,4,41236,1,0
256,64,41453,1,6
144,220,41888,1,2
256,376,42323,1,2
368,220,42758,1,2
260,60,43193,6,0,B|228:104|164:96,1,96,4|0
100,92,43627,1,8
44,236,44062,1,2
188,284,44497,1,8
200,208,44714,1,0
272,180,44932,2,2,B|340:124|412:152|436:212,1,192
348,80,45801,2,2,B|280:136|208:108|184:48,1,192,6|2
92,176,46671,6,0,B|92:288,1,96,4|0
92,348,47106,2,8,B|160:304|244:332|264:384,2,192,8|2|8
176,216,48410,1,6
336,168,48845,1,8
176,124,49280,1,6
256,100,49497,1,0
336,76,49715,1,2
400,216,50149,6,0,B|392:288|340:320|272:324|248:308,1,192,4|8
112,272,51019,2,0,B|120:200|172:168|240:164|264:180,1,192,6|8
260,20,51888,1,2
348,152,52323,1,8
168,152,52758,1,2
212,212,52975,1,0
256,152,53193,1,8
148,88,53627,5,4
40,192,54062,1,8
148,296,54497,1,6
256,192,54932,1,8
364,88,55367,1,6
472,192,55802,1,8
364,296,56237,1,2
256,192,56672,1,8
168,68,57106,6,0,B|228:80|260:24,1,96,2|0
316,76,57540,1,2
184,152,57975,2,0,B|144:216|52:220|0:176,2,192,2|8|6
256,184,59062,1,0
324,216,59280,1,8
460,280,59714,2,2,B|424:356|332:368|276:328,1,192
144,364,60584,6,0,B|184:308|128:244,1,96,6|0
108,208,61019,2,8,B|32:156|72:52|144:40,1,192,8|2
256,116,61888,1,8
256,192,62106,1,0
328,216,62323,2,2,B|312:264|256:296|200:264|184:216,2,192
420,92,63627,5,8
480,140,63845,1,0
488,64,64062,1,6
336,28,64497,1,8
256,156,64932,1,2
176,28,65367,1,8
108,64,65584,1,0
56,120,65801,2,2,B|40:180|88:272|208:272|256:220,1,288,2|0
292,292,66671,1,2
256,156,67106,5,8
220,292,67540,1,6
320,216,67975,1,8
192,216,68410,1,2
48,164,68845,1,8
92,100,69062,1,0
156,56,69280,2,2,B|252:32|336:48|396:100|428:168,1,288
448,208,70149,2,0,B|276:208,1,128
288,276,70584,2,0,B|116:276,1,128
112,336,71019,5,6
40,192,71453,1,8
112,48,71888,1,6
184,192,72323,1,8
256,336,72758,5,6
328,192,73192,1,8
256,48,73627,1,6
184,192,74062,1,8
256,220,74280,1,0
316,268,74497,6,0,B|392:296|464:228|428:140|416:152,1,192,6|8
304,68,75367,2,0,B|228:40|156:108|192:196|204:184,1,192,6|8
72,268,76236,6,0,B|168:312,1,96,6|0
232,332,76671,2,0,B|320:268,1,96,2|0
372,232,77106,2,0,B|500:264,1,96,2|0
500,188,77540,2,0,B|444:100,1,96,8|0
408,40,77975,5,6
256,96,78410,1,8
104,40,78845,1,6
256,96,79280,1,8
320,236,79714,6,0,B|288:352,1,96,2|0
217,328,80149,2,0,B|192:236,1,96,2|0
172,160,80584,2,2,B|200:148|200:148|216:172|256:192|296:172|312:148|312:148|340:160,1,192,2|8
404,120,81236,1,0
372,48,81453,5,6
256,80,81888,1,8
140,48,82323,1,6
256,80,82758,1,8
136,192,83193,6,6,B|124:276|200:320|256:332|312:320|388:276|376:196,1,288,6|0
400,224,84062,2,0,B|472:104,1,128,4|0
400,84,84497,2,0,B|328:204,1,128,4|0
272,156,84932,5,4
144,88,85367,1,2
100,224,85801,2,2,B|76:276|124:340|196:316|216:268,1,192
184,200,86453,1,0
120,152,86671,1,4
256,216,87106,1,2
392,152,87540,1,2
256,88,87975,5,0
336,204,88410,2,0,B|392:292|336:356|292:364,1,192,4|0
256,304,89062,1,0
215,363,89280,2,0,B|176:356|120:292|176:204,1,192,4|0
256,88,90149,1,0
252,240,90584,2,2,B|200:224|204:120|296:220|288:100|256:88,1,192
100,84,91453,5,2
56,148,91671,1,0
32,220,91888,2,2,B|28:296|84:352|160:352,1,192
300,352,92758,2,2,B|360:352|416:296|412:220,1,192,2|0
116,216,93627,2,2,B|112:292|168:348|244:348,1,192
384,348,94497,2,2,B|444:348|500:292|496:216,1,192,2|0
412,44,95367,5,4
328,36,95584,1,0
252,72,95801,2,0,B|156:128|68:96|56:64,1,192,2|2
188,208,96671,1,0
24,152,97106,1,2
96,308,97540,1,4
180,300,97757,1,0
256,336,97974,2,0,B|352:392|440:360|452:328,1,192,2|0
420,172,98845,6,0,B|408:92|336:116|276:140|264:40,1,192,4|8
204,24,99497,1,0
180,108,99714,2,2,B|160:176|96:208|24:184,1,192
8,268,100367,1,0
72,328,100584,2,2,B|164:248|280:292,2,192
180,192,101888,5,2
256,212,102106,1,0
332,192,102323,1,6
256,36,102758,1,0
180,192,103193,1,2
24,264,103627,5,2
80,332,103845,1,0
160,364,104062,2,0,B|232:376|308:368|360:320|380:264|376:224,1,288,4|0
372,152,104932,1,2
260,20,105367,6,0,B|256:128|164:128|112:104,1,192,0|6
60,72,106019,1,0
60,160,106236,2,0,B|60:360,1,192,0|2
228,304,107106,1,2
228,304,107323,1,0
228,304,107540,2,4,B|232:232|296:228|312:276|376:244|360:176,2,192,4|2|4
188,136,108845,5,2
260,104,109062,1,0
324,136,109280,1,2
256,192,109388,12,0,111019
44,192,111888,5,6
256,72,112323,1,6
468,192,112758,1,6
56,120,125801,6,0,B|80:56|144:40|196:56,1,128,6|0
228,52,126236,2,0,B|252:116|316:132|368:116,1,128,6|0
400,124,126683,5,4
420,200,126900,1,0
352,236,127117,1,8
188,296,127552,2,2,B|108:308|44:224|56:152,1,192
100,112,128204,1,0
176,152,128422,2,2,B|256:204|256:204|336:152,1,192,2|8
176,72,129291,2,2,B|256:20|256:20|336:72,1,192,6|2
412,112,129943,1,0
468,176,130161,6,0,B|300:292,2,192,4|8|2
300,136,131465,1,8
256,200,131683,1,0
212,136,131900,1,2
332,208,132335,1,8
180,208,132769,1,2
256,72,133204,1,2
244,260,133639,6,0,B|176:320|96:300|68:248,1,192,4|8
44,188,134291,1,0
8,120,134509,2,2,B|60:36|184:20,1,192
345,22,135378,2,2,B|448:40|504:120,1,192,6|8
368,192,136248,1,2
300,228,136465,1,0
232,264,136683,1,8
108,356,137117,6,0,B|180:272|140:168,1,192,6|8
368,176,137987,2,0,B|336:276|404:356,1,192,6|8
324,376,138639,1,0
256,344,138856,1,6
256,192,139291,1,8
256,40,139726,1,6
256,192,140161,1,2
120,264,140596,5,4
152,196,140813,1,0
84,160,141030,2,0,B|140:96|124:32|52:-4,1,192,8|2
224,28,141900,2,0,B|168:92|184:156|256:192,1,192,8|6
384,260,142769,1,8
440,116,143204,1,2
364,104,143422,1,0
288,88,143639,1,2
256,224,144074,6,4,B|307:260|274:307|237:296|204:348|256:384,2,192,4|8|2
128,136,145378,1,8
184,84,145596,1,0
256,60,145813,2,2,B|320:40|388:100|392:176,1,192
332,216,146465,1,0
256,216,146683,2,2,B|192:196|124:256|120:332,1,192
36,192,147552,5,4
80,128,147769,1,0
148,92,147987,1,8
300,68,148422,2,2,B|412:64|492:152|488:172,1,192
488,216,149074,1,0
420,252,149291,2,2,B|308:256|228:168|232:148,1,192
188,312,150161,1,2
256,348,150378,1,0
324,312,150596,1,8
256,176,151030,6,0,B|256:56|120:32,2,192,6|8|2
116,244,152335,1,8
116,244,152552,1,0
116,244,152769,1,2
256,308,153204,1,2
396,244,153639,1,2
256,180,154074,1,2
140,80,154509,6,0,B|212:80|244:12,1,96,6|0
300,28,154943,2,0,B|304:116|376:128,1,96,8|0
408,140,155378,2,2,B|408:232|360:276|296:300,1,192
164,332,156248,1,6
112,276,156465,1,0
176,232,156683,1,8
188,80,157117,2,2,B|188:120|256:172|324:120|324:80,1,192
396,56,157769,5,0
424,128,157987,2,4,B|420:204|340:252|268:248,1,192,4|8
88,128,158856,2,4,B|92:204|172:252|244:248,1,192,6|8
256,180,159509,1,0
256,180,159726,2,2,B|256:380,2,192
216,36,161030,5,8
160,100,161248,1,0
84,104,161465,2,2,B|16:192|84:280,1,192,6|2
236,280,162335,2,2,B|304:192|236:104,1,192,2|8
260,24,162987,1,0
275,104,163204,2,2,B|208:192|276:280,1,192
428,280,164074,2,2,B|496:192|428:104,1,192,2|8
364,60,164726,5,0
336,132,164943,1,6
256,264,165378,1,8
176,132,165813,1,2
256,264,166248,1,8
188,304,166465,1,0
192,228,166683,1,2
256,368,167117,1,8
320,228,167552,2,0,B|320:60,1,128,2|0
272,44,167987,2,0,B|124:120,1,128,2|0
96,136,168422,5,6
144,300,168856,1,8
188,232,169074,1,0
256,196,169291,1,2
368,300,169726,1,8
416,136,170161,5,6
368,300,170596,1,8
324,232,170814,1,0
256,196,171031,1,2
144,300,171465,1,8
72,164,171900,6,0,B|112:56|232:32,1,192,6|8
440,164,172769,2,0,B|400:56|280:32,1,192,6|8
200,152,173639,1,2
256,204,173856,1,0
312,152,174074,1,2
256,280,174509,1,2
104,304,174943,6,0,B|44:268|44:204,1,96,8|0
46,153,175378,2,2,B|56:112|104:80,1,96,6|0
132,156,175813,1,8
256,248,176248,1,2
380,156,176683,1,8
312,124,176900,1,0
256,72,177117,5,6
180,204,177552,1,8
332,204,177987,1,2
304,356,178422,1,8
256,296,178639,1,0
208,356,178856,1,6
328,284,179291,1,8
184,284,179726,1,2
256,148,180161,1,8
368,84,180596,6,0,B|296:4,1,96,6|0
304,12,181030,2,0,B|196:11,1,96,2|0
208,12,181465,2,4,B|144:84,1,96,6|0
96,144,181900,5,8
196,260,182335,1,4
256,216,182581,1,0
316,260,182798,1,8
416,144,183233,1,2
256,120,183668,5,8
196,260,184103,1,4
256,216,184320,1,0
316,260,184537,1,8
256,380,184972,1,2
112,328,185407,5,8
68,264,185624,1,0
36,192,185842,1,4
112,56,186277,1,8
256,128,186711,1,2
400,56,187146,5,8
444,120,187363,1,0
476,192,187581,1,4
400,328,188016,1,8
256,256,188450,1,2
108,296,188885,6,0,B|32:224,1,96,8|0
38,150,189320,2,0,B|108:84,1,96,4|0
184,124,189755,2,2,B|124:144|108:192|124:240|184:260,1,192
404,296,190624,6,0,B|480:224,1,96,8|0
473,150,191059,2,0,B|404:84,1,96,4|0
328,124,191494,2,2,B|388:144|404:192|388:240|328:260,1,192
256,344,192364,6,0,B|164:296,1,96,8|0
256,256,192798,2,0,B|348:208,1,96,4|0
256,172,193233,1,2
256,172,193450,1,0
256,172,193668,1,2
104,156,194103,5,8
176,12,194537,1,2
336,12,194972,1,2
408,156,195406,1,4
436,308,195842,6,0,B|316:312,1,96,2|0
332,224,196277,2,4,B|212:228,1,96,6|0
232,316,196711,2,4,B|112:320,1,96,2|0
40,352,197146,1,4
60,200,197581,6,0,B|180:196,1,96,2|0
152,108,198016,2,4,B|272:104,1,96,6|0
264,192,198450,2,4,B|384:188,1,96,2|0
464,196,198885,1,4
444,24,199320,5,2
368,40,199537,1,0
296,12,199755,1,4
256,160,200190,1,2
216,12,200624,1,2
184,160,201059,6,0,B|184:268,1,96,2|0
256,240,201494,2,4,B|256:348,1,96,6|0
328,256,201929,2,0,B|328:160,2,96,2|0|2
440,152,202798,5,2
412,80,203016,1,0
344,40,203233,2,2,B|224:12|132:64|104:156|100:160,1,288,2|0
180,192,204103,1,4
180,344,204537,5,2
256,344,204755,1,0
332,344,204972,1,4
104,344,205407,1,2
408,344,205842,1,4
256,232,206277,5,2
256,156,206494,1,0
256,80,206711,1,2
256,192,206820,12,4,210190
