osu file format v9

[General]
AudioFilename: StrawbellyCake - Bad Apple.mp3
AudioLeadIn: 0
PreviewTime: 57086
Countdown: 0
SampleSet: Normal
StackLeniency: 0.7
Mode: 0
LetterboxInBreaks: 1

[Editor]
DistanceSpacing: 1.1
BeatDivisor: 4
GridSize: 4

[Metadata]
Title:Bad Apple!! (German Version)
Artist:Masayoshi Minoshima feat. StrawbellyCake
Creator:Larto
Version:Extra
Source:Touhou
Tags:touhou bad apple shadow art masayoshi minoshima nomico OnosakiHito

[Difficulty]
HPDrainRate:7
CircleSize:5
OverallDifficulty:8
ApproachRate:8
SliderMultiplier:2.56
SliderTickRate:2

[Events]
//Background and Video events
0,0,"Touhou___Bad_Apple_Wallpaper_by_ieka95.jpg"
Video,0,"rena2.flv"
//Break Periods
2,112958,125051
//Storyboard Layer 0 (Background)
//Storyboard Layer 1 (Fail)
//Storyboard Layer 2 (Pass)
//Storyboard Layer 3 (Foreground)
//Storyboard Sound Samples
//Background Colour Transformations
3,100,163,162,255

[TimingPoints]
1454,434.782608695652,4,1,0,51,1,0
84818,-133.333333333333,4,1,0,51,0,0
85015,-100,4,2,0,66,0,0
86340,-133.333333333333,4,2,0,66,0,0
86557,-133.333333333333,4,1,0,66,0,0
86775,-133.333333333333,4,2,0,66,0,0
87427,-100,4,2,0,66,0,0
88079,-133.333333333333,4,2,0,66,0,0
88296,-133.333333333333,4,1,0,66,0,0
88514,-133.333333333333,4,2,0,66,0,0
89166,-100,4,2,0,66,0,0
89818,-133.333333333333,4,2,0,66,0,0
91775,-133.333333333333,4,1,0,66,0,0
91992,-133.333333333333,4,2,0,66,0,0
92644,-100,4,2,0,66,0,0
93296,-133.333333333333,4,2,0,66,0,0
93514,-133.333333333333,4,1,0,66,0,0
93731,-133.333333333333,4,2,0,66,0,0
94383,-100,4,2,0,66,0,0
95035,-133.333333333333,4,2,0,66,0,0
95253,-133.333333333333,4,1,0,66,0,0
95470,-133.333333333333,4,2,0,66,0,0
96122,-100,4,2,0,66,0,0
96666,-133.333333333333,4,2,0,66,0,0
98188,-100,4,1,0,66,0,0
98622,-100,4,2,0,66,0,0
98731,-100,4,1,0,66,0,0
98948,-100,4,1,0,38,0,0
99166,-100,4,1,0,51,0,0
99383,-100,4,1,0,66,0,0
100144,-100,4,1,0,51,0,0
100253,-100,4,1,0,30,0,0
100470,-100,4,1,0,66,0,0
100688,-100,4,1,0,41,0,0
100905,-100,4,1,0,60,0,0
101122,-100,4,1,0,41,0,0
101340,-100,4,1,0,62,0,0
101666,-100,4,1,0,48,0,0
101992,-100,4,1,0,40,0,0
102209,-100,4,1,0,59,0,0
102427,-100,4,1,0,38,0,0
102644,-100,4,1,0,49,0,0
102862,-100,4,1,0,42,0,0
103079,-100,4,1,0,62,0,0
103296,-100,4,1,0,62,0,0
103514,-100,4,1,0,52,0,0
103731,-100,4,1,0,40,0,0
103948,-100,4,1,0,62,0,0
104166,-100,4,1,0,41,0,0
104383,-100,4,1,0,51,0,0
104601,-100,4,1,0,39,0,0
104818,-100,4,1,0,62,0,0
105035,-100,4,1,0,45,0,0
105470,-100,4,1,0,36,0,0
105688,-100,4,1,0,59,0,0
105905,-100,4,1,0,41,0,0
106122,-100,4,1,0,51,0,0
106340,-100,4,1,0,39,0,0
106557,-100,4,1,0,60,0,0
106775,-100,4,1,0,52,0,0
107209,-100,4,1,0,39,0,0
107427,-100,4,1,0,58,0,0
107644,-100,4,1,0,39,0,0
107862,-100,4,1,0,52,0,0
108079,-100,4,1,0,41,0,0
108296,-100,4,1,0,61,0,0
108622,-100,4,1,0,52,0,0
108948,-100,4,1,0,40,0,0
109166,-100,4,1,0,61,0,0
109383,-100,4,1,0,38,0,0
109601,-100,4,1,0,49,0,0
109818,-100,4,1,0,37,0,0
110035,-100,4,1,0,61,0,0
110994,-100,4,2,0,0,0,0
111102,-100,4,1,0,51,0,0
111868,-100,4,1,0,62,0,1
112742,-100,4,1,0,51,0,0
126683,434.782608695652,4,1,0,51,1,0
182364,434.782608695652,4,2,0,69,1,0
210180,-100,4,1,0,40,0,0

[Colours]
Combo1 : 254,95,71
Combo2 : 216,226,84
Combo3 : 124,254,37
Combo4 : 248,198,48

[HitObjects]
48,144,28410,6,0,B|32:80|112:48,2,85.3333333333333
144,48,28845,2,0,B|160:112|80:144,2,85.3333333333333
224,72,29280,6,0,B|288:200,1,128,6|0
200,336,29714,2,0,B|136:208,1,128,8|0
80,336,30149,2,2,B|344:336,1,256
480,336,30801,1,0
336,336,31019,2,0,B|288:264|312:160|432:128,1,256,6|8
440,24,31671,1,0
312,16,31888,2,0,B|168:88,1,128,2|0
312,120,32323,2,0,B|168:192,1,128,2|0
80,136,32758,5,4
0,224,32975,1,0
96,312,33193,1,8
184,216,33410,1,0
80,136,33627,2,2,B|64:56|144:0|200:0|264:48,1,256
336,120,34280,1,0
256,40,34497,2,0,B|256:184,1,128,4|0
424,112,34932,2,0,B|424:256,1,128,4|0
336,192,35367,2,8,B|336:336,2,128
336,40,36019,1,0
201,41,36236,5,6
123,195,36453,1,0
96,25,36671,1,8
218,146,36888,1,0
48,120,37106,2,2,B|-8:184|0:264|64:320|144:304,1,256
256,272,37758,1,0
392,306,37975,2,2,B|448:312|512:256|520:184|464:120,1,256,6|2
328,80,38627,1,0
192,112,38845,1,2
328,152,39062,1,0
192,40,39280,1,8
192,184,39497,1,0
56,208,39714,5,6
120,336,39932,1,0
256,296,40149,1,8
392,336,40367,1,0
456,208,40584,2,2,B|432:112|336:64|256:96|224:112,1,256
256,232,41236,1,0
256,100,41453,1,6
256,380,41888,1,0
116,48,42323,2,0,B|232:48,2,85.3333333333333,2|0|0
153,112,42758,2,0,B|68:112,2,85.3333333333333,2|0|0
68,180,43193,5,6
160,272,43410,1,0
16,272,43627,1,8
104,368,43845,1,0
136,200,44062,2,2,B|160:184|200:160|256:152|312:160|352:184|376:200,1,256
408,64,44714,1,0
256,64,44932,2,6,B|256:328,2,256
336,176,46019,1,0
176,176,46236,1,8
336,248,46453,1,0
176,248,46671,6,0,B|112:256|48:200|80:136,1,128,6|0
152,72,47106,2,0,B|216:64|280:120|248:184,1,128,8|0
112,136,47540,2,2,B|344:280,1,256
472,344,48193,1,0
384,216,48410,1,4
288,336,48627,1,0
432,280,48845,1,8
344,144,49062,1,0
256,8,49280,2,2,B|256:144,1,128,2|0
256,8,49714,1,2
256,136,49932,1,0
152,264,50149,6,2,B|80:208|8:240,1,128,2|0
152,264,50584,1,8
208,384,50801,1,0
264,264,51019,2,2,B|312:328|384:312|408:208|352:184|288:192,1,256
416,120,51671,1,0
248,120,51888,2,2,B|200:56|128:72|104:176|160:200|224:192,2,256,6|2|2
400,56,52975,1,0
400,184,53193,1,8
328,56,53410,1,0
200,40,53627,5,6
136,152,53845,1,0
80,264,54062,1,8
24,376,54280,1,0
144,336,54497,2,2,B|192:320|272:256|248:176|216:104,1,256
112,64,55149,1,0
224,124,55367,1,6
472,336,55801,1,6
432,44,56236,1,6
172,316,56671,1,6
16,104,57106,6,0,B|76:108|104:68|104:28,1,128,2|0
176,120,57540,2,0,B|116:116|88:156|88:196,1,128,2|0
100,320,57975,2,2,B|364:304,1,256,2|8
256,224,58627,1,0
268,376,58845,6,0,B|440:364,1,128,2|0
388,240,59280,2,0,B|400:412,1,128,2|0
300,288,59714,2,2,B|232:304|172:276|144:200|184:116,1,256,2|8
256,24,60367,1,0
333,127,60584,6,0,B|472:128,1,128,6|0
384,224,61019,2,0,B|245:224,1,128,2|0
128,224,61453,2,2,B|32:224|24:308|64:380|160:340,1,256
128,224,62106,1,0
148,96,62323,6,0,B|268:172,1,128,6|0
364,96,62758,2,0,B|244:172,1,128,2|0
256,164,63193,2,0,B|254:296,2,128,2|0|8
256,36,63845,1,0
384,20,64062,6,0,B|496:112,1,128,6|0
480,228,64497,2,0,B|381:309,1,128,2|0
256,284,64932,2,2,B|344:252|344:192|344:132|256:100,1,256
256,192,65584,1,0
256,352,65801,6,0,B|180:352|120:296,1,128,6|0
72,248,66236,2,0,B|100:224|104:192|100:160|72:136,1,128,6|0
0,192,66671,2,2,B|276:192,1,256
256,108,67323,1,0
352,192,67540,6,0,B|352:44,1,128,6|0
448,192,67975,2,0,B|448:340,1,128,2|0
448,192,68410,2,2,B|404:264|344:268|284:264|240:192,1,256,2|8
352,128,69062,1,0
188,248,69280,6,0,B|156:180|204:116,1,128,6|0
324,136,69714,2,0,B|356:204|308:268,1,128,6|0
192,324,70149,1,0
128,304,70294,1,0
64,280,70439,1,0
64,212,70584,1,0
128,188,70729,1,0
192,168,70874,1,0
256,148,71019,6,0,B|256:312,1,128,6|0
332,212,71453,2,0,B|496:212,1,128,6|0
408,144,71888,2,0,B|408:-20,1,128,6|0
332,80,72322,2,0,B|168:80,1,128,8|0
108,92,72758,5,6
32,160,72975,1,0
32,264,73193,1,6
108,196,73410,1,0
108,300,73627,1,6
184,368,73844,1,0
184,264,74062,1,8
260,196,74279,1,0
360,176,74497,6,0,B|420:204|404:256|372:280,1,128,6|0
468,172,74932,2,0,B|408:144|424:92|456:68,1,128,6|0
468,240,75367,2,0,B|456:312|392:344,1,128,2|0
360,108,75801,2,0,B|372:36|436:4,1,128,8|0
464,192,76236,5,6
360,192,76453,1,0
256,192,76671,1,6
152,192,76888,1,0
48,192,77106,1,6
152,192,77323,1,0
256,192,77541,1,6
360,192,77758,1,0
360,296,77975,6,0,B|323:280|284:276|252:296|236:348,1,128,2|0
168,256,78410,2,0,B|204:272|244:276|276:256|292:204,1,128,2|0
308,144,78845,2,2,B|224:392,1,256
112,360,79497,1,0
60,256,79714,6,0,B|132:208|112:104,1,128,6|0
12,216,80149,2,0,B|60:288|164:268,1,128,6|0
236,272,80584,2,2,B|536:248,1,256
476,136,81236,5,0
372,84,81453,1,6
256,92,81671,1,0
172,172,81888,1,8
256,252,82106,1,0
356,320,82323,2,2,B|336:384|256:408|176:384|156:320,1,256
256,252,82975,1,0
340,172,83193,1,6
256,92,83410,1,0
140,84,83628,1,6
36,136,83845,1,0
100,224,84062,6,0,B|184:308,1,85.3333333333333
208,332,84352,1,0
256,380,84497,2,0,B|340:300,1,85.3333333333333
364,272,84787,1,0
412,216,84932,6,0,B|464:172|460:72|352:52|284:104|312:188,1,287.999991416931,4|0
316,300,85801,2,2,B|312:264|312:264|280:284|280:284|116:208,1,256
32,152,86453,1,0
136,92,86671,6,0,B|152:140|212:144,1,95.9999971389771,4|0
302,143,87106,2,0,B|360:140|376:92,1,95.9999971389771,2|0
384,224,87540,2,2,B|360:260|360:260|340:224|340:224|328:244|328:244|156:244,1,256
164,360,88193,1,0
256,308,88410,5,4
256,180,88627,1,0
256,52,88845,1,2
315,151,89062,1,0
196,151,89280,2,2,B|174:214|226:251|256:255|285:251|337:214|315:151,1,256
200,88,89932,5,0
124,172,90149,1,0
148,284,90367,1,0
256,324,90584,1,2
364,284,90801,1,0
388,172,91019,1,2
40,352,91453,5,2
84,244,91671,1,0
116,356,91888,2,0,B|172:344|192:272,1,95.9999971389771,4|0
204,188,92323,1,2
188,72,92540,1,0
128,188,92758,2,2,B|236:200|308:160|364:64,1,256
396,0,93410,1,0
348,88,93627,5,4
368,200,93845,1,0
256,268,94062,1,2
144,200,94280,1,0
164,88,94497,2,2,B|196:124|196:124|220:60|220:60|248:88|248:88|348:88,1,256
464,88,95149,5,0
348,88,95367,1,4
316,192,95584,1,0
200,192,95802,1,2
160,288,96019,1,0
44,288,96236,2,2,B|44:268|44:268|24:272|24:272|-8:256|-48:188|-8:120|44:96,1,256
164,96,96888,5,0
256,168,97106,1,0
348,236,97323,1,0
348,96,97540,1,2
256,168,97758,1,0
164,236,97975,1,2
360,360,98410,6,0,B|392:280|496:300,1,128,8|0
480,180,98845,1,6
364,192,99062,1,0
256,236,99280,1,8
160,300,99497,1,0
52,312,99714,2,2,B|16:252|44:144|116:96|208:96,1,256,2|8
256,68,100367,5,0
256,192,100584,1,6
256,316,100801,1,0
256,192,101019,1,8
256,68,101236,1,0
256,192,101453,1,6
444,192,101888,5,8
328,192,102106,1,0
444,128,102323,2,0,B|444:264,1,128,6|0
328,320,102758,2,0,B|328:184,1,128,8|0
328,64,103193,2,2,B|336:140|256:196|176:140|184:64,1,256,2|8
256,84,103845,1,0
168,188,104062,6,0,B|136:220|136:220|212:268,1,128,6|0
296,308,104497,2,0,B|365:352|365:352|333:384,1,128,8|0
224,364,104932,1,2
80,48,105367,5,8
0,96,105584,1,0
80,144,105802,1,6
160,192,106019,1,0
80,240,106236,1,8
0,288,106454,1,0
80,336,106671,1,6
432,336,107106,5,8
512,288,107323,1,0
432,240,107541,1,6
352,192,107758,1,0
432,144,107975,1,8
512,96,108193,1,0
432,48,108410,1,6
192,256,108845,6,0,B|216:192|192:128,1,128,8|0
320,128,109280,2,0,B|296:192|320:256,1,128,6|0
256,120,109714,1,8
256,272,109932,1,0
136,192,110149,1,6
256,192,110258,12,0,111019
24,24,111888,5,6
24,360,112323,1,6
496,192,112758,1,6
80,80,125801,6,0,B|0:128,1,85.3333333333333,6|0
8,200,126091,2,0,B|81:156,1,85.3333333333333,2|6
80,232,126381,2,0,B|6:275,1,85.3333333333333,2|6
72,320,126671,6,0,B|120:368|224:368,1,128,4|0
320,368,127117,1,8
256,272,127335,1,0
152,200,127552,2,2,B|160:128|240:96|256:192|352:128|336:64,1,256
232,32,128204,1,0
336,76,128422,2,2,B|404:76|472:144|448:220|388:264,1,256,6|8
252,376,129291,5,6
152,296,129509,1,0
44,368,129726,1,8
8,244,129943,1,0
84,124,130161,2,0,B|96:184|144:192|200:176,1,128,2|0
276,76,130596,2,0,B|264:16|216:8|160:24,1,128,8|0
252,140,131030,2,2,B|348:176|364:76|360:40|312:-12|288:-28,1,256
196,80,131683,5,0
132,188,131900,1,6
256,224,132117,1,0
192,332,132334,1,8
320,332,132552,1,0
256,224,132769,1,2
380,188,132986,1,8
316,80,133203,1,8
196,16,133422,1,0
316,16,133639,5,6
256,128,133856,1,0
128,116,134074,1,8
96,240,134291,1,0
220,272,134509,2,2,B|292:288|364:256|396:184|384:100,1,256
436,16,135161,1,0
300,40,135378,2,0,B|228:24|156:56|124:128|136:212,2,256,6|8|6
256,160,136465,1,0
192,264,136683,1,8
196,136,136900,1,0
256,256,137117,5,6
144,188,137335,1,0
144,68,137552,1,8
256,0,137769,1,0
368,68,137987,2,2,B|320:120|256:144|192:120|144:68,1,256
256,60,138639,1,0
368,188,138856,1,6
8,380,139291,1,8
504,380,139726,2,0,B|440:312,2,85.3333333333333,6|0|0
444,252,140161,2,0,B|508:184,2,85.3333333333333,6|0|0
420,192,140596,6,0,B|268:192,1,128,4|0
92,192,141030,2,12,B|244:192,1,128,8|0
344,128,141465,2,2,B|335:55|255:23|175:55|167:128,1,256
256,192,142117,1,0
168,256,142335,2,0,B|176:328|256:360|336:328|344:256,2,256,6|8|2
128,148,143422,1,0
236,112,143639,1,8
272,220,143856,1,0
168,256,144074,6,0,B|96:292|32:212,1,128,4|0
24,120,144509,1,8
128,72,144726,1,0
200,168,144943,2,2,B|236:196|312:160|340:128|328:28|284:8,1,256
256,92,145596,1,0
224,12,145813,2,2,B|184:28|172:128|200:160|276:196|312:168,1,256,6|2
256,272,146465,1,0
308,376,146683,1,6
204,376,146900,1,0
308,376,147117,1,8
204,376,147334,1,0
108,312,147552,5,4
60,204,147769,1,0
108,92,147987,1,8
228,52,148204,1,0
336,100,148422,2,2,B|336:184|256:204|176:184|176:100,1,256
256,112,149074,1,0
384,176,149291,1,6
128,176,149726,1,8
384,248,150161,1,2
324,344,150378,1,0
188,344,150596,1,8
128,248,150813,1,0
256,276,151030,5,6
256,276,151248,1,0
256,276,151465,1,8
256,276,151683,1,0
256,276,151900,2,2,B|256:12,1,256
156,80,152552,1,0
64,148,152769,1,6
448,148,153204,1,2
512,384,153639,1,2
0,384,154074,1,2
192,192,154509,6,0,B|240:136|208:72,1,128,6|0
320,192,154943,2,0,B|272:248|304:312,1,128,8|0
204,336,155378,2,2,B|80:280|68:120,1,256
140,40,156030,1,0
232,108,156248,2,0,B|352:192,1,128,6|0
280,264,156683,2,0,B|160:348,1,128,8|0
164,224,157117,2,2,B|264:224|348:300|348:376,1,256
360,240,157769,5,0
276,344,157987,1,4
152,344,158204,1,0
36,288,158422,1,8
36,160,158639,1,0
112,56,158856,2,2,B|272:24|388:132,1,256
460,172,159509,1,0
412,64,159726,1,4
360,172,159943,1,0
464,108,160161,1,8
360,104,160378,1,0
412,216,160596,1,2
332,316,160813,1,0
180,316,161030,5,8
100,216,161247,1,0
84,88,161465,2,0,B|156:136|224:76,1,128,6|0
324,92,161900,2,0,B|252:44|184:104,1,128,6|0
324,92,162335,2,2,B|284:168|312:252|408:280|472:252,1,256
372,152,162987,1,0
256,252,163204,1,6
140,152,163422,1,0
256,56,163639,1,8
372,152,163856,1,0
256,252,164074,1,6
12,180,164509,6,0,B|56:108|8:20,1,128,8|0
108,152,164943,2,0,B|208:276,1,128,6|0
323,251,165378,2,4,B|404:152,1,128,8|0
348,36,165813,2,2,B|348:100|256:136|164:100|164:36,1,256
256,24,166465,1,0
168,144,166683,1,6
344,144,166900,1,0
256,260,167117,1,8
168,376,167335,1,0
344,376,167552,2,0,B|456:376,2,85.3333333333333,2|0|0
368,308,167987,2,0,B|480:308,2,85.3333333333333,2|0|0
392,240,168422,5,6
276,184,168639,1,0
160,240,168856,1,2
44,184,169074,1,0
160,128,169291,1,6
276,72,169508,1,0
392,128,169725,1,8
508,72,169943,1,0
504,200,170161,6,0,B|484:280|400:300,1,128,6|0
308,352,170596,2,2,B|292:384|256:392|220:384|204:352,1,128,2|0
88,292,171030,2,0,B|28:280|8:200,1,128,6|0
32,76,171465,1,8
140,32,171683,1,0
256,40,171900,5,6
368,72,172117,1,0
256,104,172335,1,2
144,132,172552,1,0
256,164,172770,1,6
368,192,172987,1,0
256,224,173205,1,8
144,248,173422,1,0
256,284,173640,5,6
148,320,173856,1,0
76,228,174074,1,2
140,132,174291,1,0
256,100,174509,1,6
364,64,174725,1,0
436,156,174943,1,8
372,252,175160,1,0
256,192,175378,6,0,B|256:40,1,128,6|0
320,144,175813,2,0,B|472:144,1,128,2|0
352,208,176248,2,0,B|352:360,1,128,6|0
288,256,176683,2,0,B|136:256,1,128,8|0
96,144,177117,6,0,B|176:44,1,128,6|0
175,44,177552,2,0,B|254:143,1,128,2|0
254,143,177987,2,0,B|334:43,1,128,6|0
333,43,178422,2,0,B|412:142,1,128,8|0
468,256,178856,5,6
388,356,179074,1,0
256,368,179291,1,2
124,356,179509,1,0
44,256,179727,1,6
256,192,180161,5,8
348,120,180378,1,0
468,128,180596,1,6
388,28,180814,1,0
256,16,181031,1,2
124,28,181249,1,0
44,128,181465,1,6
256,192,181900,1,8
460,292,182364,5,6
360,316,182581,1,0
256,336,182798,1,2
152,316,183016,1,0
52,292,183233,1,2
256,117,183668,5,8
288,258,183885,1,0
197,145,184103,1,6
328,206,184320,1,0
183,209,184537,1,2
312,143,184755,1,0
224,259,184972,1,2
436,196,185407,5,8
480,128,185624,1,0
429,73,185842,1,6
344,52,186059,1,0
256,36,186276,1,2
167,52,186494,1,0
82,73,186711,1,2
256,281,187146,5,8
295,111,187363,1,0
184,248,187581,1,6
343,174,187798,1,0
168,170,188015,1,2
324,250,188233,1,0
218,110,188450,1,2
168,372,188885,6,0,B|96:340|108:248,1,128,8|0
196,220,189320,2,0,B|268:252|256:344,1,128,6|0
184,296,189755,2,0,B|112:264|124:172,1,128,2|0
212,144,190190,2,0,B|284:176|272:268,1,128,2|0
348,268,190624,6,0,B|420:236|408:144,1,128,8|0
320,116,191059,2,0,B|248:148|260:240,1,128,6|0
332,192,191494,2,0,B|404:160|392:68,1,128,2|0
304,40,191929,2,0,B|232:72|244:164,1,128,2|0
236,244,192364,5,8
156,288,192581,1,0
68,272,192798,1,4
28,192,193016,1,0
64,112,193233,1,2
144,68,193450,1,0
224,108,193668,1,2
276,320,194103,5,8
356,364,194320,1,0
444,348,194537,1,4
484,268,194755,1,0
448,188,194972,1,2
368,144,195189,1,0
288,184,195407,1,2
132,268,195842,6,0,B|16:336,1,128,8|0
112,192,196277,2,0,B|-28:192,1,128,4|0
132,116,196711,2,0,B|16:48,1,128,2|0
200,192,197146,1,2
380,116,197581,6,0,B|496:48,1,128,8|0
400,192,198016,2,0,B|540:192,1,128,4|0
380,268,198450,2,0,B|496:336,1,128,2|0
312,192,198885,1,2
256,60,199320,5,8
256,148,199537,1,0
256,236,199755,1,4
256,324,199972,1,0
256,236,200190,1,2
256,148,200407,1,0
256,60,200624,1,2
124,192,201059,5,8
212,192,201276,1,0
300,192,201494,1,4
388,192,201711,1,0
300,192,201929,1,2
212,192,202146,1,0
124,192,202363,1,2
256,336,202798,5,8
348,324,203016,1,0
448,288,203233,1,4
512,192,203450,1,0
448,96,203668,1,2
348,60,203885,1,0
256,48,204103,1,2
256,48,204537,5,8
164,60,204755,1,0
64,96,204972,1,4
0,192,205189,1,0
64,288,205407,1,2
164,324,205624,1,0
256,336,205842,1,2
472,204,206277,5,8
396,96,206494,1,0
320,204,206711,2,0,B|176:204,1,128,6|0
116,96,207146,1,2
40,204,207363,1,0
128,300,207581,2,2,B|404:300,1,256,2|8
396,160,208233,5,0
256,144,208450,1,4
340,28,208668,1,0
172,28,208885,1,2
256,144,209103,1,0
116,160,209320,1,2
256,192,209429,12,4,210190
