osu file format v14

[General]
AudioFilename: ilias.mp3
AudioLeadIn: 0
PreviewTime: 68625
Countdown: 0
SampleSet: Soft
StackLeniency: 0.9
Mode: 0
LetterboxInBreaks: 0
StoryFireInFront: 0
EpilepsyWarning: 1
WidescreenStoryboard: 1

[Editor]
DistanceSpacing: 0.9
BeatDivisor: 4
GridSize: 8
TimelineZoom: 1

[Metadata]
Title:ILIAS
TitleUnicode:ILIAS
Artist:Masayoshi Minoshima feat. Sakaue Nachi
ArtistUnicode:Masayoshi Minoshima feat. 坂上なち
Creator:Kiiwa
Version:Standard
Source:beatmania IIDX 20 tricoro
Tags:Damnae EvilElvis Priti HYPER ELECTRO Dubstep Techno Electronic BEMANI Konami
BeatmapID:456982
BeatmapSetID:184407

[Difficulty]
HPDrainRate:3
CircleSize:3
OverallDifficulty:3
ApproachRate:4
SliderMultiplier:1.2
SliderTickRate:2

[Events]
//Background and Video events
0,0,"bg.png",0,0
//Break Periods
2,99670,100685
//Storyboard Layer 0 (Background)
//Storyboard Layer 1 (Fail)
//Storyboard Layer 2 (Pass)
//Storyboard Layer 3 (Foreground)
//Storyboard Sound Samples

[TimingPoints]
1020,422.535211267606,4,2,1,50,1,0
1020,-133.333333333333,4,2,1,50,0,0
7358,-100,4,1,1,40,0,1
7780,-133.333333333333,4,2,1,50,0,0
14541,-100,4,2,1,50,0,0
20879,-100,4,2,1,50,0,0
21301,-100,4,2,1,50,0,0
41583,-133.333333333333,4,2,1,50,0,0
47921,-100,4,1,1,40,0,1
48343,-133.333333333333,4,2,1,50,0,0
55104,-100,4,2,1,60,0,0
58062,-100,4,1,1,40,0,1
58484,-100,4,2,1,60,0,0
61442,-100,4,1,1,40,0,1
61865,-100,4,2,1,60,0,0
68625,-100,4,1,1,60,0,1
82146,-100,4,1,1,70,0,1
88907,-100,4,1,1,50,0,1
93977,-100,4,1,1,60,0,1
94822,-100,4,1,1,70,0,1
95667,-100,4,2,1,50,0,0
96090,-100,4,2,1,60,0,0
96196,-100,4,2,1,40,0,0
99470,-100,4,2,1,20,0,0
102005,-100,4,1,1,40,0,1
102428,-100,4,2,1,50,0,0
104963,-100,4,2,1,60,0,0
109083,-100,4,2,1,70,0,0

[Colours]
Combo1 : 255,255,255
Combo2 : 173,255,95
Combo3 : 17,254,176
Combo4 : 255,88,100
Combo5 : 255,94,55

[HitObjects]
112,248,1020,6,0,B|128:192|128:192|88:72,2,180.000006866455,4|8|8,1:0|1:0|1:0,0:0:0:0:
254,324,3555,2,0,P|307:340|430:300,1,180.000006866455,8|0,1:0|1:0,0:0:0:0:
410,144,5245,2,0,P|357:128|234:168,1,180.000006866455,8|0,1:0|1:0,0:0:0:0:
186,102,6512,6,0,L|188:57,2,45.0000017166138,2|0|8,0:0|1:0|1:0,0:0:0:0:
144,176,7358,38,2,P|88:184|16:152,1,120,2|4,0:0|1:0,0:0:0:0:
7,323,8625,38,0,B|94:302|94:302|188:332,1,180.000006866455,8|0,1:0|1:0,0:0:0:0:
339,360,10315,2,0,P|351:286|317:173,1,180.000006866455,8|0,1:0|1:0,0:0:0:0:
485,167,12005,5,8,1:0:0:0:
377,46,12850,1,0,1:0:0:0:
429,107,13273,21,2,0:0:0:0:
376,168,13696,2,0,P|323:165|292:128,1,90.0000034332277,8|8,1:0|1:0,0:0:0:0:
357,97,14541,6,0,P|368:38|329:-16,1,120,4|0,1:0|1:0,0:0:0:0:
230,8,15386,2,0,P|219:67|258:121,1,120,0|0,1:0|1:0,0:0:0:0:
147,151,16231,5,0,1:0:0:0:
41,171,16653,1,0,1:0:0:0:
59,277,17076,1,0,1:0:0:0:
165,258,17498,1,0,1:0:0:0:
237,337,17921,6,0,P|299:325|493:366,2,240,0|0|0,1:0|1:0|1:0,0:0:0:0:
297,247,20034,1,0,1:0:0:0:
401,222,20456,1,0,1:0:0:0:
333,176,20879,6,2,P|325:136|384:77,1,120,2|4,1:0|1:0,0:0:0:0:
270,47,21724,6,0,P|157:82|41:25,2,240,4|0|0,1:0|1:0|1:0,0:0:0:0:
373,79,23836,2,0,P|432:76|494:104,1,120,0|0,1:0|1:0,0:0:0:0:
415,180,24681,6,0,B|460:289|460:289|355:356,1,240,0|0,1:0|1:0,0:0:0:0:
141,362,26372,2,0,P|114:316|213:344,1,240,0|8,1:0|1:0,0:0:0:0:
35,220,28062,6,0,L|21:83,1,120,2|4,0:0|1:0,0:0:0:0:
125,67,28907,2,0,L|139:204,1,120,0|0,1:0|1:0,0:0:0:0:
244,199,29752,6,0,P|341:193|441:67,1,240,0|0,1:0|1:0,0:0:0:0:
368,8,31020,1,0,1:0:0:0:
434,93,31442,22,0,L|451:349,2,240,0|0|0,1:0|1:0|1:0,0:0:0:0:
326,95,33555,1,0,1:0:0:0:
218,97,33977,1,0,1:0:0:0:
109,99,34400,1,0,1:0:0:0:
1,104,34822,5,2,0:0:0:0:
51,8,35245,5,4,1:2:0:0:
109,99,35667,6,0,P|122:176|1:296,2,240,0|0|0,1:0|1:0|1:0,0:0:0:0:
211,65,37780,1,0,1:0:0:0:
312,102,38203,22,0,P|361:87|419:117,1,120,0|4,1:0|1:2,0:0:0:0:
399,223,39048,2,0,P|350:238|292:208,1,120,0|4,1:0|1:2,0:0:0:0:
256,192,39893,12,4,41583,0:0:0:0:
60,236,42428,6,0,P|136:286|223:261,1,180.000006866455,8|2,1:0|0:0,0:0:0:0:
252,117,44118,2,0,P|176:67|89:92,1,180.000006866455,8|2,1:0|0:0,0:0:0:0:
252,117,45808,6,0,L|452:109,1,180.000006866455,8|2,1:0|0:0,0:0:0:0:
442,190,47076,1,0,1:0:0:0:
454,269,47498,1,8,1:0:0:0:
465,357,47921,22,0,P|406:360|353:322,1,120,8|4,1:0|1:2,0:0:0:0:
129,353,49189,6,0,P|111:295|160:187,1,180.000006866455,8|2,1:0|0:0,0:0:0:0:
321,220,50879,2,0,P|339:278|290:386,1,180.000006866455,8|2,1:0|0:0,0:0:0:0:
156,189,52569,6,0,B|106:120|106:120|10:155,1,180.000006866455,8|2,1:0|0:0,0:0:0:0:
105,15,54259,2,0,P|157:47|188:39,1,90.0000034332277,8|8,1:0|1:0,0:0:0:0:
288,23,55104,6,0,L|423:17,2,120,4|4|4,1:2|1:2|1:2,0:0:0:0:
327,123,56372,1,0,1:0:0:0:
380,125,56583,6,0,P|401:173|356:237,1,120,4|4,1:2|1:2,0:0:0:0:
264,214,57428,2,0,P|243:166|288:102,1,120,4|4,1:2|1:2,0:0:0:0:
327,123,58062,5,2,0:0:0:0:
264,214,58484,6,0,L|119:224,2,120,4|4|4,1:2|1:2|1:2,0:0:0:0:
336,294,59752,1,0,1:0:0:0:
342,347,59963,6,0,P|401:358|472:323,1,120,4|4,1:2|1:2,0:0:0:0:
445,229,60808,2,0,P|386:218|315:253,1,120,4|4,1:2|1:2,0:0:0:0:
336,294,61442,37,2,0:0:0:0:
231,320,61865,38,0,L|98:328,2,120,4|4|4,1:2|1:2|1:2,0:0:0:0:
192,219,63132,1,0,1:0:0:0:
138,212,63343,6,0,P|116:163|146:93,1,120,4|4,1:2|1:2,0:0:0:0:
244,107,64189,2,0,P|266:156|236:226,1,120,4|4,1:2|1:2,0:0:0:0:
364,105,65245,22,0,L|496:97,2,120,4|4|4,1:2|1:2|1:2,0:0:0:0:
222,26,66724,1,4,1:2:0:0:
29,217,68625,6,0,P|22:275|77:337,1,120,12|0,1:0|0:0,0:0:0:0:
162,317,69470,2,0,P|241:310|289:334,1,120,8|0,0:0|0:0,0:0:0:0:
377,365,70315,6,0,P|400:326|387:251,1,120,8|0,0:0|0:0,0:0:0:0:
491,210,71160,2,0,P|432:214|389:254,1,120,8|0,0:0|0:0,0:0:0:0:
299,188,72005,2,0,P|331:236|388:253,1,120,8|0,0:0|0:0,0:0:0:0:
396,146,72850,6,0,L|408:16,1,120,8|0,0:0|0:0,0:0:0:0:
310,68,73696,2,0,L|298:198,1,120,8|0,0:0|0:0,0:0:0:0:
190,192,74541,22,0,P|123:197|31:128,1,180,8|0,0:0|0:0,0:0:0:0:
34,134,75386,6,0,L|22:261,1,120,12|0,0:0|0:0,0:0:0:0:
16,361,76231,2,0,P|81:379|145:355,1,120,8|0,0:0|0:0,0:0:0:0:
232,332,77076,6,0,P|297:321|352:350,1,120,8|0,0:0|0:0,0:0:0:0:
342,234,77921,2,0,L|338:98,1,120,8|0,0:0|0:0,0:0:0:0:
445,99,78766,6,0,L|449:235,1,120,8|0,0:0|0:0,0:0:0:0:
342,234,79611,2,0,P|280:239|220:208,1,120,8|0,0:0|0:0,0:0:0:0:
116,224,80456,22,0,P|170:202|228:215,1,120,8|8,0:0|0:0,0:0:0:0:
253,110,81301,6,0,L|257:-12,1,120,8|12,0:0|0:0,0:0:0:0:
150,10,82146,5,8,0:0:0:0:
53,59,82569,2,0,P|83:130|48:179,1,120,12|8,0:0|0:0,0:0:0:0:
34,267,83414,2,0,L|24:386,1,120,0|8,0:0|0:0,0:0:0:0:
129,361,84259,5,0,0:0:0:0:
129,361,84681,2,0,P|181:357|244:295,1,120,8|0,0:0|0:0,0:0:0:0:
340,299,85527,22,0,L|463:294,1,120,8|0,0:0|0:0,0:0:0:0:
469,186,86372,2,0,L|346:191,1,120,8|0,0:0|0:0,0:0:0:0:
240,192,87217,6,0,B|156:197|156:197|46:74,1,240,8|8,0:0|0:0,0:0:0:0:
147,30,88484,1,8,0:0:0:0:
253,49,88907,6,0,P|477:61|478:284,2,480,12|12|12,0:0|0:0|0:0,0:0:0:0:
79,256,93132,6,0,L|101:61,1,180,12|8,0:0|0:0,0:0:0:0:
105,22,93977,5,8,0:0:0:0:
214,23,94400,21,8,0:0:0:0:
321,25,94822,5,8,0:0:0:0:
429,26,95245,5,8,0:0:0:0:
482,261,96090,21,4,1:2:0:0:
256,192,96512,12,0,99470,0:0:0:0:
304,137,102005,54,0,P|319:194|295:266,1,120,2|4,0:0|1:0,0:0:0:0:
196,251,102850,6,0,L|66:248,1,120,4|4,0:0|0:0,0:0:0:0:
81,140,103696,2,0,L|211:143,1,120,4|4,0:0|0:0,0:0:0:0:
304,137,104541,6,0,P|369:139|434:103,1,120,4|4,0:0|0:0,0:0:0:0:
392,11,105386,2,0,P|327:9|262:45,1,120,4|4,0:0|0:0,0:0:0:0:
304,137,106231,6,4,L|299:259,1,120
413,236,107076,2,4,L|418:114,1,120
304,137,107921,6,4,L|157:143,1,120
115,225,108766,2,0,L|14:230,1,90,4|4,0:0|0:0,0:0:0:0:
