osu file format v9

[General]
AudioFilename: Thisisthelasthopeofhumanity.mp3
AudioLeadIn: 0
PreviewTime: 1328
Countdown: 0
SampleSet: Soft
StackLeniency: 0.7
Mode: 0
LetterboxInBreaks: 1

[Editor]
DistanceSpacing: 1.1
BeatDivisor: 4
GridSize: 8

[Metadata]
Title:Awesome Apple!!
Artist:Masayoshi Minoshima feat. Larto & nomico
Creator:Larto
Version:Insane
Source:Touhou
Tags:Lilac MarioBros777 touhou bad apple shadow art masayoshi minoshima nomico microsoft sam

[Difficulty]
HPDrainRate:7
CircleSize:4
OverallDifficulty:7
ApproachRate:7
SliderMultiplier:2.1
SliderTickRate:2

[Events]
//Background and Video events
0,0,"windows-vista-lights-field-wallpaper.jpg"
//Break Periods
//Storyboard Layer 0 (Background)
//Storyboard Layer 1 (Fail)
//Storyboard Layer 2 (Pass)
//Storyboard Layer 3 (Foreground)
//Storyboard Sound Samples
//Background Colour Transformations
3,100,0,0,0

[TimingPoints]
1328,434.782608695652,4,2,0,100,1,0
41219,-100,4,1,0,100,0,0
41545,-100,4,2,0,100,0,0
41980,-100,4,1,0,100,0,0
42414,-100,4,2,0,100,0,0
42849,-100,4,1,0,100,0,0
43175,-100,4,2,0,100,0,0
55132,-100,4,1,0,100,0,0
55458,-100,4,2,0,100,0,0
55892,-100,4,1,0,100,0,0
56326,-100,4,2,0,100,0,0
56760,-100,4,1,0,100,0,0
57086,-100,4,2,0,100,0,0
70806,-100,4,1,1,100,0,0
70893,-100,4,1,1,100,0,1
84751,-100,4,1,1,71,0,0
114371,-100,4,1,1,0,0,0

[HitObjects]
32,80,28284,6,2,B|136:80,2,70
32,152,28719,2,8,B|144:152,2,70
16,232,29154,5,4
80,296,29371,1,0
176,304,29588,1,2
264,272,29806,1,0
320,200,30023,2,2,B|336:120|240:16|176:24,1,210
144,96,30675,1,0
216,144,30893,2,4,B|312:80|448:112,2,210,4|4|2
152,200,31980,1,0
72,248,32197,1,8
24,176,32414,1,0
104,104,32632,6,2,B|80:40|16:32,1,105
104,104,33067,2,2,B|128:168|192:176,1,105
104,104,33501,2,2,B|176:48|256:176|336:88,1,210,2|0
384,80,34154,1,2
464,112,34371,1,0
488,192,34588,1,2
424,248,34806,1,0
344,248,35023,1,2
288,184,35241,5,4
216,224,35458,1,4
144,264,35675,1,4
72,304,35893,1,4
24,240,36110,5,4
16,160,36327,1,0
64,88,36545,1,8
144,48,36762,1,0
224,32,36980,2,2,B|296:72|312:200|264:232,1,210
216,272,37632,1,0
192,192,37849,2,2,B|312:208|376:312,2,210,2|2|8
112,184,38936,1,0
24,184,39154,2,0,B|24:32,1,105,4|0
96,40,39588,5,4
176,16,39806,1,0
256,48,40023,1,8
336,16,40241,1,0
416,40,40458,1,2
344,192,40893,5,0
256,192,41110,1,2
168,192,41327,1,4
424,192,41762,1,4
88,192,42197,1,4
504,192,42632,1,4
8,192,43067,5,4
40,112,43284,1,0
120,80,43501,1,8
200,88,43719,1,0
272,120,43936,2,2,B|352:144|448:104|480:32,1,210
384,32,44588,1,0
304,40,44806,2,4,B|256:112|264:248,1,210
128,336,45675,2,2,B|48:256,1,105
56,152,46110,2,2,B|130:77,1,105
200,24,46545,5,4
256,88,46762,1,0
312,152,46980,1,8
368,216,47197,1,0
416,288,47414,2,2,B|360:384|216:368,1,210,2|0
144,344,48067,5,2
80,272,48284,1,0
56,176,48501,1,2
72,80,48719,1,0
152,32,48936,1,2
240,72,49154,5,4
240,168,49371,1,4
240,264,49588,1,4
240,360,49806,1,4
336,336,50023,6,0,B|400:304|392:224,1,105,4|0
448,172,50458,2,0,B|384:204|392:284,1,105,2|0
336,336,50893,2,2,B|256:360|176:352|120:304,1,210
88,232,51545,1,0
64,144,51762,6,4,B|88:48|200:160|240:8,2,210,4|4|2
16,224,52849,1,0
104,248,53067,1,2
64,336,53284,1,0
152,360,53501,5,4
232,312,53719,1,0
256,224,53936,1,8
224,136,54154,1,0
176,56,54371,2,2,B|264:0|392:48,1,210
448,112,55023,1,0
448,208,55241,1,4
64,208,55675,1,4
448,32,56110,1,4
64,32,56545,1,4
344,88,56980,6,2,B|344:224,1,105,6|2
168,192,57414,2,0,B|168:87,1,105,8|0
256,32,57849,2,2,B|256:288,1,210,2|8
256,320,58501,5,2
184,352,58719,2,2,B|160:288|216:240,1,105,2|2
336,280,59154,2,0,B|360:344|304:392,1,105,8|0
256,320,59588,2,2,B|144:304|96:192,1,210,2|8
64,104,60241,5,0
144,152,60458,2,2,B|176:96|136:24,1,105
240,48,60893,2,0,B|272:104|232:176,1,105,8|0
184,224,61327,2,2,B|240:288|328:184|392:264,1,210,2|8
456,312,61980,1,0
504,232,62197,1,2
472,144,62414,1,0
400,80,62632,1,4
304,48,62849,1,0
208,72,63067,2,0,B|240:160|160:256|96:264,1,210,4|2
40,280,63719,1,0
120,328,63936,6,0,B|232:360,1,105,6|0
232,264,64371,2,0,B|368:224,1,105,8|0
424,208,64806,2,2,B|464:128|368:40|288:64,1,210,2|8
224,56,65458,1,0
136,88,65675,6,2,B|80:128|128:208,1,105
192,160,66110,2,0,B|224:232|137:266,1,105,8|0
152,344,66545,2,2,B|384:344,1,210,2|8
424,272,67197,1,0
416,176,67414,1,2
344,112,67632,1,0
256,80,67849,1,8
168,120,68067,1,0
96,176,68284,2,2,B|184:248|320:208,1,210,2|8
256,144,68936,1,0
176,32,69154,6,2,B|112:56|96:104,1,105
336,32,69588,2,0,B|400:56|416:104,1,105,8|0
256,144,70023,2,2,B|256:232,2,70
256,288,70458,2,8,B|256:376,2,70
440,304,70893,5,4
72,248,71327,1,8
440,192,71762,1,4
72,136,72197,1,2
440,80,72632,5,4
72,136,73067,1,8
440,192,73501,1,4
72,248,73936,1,2
200,336,74371,6,0,B|152:240|192:120,1,210,4|10
312,48,75241,2,0,B|360:144|320:264,1,210,12|2
96,192,76110,5,4
176,192,76327,1,0
256,192,76545,1,4
336,192,76762,1,0
416,192,76980,1,2
496,304,77414,5,2
424,344,77632,1,0
344,312,77849,1,4
256,304,78067,1,0
168,312,78284,1,8
88,344,78501,1,0
16,304,78719,1,2
16,80,79154,5,2
88,40,79371,1,0
168,72,79588,1,4
256,80,79806,1,0
344,72,80023,1,8
424,40,80241,1,0
496,80,80458,1,2
256,192,80893,5,2
184,240,81110,1,0
184,152,81327,1,4
254,104,81545,1,0
328,152,81762,1,8
328,240,81980,1,0
256,278,82197,1,2
256,24,82632,5,2
256,104,82849,1,0
192,160,83067,1,4
216,240,83284,1,0
296,240,83501,1,8
320,160,83719,1,0
256,104,83936,2,0,B|368:64,2,70,2|2|2
256,104,84371,2,0,B|144:64,2,70,2|2|2
256,24,84806,5,4
440,360,85675,6,0,B|336:304|340:95|524:290|528:80|424:24,1,420,2|4
72,24,87414,6,0,B|176:80|172:289|-12:94|-16:304|88:360,1,420,2|4
200,192,89154,6,0,B|104:272|200:384|312:384|412:273|308:184,1,420,2|4
256,128,90241,5,0
200,64,90458,1,8
256,8,90675,1,0
312,64,90893,2,0,B|408:144|312:256|200:260|100:145|208:56,1,420,2|4
416,32,92632,6,0,B|480:120|432:264|328:320|208:304,1,420,2|4
96,32,94371,6,0,B|32:120|80:264|184:320|304:304,1,420,2|4
200,56,96110,6,0,B|112:152|208:256|312:260|400:144|304:40,1,420,2|4
256,128,97197,1,0
256,128,97414,1,8
256,128,97632,1,0
256,128,97849,2,0,C|224:160|288:192|224:224|284:254|228:288|280:304|256:327,1,420,2|4
168,344,98936,5,0
88,288,99154,1,8
48,200,99371,1,0
32,104,99588,2,0,B|120:48|184:168|256:96,1,210,2|8
312,56,100241,1,0
384,120,100458,5,4
424,208,100675,1,0
360,280,100893,1,8
272,312,101110,1,0
176,264,101327,2,0,B|120:176|240:112|168:40,1,210,2|8
80,40,101980,1,0
96,144,102197,5,4
192,184,102414,1,0
296,176,102632,1,8
384,128,102849,1,0
456,40,103067,2,0,B|560:96|504:240,1,210,2|8
440,304,103719,1,0
336,328,103936,5,4
232,344,104154,1,0
128,352,104371,1,2
24,336,104588,1,2
8,232,104806,2,0,B|-16:128|72:56|144:64,1,210,2|8
192,48,105458,1,0
256,112,105675,6,0,B|312:144|392:144,1,105,4|0
424,176,106110,2,0,B|392:232|392:312,1,105,8|0
360,352,106545,2,0,B|240:312|128:360,1,210,2|8
152,256,107197,1,0
256,248,107414,6,0,B|312:216|392:216,1,105,4|0
432,184,107849,2,0,B|400:128|400:48,1,105,8|0
360,8,108284,2,0,B|240:48|128:0,1,210,2|8
88,80,108936,1,0
104,176,109154,5,4
168,248,109371,1,0
256,296,109588,1,8
344,248,109806,1,0
408,176,110023,1,2
336,112,110241,1,2
256,56,110458,1,2
176,112,110675,1,2
104,176,110893,1,2
256,192,111762,5,4
256,192,111871,12,4,112632
256,192,112741,12,0,114371
