osu file format v9

[General]
AudioFilename: Thisisthelasthopeofhumanity.mp3
AudioLeadIn: 0
PreviewTime: 1328
Countdown: 0
SampleSet: Soft
StackLeniency: 0.7
Mode: 0
LetterboxInBreaks: 1

[Editor]
DistanceSpacing: 0.9
BeatDivisor: 1
GridSize: 4

[Metadata]
Title:Awesome Apple!!
Artist:Masayoshi Minoshima feat. Larto & nomico
Creator:Larto
Version:Hard
Source:Touhou
Tags:Lilac MarioBros777 touhou bad apple shadow art masayoshi minoshima nomico microsoft sam

[Difficulty]
HPDrainRate:6
CircleSize:4
OverallDifficulty:6
ApproachRate:6
SliderMultiplier:1.8
SliderTickRate:2

[Events]
//Background and Video events
0,0,"windows-vista-lights-field-wallpaper.jpg"
//Break Periods
//Storyboard Layer 0 (Background)
//Storyboard Layer 1 (Fail)
//Storyboard Layer 2 (Pass)
//Storyboard Layer 3 (Foreground)
//Storyboard Sound Samples
//Background Colour Transformations
3,100,0,0,0

[TimingPoints]
1328,434.782608695652,4,2,0,100,1,0
41219,-100,4,1,0,100,0,0
41436,-100,4,2,0,100,0,0
42197,-100,4,1,0,100,0,0
42306,-100,4,2,0,100,0,0
42849,-100,4,1,0,100,0,0
43175,-100,4,2,0,100,0,0
55132,-100,4,1,0,100,0,0
55458,-100,4,2,0,100,0,0
55892,-100,4,1,0,100,0,0
56326,-100,4,2,0,100,0,0
56760,-100,4,1,0,100,0,0
57086,-100,4,2,0,100,0,0
70806,-100,4,1,1,100,0,0
70893,-100,4,1,1,100,0,1
84751,-100,4,1,1,71,0,0
114371,-100,4,1,1,0,0,0

[HitObjects]
72,120,28284,6,0,B|180:64,1,120,4|0
264,64,28719,2,0,B|372:120,1,120,4|0
440,160,29154,5,4
324,272,29588,1,8
256,228,29806,1,0
188,184,30023,2,2,B|96:148|100:56|140:8,1,180,2|8
284,44,30893,2,2,B|376:80|372:172|332:220,1,180
256,320,31762,1,2
176,296,31980,1,0
100,264,32197,1,8
52,108,32632,6,0,B|116:120|184:80|208:20,1,180,4|8
280,4,33284,1,0
296,88,33501,2,0,B|314:135|382:175|446:163,1,180,2|2
464,340,34371,5,4
328,236,34806,1,8
256,284,35023,1,0
188,340,35241,1,4
48,232,35676,1,8
140,100,36110,6,0,B|216:168|308:144|364:96|368:56,1,270,4|0
444,36,36980,1,2
256,52,37414,1,8
160,16,37632,1,0
68,36,37849,2,2,B|0:120|72:224,1,180
192,304,38719,1,2
256,252,38936,1,0
316,196,39154,1,2
328,36,39588,6,4,B|304:88|256:84|208:88|184:36,2,180,4|8|2
256,180,40893,5,2
256,260,41110,1,0
256,340,41327,2,4,B|64:340,3,180
24,184,43067,5,4
104,172,43284,1,0
168,124,43501,1,8
312,56,43936,2,2,B|296:140|348:188|416:196,1,180
404,100,44588,1,0
492,140,44806,2,2,B|508:56|456:8|388:0,1,180
256,112,45675,1,2
256,192,45893,1,0
256,272,46110,1,2
96,304,46545,6,0,B|124:200|100:108|36:36,1,270,4|0
4,124,47414,1,2
160,80,47849,1,8
228,120,48067,1,0
304,96,48284,1,2
392,232,48719,1,8
324,272,48937,1,0
248,248,49154,1,2
256,380,49588,1,2
416,348,50023,6,0,B|496:308|512:196|444:112,1,270,4|0
376,56,50893,1,2
192,56,51327,2,2,B|328:188,2,180
100,192,52632,1,2
144,260,52849,1,0
188,192,53067,1,2
392,216,53501,6,0,B|300:380,1,180,4|2
256,296,54154,1,0
208,372,54371,2,0,B|120:216,1,180,4|2
80,136,55023,1,0
168,136,55241,2,4,B|368:136,3,180,4|2|4|2
468,252,56980,5,6
408,304,57197,1,0
320,312,57414,1,8
180,236,57849,2,2,B|184:160|128:112|56:104,1,180,2|8
16,164,58501,1,0
56,240,58719,1,2
184,336,59154,1,8
276,196,59588,1,2
420,128,60023,6,0,B|484:200,1,90,2|0
504,276,60458,2,2,B|380:252|388:372|252:340,1,270,2|0
168,328,61327,1,2
196,176,61762,1,8
256,120,61980,1,0
316,176,62197,1,4
172,96,62632,1,2
340,96,63067,1,2
432,228,63501,5,2
404,316,63719,1,0
332,352,63936,2,2,B|296:280|216:264|152:264|96:344,1,270,2|0
64,264,64806,1,2
152,128,65241,1,0
256,16,65675,1,4
360,132,66110,1,2
256,244,66544,1,4
96,220,66980,5,2
32,268,67197,1,0
104,300,67414,2,2,B|132:352|180:364|256:432|332:364|380:352|408:300,1,360
400,140,68719,1,2
320,140,68936,1,0
256,188,69154,1,4
160,316,69588,1,2
352,316,70023,2,0,B|416:300|456:232,1,120,4|0
436,172,70458,2,0,B|372:156|336:88,1,120,4|0
320,28,70893,5,4
256,176,71327,1,8
192,28,71762,1,4
256,176,72197,1,2
380,280,72632,6,0,B|336:88,1,180,4|8
132,104,73501,2,0,B|176:296,1,180,4|2
300,352,74371,5,4
380,340,74588,1,0
440,288,74806,1,8
496,140,75241,1,4
336,140,75675,1,2
216,244,76110,5,4
136,232,76327,1,0
76,180,76545,1,8
20,32,76980,1,4
180,32,77414,1,2
312,128,77849,6,0,B|272:216|340:296,1,180,4|8
256,316,78501,1,0
172,295,78719,2,0,B|240:216|200:128,1,180,4|2
96,4,79588,5,4
176,4,79806,1,0
256,4,80023,1,8
400,88,80458,1,4
320,88,80676,1,0
240,88,80893,1,2
88,128,81327,6,0,B|56:248|120:312|228:320,1,270,4|0
296,320,82197,2,0,B|391:313|455:249|423:129,1,270,4|0
408,56,83067,5,4
336,196,83501,1,8
176,196,83936,1,4
104,56,84371,1,2
256,104,84806,5,4
88,332,85675,6,0,B|172:275|257:259|341:275|425:332,1,360,2|4
424,52,87414,6,0,B|340:109|255:125|171:109|87:52,1,360,2|4
76,192,89154,6,0,B|444:192,1,360,2|4
320,24,90458,5,8
256,72,90675,1,0
192,120,90893,2,0,B|168:140|124:232|256:348|388:232|344:140|320:120,1,360,2|4
52,104,92632,6,0,B|20:208|52:336|228:376,1,360,2|4
460,104,94371,6,0,B|492:208|460:336|284:376,1,360,2|4
192,144,96110,6,0,B|168:164|124:256|256:372|388:256|344:164|320:144,1,360,2|4
256,24,97414,1,8
256,108,97631,1,0
256,192,97849,2,0,B|256:384,1,180,2|0
104,312,98719,5,4
56,156,99154,1,8
112,96,99371,1,0
188,124,99588,2,0,B|376:168,1,180,2|8
488,268,100458,6,0,B|464:364|360:376|296:336|272:280,1,270,4|0
268,208,101327,2,0,B|292:112|396:100|460:140|484:196,1,270,2|0
408,236,102197,5,4
256,288,102632,1,8
104,236,103067,2,0,B|104:144|208:84,1,180,2|8
256,152,103719,1,0
316,92,103936,5,4
256,28,104154,1,0
196,92,104371,1,8
168,252,104806,2,0,B|380:252,1,180,2|8
496,188,105675,6,0,B|488:88|400:56|364:68,1,180,4|8
332,148,106327,1,0
256,208,106545,2,0,B|152:56,1,180,2|8
16,196,107414,6,0,B|24:296|112:328|148:316,1,180,4|8
176,240,108066,1,0
256,176,108284,2,0,B|360:328,1,180,2|8
400,166,109154,6,0,B|372:64|272:-16|184:48,1,270,4|0
256,104,110023,1,2
196,256,110458,1,2
256,308,110675,1,2
316,256,110893,1,0
256,192,111762,12,0,114371
