osu file format v14

[General]
AudioFilename: 02 - adoption of contract.mp3
AudioLeadIn: 0
PreviewTime: 77232
Countdown: 1
SampleSet: Soft
StackLeniency: 0.7
Mode: 0
LetterboxInBreaks: 1
WidescreenStoryboard: 0

[Editor]
DistanceSpacing: 0.8
BeatDivisor: 4
GridSize: 4
TimelineZoom: 2.2

[Metadata]
Title:adoption of contract
TitleUnicode:adoption of contract
Artist:Masayoshi Minoshima
ArtistUnicode:Masayoshi Minoshima
Creator:Ayakura Mei
Version:Hopeless
Source:
Tags:
BeatmapID:177347
BeatmapSetID:59102

[Difficulty]
HPDrainRate:6
CircleSize:5
OverallDifficulty:8
ApproachRate:9
SliderMultiplier:1.6
SliderTickRate:1

[Events]
//Background and Video events
0,0,"BG.jpg",0,0
//Break Periods
2,54280,65480
//Storyboard Layer 0 (Background)
//Storyboard Layer 1 (Fail)
//Storyboard Layer 2 (Pass)
//Storyboard Layer 3 (Foreground)
//Storyboard Sound Samples

[TimingPoints]
3080,375,4,2,1,60,1,0
14986,-200,4,2,1,100,0,0
27080,-100,4,2,2,100,0,0
27173,-100,4,2,1,100,0,0
29986,-100,4,1,1,35,0,0
30173,-100,4,2,1,100,0,0
32986,-100,4,1,1,35,0,0
33173,-100,4,2,1,100,0,0
35986,-100,4,1,1,35,0,0
36173,-100,4,2,1,100,0,0
38705,-200,4,2,1,100,0,0
39080,-100,4,2,2,80,0,0
39173,-100,4,2,1,100,0,0
41986,-100,4,1,1,35,0,0
42173,-100,4,2,1,100,0,0
44986,-100,4,1,1,35,0,0
45173,-100,4,2,1,100,0,0
50986,-100,4,1,1,35,0,0
51173,-100,4,2,1,100,0,0
53611,-200,4,2,1,100,0,0
53986,-200,4,2,2,100,0,0
54173,-100,4,2,1,100,0,0
74987,-100,4,1,1,25,0,0
75174,-100,4,2,1,100,0,0
76487,-100,4,1,1,35,0,0
76862,-100,4,1,2,30,0,0
77307,-100,4,2,1,5,0,0
77424,-100,4,2,1,9,0,0
77518,-100,4,2,1,13,0,0
77612,-100,4,2,1,17,0,0
77706,-100,4,2,1,21,0,0
77799,-100,4,2,1,25,0,0
77893,-100,4,2,1,29,0,0
77987,-100,4,2,1,33,0,0
78081,-100,4,1,1,45,0,1
78173,-100,4,2,1,100,0,1
78736,-200,4,2,1,100,0,1
79486,-100,4,1,1,35,0,1
79673,-100,4,2,1,100,0,1
80236,-200,4,2,1,100,0,1
80986,-100,4,1,1,25,0,1
81173,-100,4,2,1,100,0,1
81736,-200,4,2,1,100,0,1
82486,-100,4,1,1,25,0,1
82673,-100,4,2,1,100,0,1
84080,-100,4,1,1,30,0,1
84173,-100,4,2,1,100,0,1
84736,-200,4,2,1,100,0,1
85486,-100,4,2,1,100,0,1
86330,-200,4,2,1,100,0,1
86986,-100,4,1,1,35,0,1
87173,-100,4,2,1,100,0,1
87736,-200,4,2,1,100,0,1
89705,-200,4,1,2,25,0,1
89798,-200,4,2,1,100,0,1
90080,-100,4,1,1,45,0,1
90173,-100,4,2,1,100,0,1
91486,-100,4,1,1,40,0,1
91673,-100,4,2,1,100,0,1
92517,-100,4,2,3,100,0,1
92611,-100,4,2,1,100,0,1
92986,-100,4,1,1,35,0,1
93173,-100,4,2,1,100,0,1
96080,-100,4,1,1,35,0,1
96173,-100,4,2,1,100,0,1
97018,-100,4,2,3,100,0,1
97112,-100,4,2,1,100,0,1
97486,-100,4,1,1,30,0,1
97673,-100,4,2,1,100,0,1
98518,-100,4,2,3,100,0,1
98612,-100,4,2,1,100,0,1
98987,-100,4,1,1,35,0,1
99174,-100,4,2,1,100,0,1
100487,-100,4,1,1,25,0,1
100674,-100,4,2,1,100,0,1
101987,-100,4,2,2,100,0,0
102174,-100,4,2,1,100,0,0
107987,-100,4,1,1,30,0,0
108174,-100,4,2,1,100,0,0
109487,-200,4,2,1,100,0,0
109768,-200,4,2,4,100,0,0
109956,-200,4,2,1,100,0,0
110799,-100,4,2,1,100,0,0
113986,-100,4,1,1,35,0,0
114173,-100,4,2,1,100,0,0
116986,-100,4,1,1,35,0,0
117173,-100,4,2,1,100,0,0

[HitObjects]
80,72,15080,6,0,B|160:88,1,80,8|2,0:0|0:0,0:0:0:0:
272,80,15642,1,8,0:0:0:0:
352,160,15830,1,8,0:0:0:0:
176,312,16205,2,0,B|96:288,1,80,2|8,0:0|0:0,0:0:0:0:
32,216,16767,1,8,0:0:0:0:
48,112,16955,1,2,0:0:0:0:
144,56,17142,2,0,B|168:88,1,40,8|8,0:0|0:0,0:0:0:0:
264,32,17517,1,2,0:0:0:0:
288,136,17705,2,0,B|368:128,1,80,2|8,0:0|0:0,0:0:0:0:
360,328,18455,5,2,0:0:0:0:
264,256,18642,1,8,0:0:0:0:
184,344,18830,2,0,B|112:304,1,80,8|2,0:0|0:0,0:0:0:0:
56,104,19580,1,8,0:0:0:0:
160,168,19767,1,8,0:0:0:0:
296,32,19955,1,2,0:0:0:0:
184,64,20142,1,8,0:0:0:0:
288,192,20330,1,8,0:0:0:0:
400,160,20517,1,10,0:0:0:0:
400,160,20611,1,8,0:0:0:0:
400,160,20705,2,0,B|424:80,1,80,2|8,0:0|0:0,0:0:0:0:
448,280,21455,5,2,0:0:0:0:
352,344,21642,1,8,0:0:0:0:
240,312,21830,1,8,0:0:0:0:
320,64,22205,1,2,0:0:0:0:
104,232,22580,5,8,0:0:0:0:
32,136,22767,1,8,0:0:0:0:
168,120,22955,1,2,0:0:0:0:
48,200,23142,1,8,0:0:0:0:
148,84,23330,2,0,B|168:120,1,40,8|2,0:0|0:0,0:0:0:0:
304,264,23705,6,0,B|384:240,1,80,2|8,0:0|0:0,0:0:0:0:
416,56,24455,1,2,0:0:0:0:
131,241,24830,1,8,0:0:0:0:
96,56,25205,1,2,0:0:0:0:
292,296,25580,5,8,0:0:0:0:
348,164,25767,1,8,0:0:0:0:
348,164,25861,1,8,0:0:0:0:
348,164,25955,1,2,0:0:0:0:
428,352,26142,1,8,0:0:0:0:
428,352,26236,1,10,0:0:0:0:
292,296,26423,1,10,0:0:0:0:
292,296,26517,1,8,0:0:0:0:
148,320,26705,1,2,0:0:0:0:
80,192,26892,1,8,0:0:0:0:
80,192,26986,1,8,0:0:0:0:
80,192,27080,6,0,B|40:160|64:64|120:64,1,160,4|2,0:0|0:0,0:0:0:0:
216,152,27642,1,8,0:0:0:0:
304,56,27830,2,0,B|384:40,1,80,4|8,0:0|0:0,0:0:0:0:
464,208,28205,2,0,B|304:176,1,160,2|8,0:0|0:0,0:0:0:0:
200,272,28767,6,0,B|120:248,1,80,4|2,0:0|0:0,0:0:0:0:
288,216,29142,1,8,0:0:0:0:
384,344,29330,2,0,B|432:352|472:264|440:216,1,160,4|2,0:0|0:0,0:0:0:0:
128,40,30080,6,0,B|80:32|40:120|72:168,1,160,4|2,0:0|0:0,0:0:0:0:
176,272,30642,1,8,0:0:0:0:
232,136,30830,2,0,B|240:88|344:80|368:128,1,160,4|2,0:0|0:0,0:0:0:0:
128,328,31580,2,0,B|104:240,1,80,8|4,0:0|0:0,0:0:0:0:
152,64,31955,2,0,B|176:144,1,80,2|8,0:0|0:0,0:0:0:0:
232,288,32330,2,0,B|248:336|360:336|368:280,1,160,4|2,0:0|0:0,0:0:0:0:
368,24,33080,5,4,0:0:0:0:
96,96,33455,1,2,0:0:0:0:
48,208,33642,1,8,0:0:0:0:
104,328,33830,2,0,B|160:296|224:320,1,120,4|0,0:0|0:0,0:0:0:0:
248,352,34205,2,0,B|264:272,1,80,2|0,0:0|0:0,0:0:0:0:
408,224,34580,2,0,B|424:304,1,80,8|4,0:0|0:0,0:0:0:0:
240,148,34955,2,0,B|264:68,1,80,2|8,0:0|0:0,0:0:0:0:
76,192,35330,2,0,B|108:352,1,160,4|2,0:0|0:0,0:0:0:0:
416,72,36080,6,0,B|344:112|256:88,1,160,4|2,0:0|0:0,0:0:0:0:
160,24,36642,1,8,0:0:0:0:
128,192,36830,2,0,B|176:152|248:176,1,120,4|0,0:0|0:0,0:0:0:0:
264,208,37205,2,0,B|296:184|344:184,1,80,2|0,0:0|0:0,0:0:0:0:
464,312,37580,2,0,B|421:312|389:288,1,80,8|4,0:0|0:0,0:0:0:0:
208,320,37955,2,0,B|250:319|282:343,1,80,2|8,0:0|0:0,0:0:0:0:
389,288,38330,1,4,0:0:0:0:
432,160,38517,1,8,0:0:0:0:
440,128,38611,1,8,0:0:0:0:
448,96,38705,6,0,B|360:120,1,80,6|4,0:0|0:0,0:0:0:0:
64,352,39455,6,0,B|48:272,1,80,2|8,0:0|0:0,0:0:0:0:
160,224,39830,2,0,B|152:136,1,80,4|8,0:0|0:0,0:0:0:0:
272,40,40205,2,0,B|264:160,1,120,2|0,0:0|0:0,0:0:0:0:
260,204,40580,2,0,B|288:236|332:240,1,80,8|4,0:0|0:0,0:0:0:0:
184,104,40955,2,0,B|156:72|112:68,1,80,2|8,0:0|0:0,0:0:0:0:
272,40,41330,2,0,B|324:8|400:40,1,120,4|0,0:0|0:0,0:0:0:0:
424,64,41705,1,2,0:0:0:0:
372,180,41892,1,8,0:0:0:0:
456,296,42080,6,0,B|452:348|352:364|328:312,1,160,4|2,0:0|0:0,0:0:0:0:
292,192,42642,1,8,0:0:0:0:
132,240,42830,2,0,B|168:260|176:312,1,80,4|8,0:0|0:0,0:0:0:0:
332,336,43205,2,0,B|324:276|368:216,1,120,2|0,0:0|0:0,0:0:0:0:
402,202,43580,1,8,0:0:0:0:
362,29,43767,1,4,0:0:0:0:
292,192,43955,1,2,0:0:0:0:
444,101,44142,1,8,0:0:0:0:
268,85,44330,1,4,0:0:0:0:
124,140,44517,1,8,0:0:0:0:
124,140,44611,1,8,0:0:0:0:
124,140,44705,1,6,0:0:0:0:
236,340,45080,6,0,B|276:296|352:312,1,120,4|0,0:0|0:0,0:0:0:0:
376,336,45455,2,0,B|400:256,1,80,2|8,0:0|0:0,0:0:0:0:
236,124,45830,2,0,B|260:203,1,80,4|8,0:0|0:0,0:0:0:0:
472,104,46205,2,0,B|400:96|352:128,1,120,2|0,0:0|0:0,0:0:0:0:
260,200,46580,2,0,B|300:208|337:191,1,80,8|4,0:0|0:0,0:0:0:0:
176,152,46955,2,0,B|132:140|100:160,1,80,2|8,0:0|0:0,0:0:0:0:
168,356,47330,2,0,B|152:264,1,80,4|8,0:0|0:0,0:0:0:0:
168,240,47611,1,8,0:0:0:0:
200,208,47705,2,0,B|280:188,1,80,2|0,0:0|0:0,0:0:0:0:
464,328,48080,6,0,B|336:292,1,120,8|0,0:0|0:0,0:0:0:0:
308,304,48455,2,0,B|232:280,1,80,2|8,0:0|0:0,0:0:0:0:
56,172,48830,2,0,B|184:144,1,120,4|0,0:0|0:0,0:0:0:0:
196,112,49205,2,0,B|276:96,1,80,2|8,0:0|0:0,0:0:0:0:
392,40,49580,1,8,0:0:0:0:
400,204,49767,1,4,0:0:0:0:
324,80,49955,1,2,0:0:0:0:
464,160,50142,1,8,0:0:0:0:
400,312,50330,2,0,B|336:316|276:284,1,120,4|0,0:0|0:0,0:0:0:0:
256,256,50705,2,0,B|240:340,1,80,2|0,0:0|0:0,0:0:0:0:
72,200,51080,6,0,B|56:80,1,120,4|0,0:0|0:0,0:0:0:0:
52,40,51455,2,0,B|88:20|132:24,1,80,2|8,0:0|0:0,0:0:0:0:
264,76,51830,1,4,0:0:0:0:
168,256,52017,1,8,0:0:0:0:
112,144,52205,1,2,0:0:0:0:
168,256,52392,1,8,0:0:0:0:
304,344,52580,2,0,B|328:264,1,80,8|4,0:0|0:0,0:0:0:0:
468,236,52955,2,0,B|452:144,1,80,2|8,0:0|0:0,0:0:0:0:
432,24,53330,1,4,0:0:0:0:
280,12,53517,1,8,0:0:0:0:
56,164,53705,6,0,B|76:188|104:176|96:140|68:140,1,80,2|4,0:0|0:0,0:0:0:0:
408,72,66080,5,8,0:0:0:0:
88,112,66455,1,2,0:0:0:0:
136,312,66642,1,0,0:0:0:0:
52,248,66830,2,0,B|84:196|160:184,1,120,4|0,0:0|0:0,0:0:0:0:
188,200,67205,1,2,0:0:0:0:
312,248,67392,1,0,0:0:0:0:
432,208,67580,6,0,B|391:200|363:168,1,80,8|4,0:0|0:0,0:0:0:0:
332,48,67955,2,0,B|291:55|263:87,1,80,2|0,0:0|0:0,0:0:0:0:
188,200,68330,2,0,P|176:208|232:216,1,160,4|2,0:0|0:0,0:0:0:0:
80,44,69080,5,8,0:0:0:0:
344,164,69455,1,2,0:0:0:0:
452,124,69642,1,0,0:0:0:0:
508,236,69830,2,0,P|456:208|396:224,1,120,4|0,0:0|0:0,0:0:0:0:
384,256,70205,2,0,P|352:284|316:284,1,80,2|0,0:0|0:0,0:0:0:0:
177,181,70580,5,8,0:0:0:0:
336,136,70768,1,4,0:0:0:0:
182,79,70955,1,2,0:0:0:0:
273,216,71143,1,0,0:0:0:0:
280,52,71330,2,0,B|248:84|249:129|249:129|228:160|228:160|220:200,1,160,4|10,0:0|0:0,0:0:0:0:
420,304,72080,5,8,0:0:0:0:
88,228,72455,1,2,0:0:0:0:
140,336,72642,1,0,0:0:0:0:
208,244,72830,2,0,B|240:204|232:164|232:164|192:180|184:216,1,160,4|2,0:0|0:0,0:0:0:0:
420,304,73580,6,0,L|448:224,1,80,8|4,0:0|0:0,0:0:0:0:
300,232,73955,2,0,L|304:152,1,80,2|0,0:0|0:0,0:0:0:0:
188,296,74330,1,4,0:0:0:0:
416,80,74705,1,2,0:0:0:0:
64,240,75080,5,4,0:0:0:0:
448,144,75830,1,4,0:0:0:0:
124,324,76580,1,4,0:0:0:0:
384,72,76955,2,0,L|400:76,46,10,4|0|0|0|0|0|0|0|0|0|0|0|0|0|0|2|2|2|2|2|2|2|2|2|2|2|2|2|2|2|2|2|2|2|2|2|2|2|2|2|2|2|2|2|2|2|2,0:0|0:0|0:0|0:0|0:0|0:0|0:0|0:0|0:0|0:0|0:0|0:0|0:0|0:0|0:0|0:0|0:0|0:0|0:0|0:0|0:0|0:0|0:0|0:0|0:0|0:0|0:0|0:0|0:0|0:0|0:0|0:0|0:0|0:0|0:0|0:0|0:0|0:0|0:0|0:0|0:0|0:0|0:0|0:0|0:0|0:0|0:0,0:0:0:0:
412,76,78080,6,0,B|372:196,1,120,4|0,0:0|0:0,0:0:0:0:
364,224,78455,1,10,0:0:0:0:
328,348,78642,1,0,0:0:0:0:
192,220,78830,6,0,B|232:232,1,40,4|8,0:0|0:0,0:0:0:0:
136,76,79205,2,0,B|96:88,1,40,2|8,0:0|0:0,0:0:0:0:
68,112,79486,1,0,0:0:0:0:
56,152,79580,6,0,B|72:232,1,80,4|4,0:0|0:0,0:0:0:0:
136,328,79955,1,10,0:0:0:0:
240,252,80142,1,0,0:0:0:0:
416,276,80330,6,0,B|372:292,1,40,4|8,0:0|0:0,0:0:0:0:
236,160,80705,2,0,B|280:176,1,40,2|8,0:0|0:0,0:0:0:0:
448,108,81080,6,0,B|328:68,1,120,4|0,0:0|0:0,0:0:0:0:
296,56,81455,1,10,0:0:0:0:
176,120,81642,1,0,0:0:0:0:
68,44,81830,6,0,B|52:100,1,40,4|8,0:0|0:0,0:0:0:0:
112,300,82205,2,0,B|124:252,1,40,2|8,0:0|0:0,0:0:0:0:
132,224,82486,1,0,0:0:0:0:
144,184,82580,6,0,B|220:212,1,80,4|4,0:0|0:0,0:0:0:0:
368,264,82955,1,10,0:0:0:0:
368,264,83330,1,4,0:0:0:0:
416,120,83517,1,8,0:0:0:0:
284,28,83705,1,10,0:0:0:0:
276,64,83798,1,8,0:0:0:0:
112,88,83986,1,8,0:0:0:0:
124,124,84080,6,0,B|96:160|60:144|60:144|72:168|60:192,1,120,4|0,0:0|0:0,0:0:0:0:
48,228,84455,1,10,0:0:0:0:
88,336,84642,1,0,0:0:0:0:
208,272,84830,6,0,B|196:224,1,40,4|8,0:0|0:0,0:0:0:0:
380,276,85205,2,0,B|368:320,1,40,2|8,0:0|0:0,0:0:0:0:
480,156,85580,5,0,0:0:0:0:
376,52,85767,1,4,0:0:0:0:
256,128,85955,2,0,B|204:144|172:96|172:96|148:116,1,120,10|0,0:0|0:0,0:0:0:0:
96,132,86330,6,0,B|72:132|60:112,1,40,4|8,0:0|0:0,0:0:0:0:
184,280,86705,2,0,B|188:304|180:324,1,40,2|8,0:0|0:0,0:0:0:0:
256,128,87080,6,0,B|292:76|364:96,1,120,4|0,0:0|0:0,0:0:0:0:
392,124,87455,1,10,0:0:0:0:
440,252,87642,1,0,0:0:0:0:
320,340,87830,2,0,B|328:292,1,40,4|8,0:0|0:0,0:0:0:0:
212,184,88205,2,0,B|224:232,1,40,2|8,0:0|0:0,0:0:0:0:
68,224,88580,5,8,0:0:0:0:
72,208,88673,1,10,0:0:0:0:
76,192,88767,2,0,B|88:144,1,40,12|6,0:0|0:0,0:0:0:0:
224,272,89142,1,8,0:0:0:0:
228,288,89235,1,0,0:0:0:0:
232,304,89329,2,0,B|244:352,1,40,6|8,0:0|0:0,0:0:0:0:
368,240,89705,1,4,0:0:0:0:
404,72,89892,1,8,0:0:0:0:
420,80,89986,1,8,0:0:0:0:
436,88,90080,6,0,B|308:112,1,120,4|0,0:0|0:0,0:0:0:0:
292,140,90455,2,0,B|252:72,1,80,10|0,0:0|0:0,0:0:0:0:
112,252,90830,1,4,0:0:0:0:
160,128,91017,1,8,0:0:0:0:
336,276,91205,1,2,0:0:0:0:
216,344,91392,1,8,0:0:0:0:
292,140,91580,6,0,P|316:112|360:96,1,80,4|4,0:0|0:0,0:0:0:0:
168,200,91955,2,0,P|128:212|88:204,1,80,10|0,0:0|0:0,0:0:0:0:
288,280,92330,2,2,B|316:320|308:360|308:360|272:344|264:304,1,160,4|2,0:0|0:0,0:0:0:0:
220,140,92892,1,8,0:0:0:0:
352,64,93080,6,0,B|308:80|264:72|264:72|248:44,1,120,4|0,0:0|0:0,0:0:0:0:
236,12,93455,1,10,0:0:0:0:
336,164,93642,1,0,0:0:0:0:
216,264,93830,2,0,P|180:248|140:248,1,80,4|8,0:0|0:0,0:0:0:0:
316,348,94205,2,0,P|360:340|388:320,1,80,2|8,0:0|0:0,0:0:0:0:
456,204,94580,5,0,0:0:0:0:
424,76,94767,1,4,0:0:0:0:
296,36,94955,1,10,0:0:0:0:
296,36,95330,1,4,0:0:0:0:
424,76,95517,1,8,0:0:0:0:
456,204,95705,1,8,0:0:0:0:
464,240,95798,1,8,0:0:0:0:
320,248,95986,1,8,0:0:0:0:
316,288,96080,5,4,0:0:0:0:
416,348,96267,1,0,0:0:0:0:
324,208,96455,1,10,0:0:0:0:
188,272,96642,1,0,0:0:0:0:
216,100,96830,2,2,B|248:88|272:108|272:108|264:144|232:148,1,120,4|0,0:0|0:0,0:0:0:0:
200,148,97205,1,2,0:0:0:0:
368,64,97392,1,8,0:0:0:0:
168,44,97580,5,4,0:0:0:0:
232,252,97767,1,4,0:0:0:0:
272,16,97955,1,10,0:0:0:0:
64,68,98142,1,0,0:0:0:0:
244,144,98330,6,2,B|208:112|168:124|168:124|164:164|196:192,1,160,4|2,0:0|0:0,0:0:0:0:
328,264,98892,1,8,0:0:0:0:
432,112,99080,6,0,B|404:96|372:96|372:96|344:108|312:96,1,120,4|0,0:0|0:0,0:0:0:0:
280,80,99455,1,10,0:0:0:0:
480,176,99642,1,0,0:0:0:0:
332,28,99830,2,0,B|360:72|344:108|344:108|352:132|344:148,1,120,4|0,0:0|0:0,0:0:0:0:
344,184,100205,1,2,0:0:0:0:
232,312,100392,1,8,0:0:0:0:
92,204,100580,5,4,0:0:0:0:
40,108,100767,1,6,0:0:0:0:
36,100,100861,1,0,0:0:0:0:
32,92,100955,1,4,0:0:0:0:
84,304,101142,1,8,0:0:0:0:
116,168,101330,5,6,0:0:0:0:
216,120,101517,1,8,0:0:0:0:
220,128,101611,1,0,0:0:0:0:
224,136,101705,1,4,0:0:0:0:
8,200,101892,1,10,0:0:0:0:
140,132,102080,5,4,0:0:0:0:
356,358,102455,1,2,0:0:0:0:
402,184,102643,1,8,0:0:0:0:
293,295,102830,1,4,0:0:0:0:
467,248,103018,1,2,0:0:0:0:
315,208,103205,1,0,0:0:0:0:
444,336,103393,1,2,0:0:0:0:
315,208,103580,5,8,0:0:0:0:
176,248,103767,1,4,0:0:0:0:
80,140,103955,1,2,0:0:0:0:
432,244,104330,1,4,0:0:0:0:
132,40,104705,1,2,0:0:0:0:
380,344,105080,5,8,0:0:0:0:
32,156,105455,1,2,0:0:0:0:
136,112,105642,1,8,0:0:0:0:
208,208,105830,2,0,P|268:224|328:200,1,120,4|0,0:0|0:0,0:0:0:0:
340,172,106205,2,0,P|344:156|368:184,1,80,2|0,0:0|0:0,0:0:0:0:
236,120,106580,5,8,0:0:0:0:
280,296,106767,1,4,0:0:0:0:
268,104,106955,1,2,0:0:0:0:
248,284,107142,1,8,0:0:0:0:
96,152,107330,2,0,P|132:168|156:200,1,80,4|8,0:0|0:0,0:0:0:0:
164,236,107611,1,8,0:0:0:0:
160,272,107705,1,6,0:0:0:0:
28,196,107892,1,0,0:0:0:0:
120,60,108080,6,0,B|148:48|148:48|192:64|240:48,1,120,4|0,0:0|0:0,0:0:0:0:
272,64,108455,1,2,0:0:0:0:
328,184,108642,1,8,0:0:0:0:
240,140,108830,1,4,0:0:0:0:
376,48,109017,1,2,0:0:0:0:
420,224,109205,1,0,0:0:0:0:
376,48,109392,1,2,0:0:0:0:
216,68,109580,6,2,B|184:72|184:72|160:64|136:72,1,80,8|2,0:0|0:0,0:0:0:0:
296,316,110330,2,0,B|328:312|328:312|352:320|376:312,1,80,4|2,0:0|0:0,0:0:0:0:
448,212,110892,1,0,0:0:0:0:
424,72,111080,6,0,L|304:108,1,120,8|0,0:0|0:0,0:0:0:0:
272,120,111455,2,0,L|292:36,1,80,2|8,0:0|0:0,0:0:0:0:
128,92,111830,2,0,L|148:172,1,80,4|0,0:0|0:0,0:0:0:0:
56,272,112205,1,2,0:0:0:0:
172,340,112392,1,8,0:0:0:0:
420,260,112580,6,0,L|340:280,1,80,8|4,0:0|0:0,0:0:0:0:
184,144,112955,2,0,L|260:172,1,80,2|8,0:0|0:0,0:0:0:0:
428,80,113330,2,0,L|304:40,1,120,4|0,0:0|0:0,0:0:0:0:
280,32,113705,1,10,0:0:0:0:
172,96,113892,1,0,0:0:0:0:
40,56,114080,6,0,L|60:184,1,120,4|0,0:0|0:0,0:0:0:0:
64,208,114455,2,0,B|80:224|80:224|140:220,1,80,2|8,0:0|0:0,0:0:0:0:
252,144,114830,1,4,0:0:0:0:
340,248,115017,1,0,0:0:0:0:
484,192,115205,2,0,B|492:168|492:168|480:112,1,80,2|0,0:0|0:0,0:0:0:0:
276,212,115580,6,0,B|268:236|268:236|280:292,1,80,8|4,0:0|0:0,0:0:0:0:
368,124,115955,2,0,P|300:96|212:108,1,160,2|4,0:0|0:0,0:0:0:0:
136,216,116517,1,8,0:0:0:0:
192,328,116705,1,2,0:0:0:0:
228,160,116892,1,8,0:0:0:0:
44,272,117080,6,0,B|72:300|72:300|156:320,1,120,4|0,0:0|0:0,0:0:0:0:
192,328,117455,2,0,B|208:288|208:288|248:264,1,80,2|0,0:0|0:0,0:0:0:0:
352,232,117830,1,4,0:0:0:0:
120,268,118017,2,0,B|100:232|100:232|104:184,1,80,8|2,0:0|0:0,0:0:0:0:
308,308,118392,1,0,0:0:0:0:
352,112,118580,6,0,L|432:88,1,80,8|4,0:0|0:0,0:0:0:0:
160,216,118955,2,0,L|76:192,1,80,2|8,0:0|0:0,0:0:0:0:
392,336,119330,2,0,L|404:208,1,120,4|0,0:0|0:0,0:0:0:0:
408,176,119705,1,10,0:0:0:0:
248,216,119892,1,0,0:0:0:0:
