osu file format v12

[General]
AudioFilename: 13 Necro Fantasia.mp3
AudioLeadIn: 0
PreviewTime: 122308
Countdown: 0
SampleSet: Normal
StackLeniency: 0.7
Mode: 0
LetterboxInBreaks: 1

[Editor]
Bookmarks: 100365,122308,169965
DistanceSpacing: 1
BeatDivisor: 4
GridSize: 8

[Metadata]
Title:Necro Fantasia
TitleUnicode:Necro Fantasia
Artist:Masayoshi Minoshima
ArtistUnicode:Masayoshi Minoshima
Creator:Shinxyn
Version:Normal
Source:Touhou
Tags:Misato Misty Alstroemeria Records For Your Pieces Yukari Yakumo
BeatmapID:243984
BeatmapSetID:89810

[Difficulty]
HPDrainRate:4
CircleSize:4
OverallDifficulty:3
ApproachRate:4
SliderMultiplier:0.8
SliderTickRate:1

[Events]
//Background and Video events
0,0,"yu.jpg",0,0
//Break Periods
2,67698,77148
//Storyboard Layer 0 (Background)
//Storyboard Layer 1 (Fail)
//Storyboard Layer 2 (Pass)
//Storyboard Layer 3 (Foreground)
//Storyboard Sound Samples
//Background Colour Transformations
3,100,163,162,255

[TimingPoints]
1670,342.857142857143,4,2,0,80,1,0
34241,-100,4,1,1,80,0,0
44355,-100,4,2,0,80,0,0
45384,-100,4,1,1,80,0,0

[Colours]
Combo1 : 249,128,128
Combo2 : 231,48,185
Combo3 : 132,60,134
Combo4 : 254,199,245

[HitObjects]
264,320,34584,6,0,P|112:288|88:136,1,320,0|0,0:0|0:0,0:0:0:0:
248,64,37327,6,0,P|400:96|424:248,1,320
112,296,40070,6,0,B|178:200|328:192|376:96,1,320
400,296,42812,6,0,B|352:248|240:232|208:168,2,160,0|0|4,0:0|0:0|0:0,0:0:0:0:
96,192,45555,6,0,P|80:152|96:104,1,80,0|2,0:0|0:0,0:0:0:0:
232,48,46584,1,2,0:0:0:0:
384,96,47270,1,2,0:0:0:0:
224,120,47955,1,2,0:0:0:0:
144,144,48298,6,0,P|160:184|216:192,1,80,0|2,0:0|0:0,0:0:0:0:
352,224,49327,1,2,0:0:0:0:
352,224,50012,1,2,0:0:0:0:
248,352,50698,1,2,0:0:0:0:
176,304,51041,6,0,P|112:320|72:296,1,80,0|2,0:0|0:0,0:0:0:0:
112,160,52069,1,2,0:0:0:0:
24,296,52755,1,2,0:0:0:0:
24,136,53441,1,2,0:0:0:0:
48,216,53784,6,0,L|152:216,1,80,0|2,0:0|0:0,0:0:0:0:
288,216,54812,2,0,L|376:216,1,80,2|0,0:0|0:0,0:0:0:0:
448,216,55498,5,2,0:0:0:0:
400,152,55841,1,0,0:0:0:0:
480,136,56184,1,2,0:0:0:0:
424,72,56527,6,0,P|383:69|336:96,1,80,4|2,0:0|0:0,0:0:0:0:
448,216,57555,1,2,0:0:0:0:
352,344,58241,2,0,L|248:200,1,160,2|2,0:0|0:0,0:0:0:0:
176,216,59270,6,0,B|88:216,1,80,0|2,0:0|0:0,0:0:0:0:
232,136,60298,1,2,0:0:0:0:
96,216,60984,2,0,L|240:296,1,160,2|2,0:0|0:0,0:0:0:0:
312,288,62012,6,0,P|352:264|384:224,1,80,0|2,0:0|0:0,0:0:0:0:
320,88,63041,1,2,0:0:0:0:
160,88,63727,1,2,0:0:0:0:
40,192,64412,1,2,0:0:0:0:
40,272,64755,5,0,0:0:0:0:
104,320,65098,2,0,P|184:336|272:288,1,160,2|2,0:0|0:0,0:0:0:0:
312,256,66127,1,0,0:0:0:0:
336,184,66470,5,2,0:0:0:0:
336,184,66812,1,0,0:0:0:0:
360,104,67155,1,2,0:0:0:0:
360,104,67498,1,4,0:0:0:0:
256,328,78470,6,0,L|256:232,1,80,4|2,0:0|0:0,0:0:0:0:
336,112,79498,1,2,0:0:0:0:
176,112,80184,1,2,0:0:0:0:
256,136,80527,6,0,L|312:200,1,80,0|2,0:0|0:0,0:0:0:0:
368,248,81212,1,0,0:0:0:0:
448,232,81555,2,0,P|432:312|352:328,1,160,2|2,0:0|0:0,0:0:0:0:
368,248,82584,1,0,0:0:0:0:
296,288,82927,5,2,0:0:0:0:
216,288,83270,1,0,0:0:0:0:
136,288,83612,2,0,L|40:288,1,80,2|4,0:0|0:0,0:0:0:0:
16,216,84298,5,2,0:0:0:0:
168,160,84984,1,2,0:0:0:0:
312,96,85670,1,2,0:0:0:0:
456,32,86355,1,2,0:0:0:0:
432,112,86698,5,0,0:0:0:0:
432,112,87041,1,2,0:0:0:0:
288,176,87727,1,2,0:0:0:0:
168,72,88412,1,2,0:0:0:0:
96,104,88755,5,2,0:0:0:0:
96,104,89098,1,2,0:0:0:0:
24,136,89441,5,0,0:0:0:0:
24,136,89784,1,2,0:0:0:0:
112,272,90470,1,2,0:0:0:0:
112,272,91155,1,2,0:0:0:0:
256,344,91841,1,2,0:0:0:0:
336,344,92184,5,0,0:0:0:0:
416,328,92527,2,0,P|488:280|480:208,1,160,2|2,0:0|0:0,0:0:0:0:
408,240,93555,1,0,0:0:0:0:
328,264,93898,2,0,P|344:176|440:176,1,160,2|2,0:0|0:0,0:0:0:0:
408,240,94927,5,0,0:0:0:0:
392,320,95270,1,2,0:0:0:0:
232,352,95955,2,0,L|64:272,1,160,2|2,0:0|0:0,0:0:0:0:
8,264,96984,5,0,0:0:0:0:
72,208,97327,2,0,L|160:168,1,80,2|0,0:0|0:0,0:0:0:0:
208,216,98012,2,0,P|224:136|160:96,1,160,2|2,0:0|0:0,0:0:0:0:
88,112,99041,5,0,0:0:0:0:
112,32,99384,1,2,0:0:0:0:
32,56,99727,5,2,0:0:0:0:
8,136,100070,1,2,0:0:0:0:
64,192,100412,5,4,0:0:0:0:
65,192,100755,2,0,B|99:220|104:296|154:321,1,160,2|2,0:0|0:0,0:0:0:0:
224,360,101784,1,0,0:0:0:0:
292,320,102127,2,0,B|342:294|347:218|382:190,1,160,2|2,0:0|0:0,0:0:0:0:
456,152,103155,1,0,0:0:0:0:
392,104,103498,5,2,0:0:0:0:
240,144,104184,1,2,0:0:0:0:
240,144,104527,1,0,0:0:0:0:
160,136,104870,1,2,0:0:0:0:
160,136,105212,1,0,0:0:0:0:
80,128,105555,1,2,0:0:0:0:
80,128,105898,6,0,P|48:248|112:312,1,160
144,272,106927,2,0,P|224:296|320:264,2,160,2|2|2,0:0|0:0|0:0,0:0:0:0:
200,208,108641,1,0,0:0:0:0:
160,136,108984,2,0,P|168:64|224:0,2,160,2|2|2,0:0|0:0|0:0,0:0:0:0:
240,136,110698,5,2,0:0:0:0:
320,136,111041,1,2,0:0:0:0:
400,136,111384,5,4,0:0:0:0:
360,208,111727,2,0,L|176:208,2,160,2|2|2,0:0|0:0|0:0,0:0:0:0:
464,328,113784,5,2,0:0:0:0:
312,280,114469,1,2,0:0:0:0:
160,320,115155,1,2,0:0:0:0:
8,256,115841,1,2,0:0:0:0:
64,104,116527,1,2,0:0:0:0:
136,160,116870,5,0,0:0:0:0:
136,160,117212,1,0,0:0:0:0:
136,160,117555,1,0,0:0:0:0:
136,160,117898,1,0,0:0:0:0:
208,128,118241,5,0,0:0:0:0:
208,128,118584,1,0,0:0:0:0:
208,128,118927,1,0,0:0:0:0:
208,128,119270,1,0,0:0:0:0:
280,96,119612,5,0,0:0:0:0:
336,152,119955,1,0,0:0:0:0:
304,224,120298,1,0,0:0:0:0:
224,208,120641,1,0,0:0:0:0:
208,128,120984,1,4,0:0:0:0:
256,328,122355,6,0,P|168:328|80:280,2,160,4|0|0,0:0|0:0|0:0,0:0:0:0:
336,312,124070,1,2,0:0:0:0:
400,264,124412,1,0,0:0:0:0:
440,192,124755,1,2,0:0:0:0:
440,112,125098,6,0,P|384:64|272:48,1,160
224,48,126127,1,2,0:0:0:0:
144,48,126470,2,0,P|104:56|68:73,2,80,0|2|0,0:0|0:0|0:0,0:0:0:0:
168,128,127498,1,2,0:0:0:0:
168,128,127841,2,0,P|80:152|24:200,2,160
192,200,129555,1,2,0:0:0:0:
120,232,129898,1,0,0:0:0:0:
56,280,130241,1,2,0:0:0:0:
104,344,130584,6,0,P|200:280|320:248,1,240,0|2,0:0|0:0,0:0:0:0:
392,280,131955,2,0,P|398:242|376:184,1,80,0|2,0:0|0:0,0:0:0:0:
312,176,132641,1,2,0:0:0:0:
312,176,132984,1,2,0:0:0:0:
368,120,133327,6,0,P|336:96|256:120,2,80,4|2|0,0:0|0:0|0:0,0:0:0:0:
312,176,134355,1,2,0:0:0:0:
160,120,135041,1,2,0:0:0:0:
88,88,135384,5,0,0:0:0:0:
96,168,135727,1,2,0:0:0:0:
160,120,136070,6,0,P|168:192|104:248,1,160
32,280,137098,1,2,0:0:0:0:
96,328,137441,1,0,0:0:0:0:
168,304,137784,2,0,P|264:264|336:280,1,160,2|2,0:0|0:0,0:0:0:0:
392,296,138812,5,0,0:0:0:0:
456,248,139155,2,0,P|480:168|440:88,1,160,2|2,0:0|0:0,0:0:0:0:
392,152,140184,1,0,0:0:0:0:
336,208,140527,2,0,P|304:128|344:56,1,160,2|2,0:0|0:0,0:0:0:0:
256,192,141555,12,4,144298,0:0:0:0:
256,344,145670,1,0,0:0:0:0:
296,272,146012,2,0,B|248:240|272:176|224:128,1,160,2|2,0:0|0:0,0:0:0:0:
208,288,147384,2,0,B|160:256|184:192|128:128,1,160,2|2,0:0|0:0,0:0:0:0:
136,64,148412,5,0,0:0:0:0:
136,64,148755,1,2,0:0:0:0:
72,112,149098,5,0,0:0:0:0:
0,152,149441,1,2,0:0:0:0:
72,192,149784,6,0,L|72:296,1,80,4|2,0:0|0:0,0:0:0:0:
208,352,150812,2,0,L|208:264,1,80,2|0,0:0|0:0,0:0:0:0:
208,192,151498,2,0,L|208:24,1,160,2|2,0:0|0:0,0:0:0:0:
288,56,152527,5,0,0:0:0:0:
368,32,152870,2,0,L|368:208,1,160,2|2,0:0|0:0,0:0:0:0:
288,168,153898,2,0,L|288:256,1,80,0|2,0:0|0:0,0:0:0:0:
328,320,154584,5,2,0:0:0:0:
248,320,154927,1,2,0:0:0:0:
288,248,155270,6,0,B|232:264|185:209|120:248,1,160,4|0,0:0|0:0,0:0:0:0:
56,272,156298,1,2,0:0:0:0:
64,192,156641,2,0,P|80:152|64:112,1,80,0|2,0:0|0:0,0:0:0:0:
224,96,157670,1,2,0:0:0:0:
304,96,158012,5,0,0:0:0:0:
280,176,158355,2,0,P|360:160|384:88,2,160,2|2|2,0:0|0:0|0:0,0:0:0:0:
200,176,160070,1,0,0:0:0:0:
120,184,160412,1,2,0:0:0:0:
64,240,160755,6,0,L|64:328,1,80,0|2,0:0|0:0,0:0:0:0:
8,168,161784,1,2,0:0:0:0:
64,96,162127,2,0,L|64:0,1,80,0|2,0:0|0:0,0:0:0:0:
8,168,163155,5,2,0:0:0:0:
80,200,163498,1,0,0:0:0:0:
152,160,163841,2,0,B|204:175|256:144|312:160,1,160,2|2,0:0|0:0,0:0:0:0:
312,240,164870,2,0,B|257:224|205:255|153:240,1,160,0|2,0:0|0:0,0:0:0:0:
80,200,165898,1,2,0:0:0:0:
256,192,166241,12,0,170012,0:0:0:0:
