osu file format v12

[General]
AudioFilename: 13 Necro Fantasia.mp3
AudioLeadIn: 0
PreviewTime: 122308
Countdown: 0
SampleSet: Normal
StackLeniency: 0.7
Mode: 0
LetterboxInBreaks: 1

[Editor]
Bookmarks: 100365,122308,169965
DistanceSpacing: 1
BeatDivisor: 4
GridSize: 4

[Metadata]
Title:Necro Fantasia
TitleUnicode:Necro Fantasia
Artist:Masayoshi Minoshima
ArtistUnicode:Masayoshi Minoshima
Creator:Shinxyn
Version:Insane
Source:Touhou
Tags:Misato Misty Alstroemeria Records For Your Pieces Yukari Yakumo
BeatmapID:243983
BeatmapSetID:89810

[Difficulty]
HPDrainRate:8
CircleSize:4
OverallDifficulty:9
ApproachRate:9
SliderMultiplier:1.8
SliderTickRate:1

[Events]
//Background and Video events
0,0,"yu.jpg",0,0
//Break Periods
2,67698,77184
//Storyboard Layer 0 (Background)
//Storyboard Layer 1 (Fail)
//Storyboard Layer 2 (Pass)
//Storyboard Layer 3 (Foreground)
//Storyboard Sound Samples
//Background Colour Transformations
3,100,163,162,255

[TimingPoints]
1670,342.857142857143,4,2,0,80,1,0
34241,-100,4,1,1,60,0,0
44355,-100,4,2,0,80,0,0
45384,-100,4,1,1,70,0,0
77098,-100,4,2,0,70,0,0
78298,-100,4,1,1,70,0,0
116698,-100,4,1,1,80,0,0
118155,-100,4,1,1,85,0,0
119527,-100,4,1,1,90,0,0
120898,-100,4,1,1,85,0,0
121327,-100,4,1,1,80,0,0
121670,-100,4,1,1,75,0,0
121927,-100,4,1,1,70,0,0

[Colours]
Combo1 : 249,128,128
Combo2 : 231,48,185
Combo3 : 132,60,134
Combo4 : 254,199,245

[HitObjects]
360,104,23612,5,0,0:0:0:0:
208,200,23955,1,2,0:0:0:0:
304,200,24127,1,0,0:0:0:0:
152,104,24470,1,0,0:0:0:0:
304,200,26355,5,0,0:0:0:0:
160,304,26698,1,2,0:0:0:0:
248,336,26870,1,0,0:0:0:0:
216,160,27212,1,0,0:0:0:0:
216,160,27727,5,0,0:0:0:0:
248,336,28070,1,0,0:0:0:0:
160,304,28241,1,2,0:0:0:0:
304,200,28584,1,2,0:0:0:0:
304,200,29098,5,0,0:0:0:0:
128,208,29441,1,2,0:0:0:0:
216,232,29612,1,0,0:0:0:0:
72,128,29955,1,0,0:0:0:0:
192,144,31841,5,0,0:0:0:0:
368,136,32184,1,2,0:0:0:0:
280,112,32355,1,0,0:0:0:0:
440,192,32698,1,0,0:0:0:0:
176,240,33212,5,0,0:0:0:0:
64,96,33555,1,0,0:0:0:0:
112,176,33727,1,2,0:0:0:0:
264,272,34070,1,2,0:0:0:0:
424,56,34584,6,0,B|496:120|472:232,1,180,0|0,0:0|0:0,0:0:0:0:
400,168,35098,2,0,P|384:248|304:312,1,180,2|0,0:0|0:0,0:0:0:0:
312,216,35612,1,2,0:0:0:0:
88,328,35955,6,0,B|16:264|40:152,1,180,0|2,0:0|0:0,0:0:0:0:
112,216,36469,2,0,P|128:136|208:72,1,180,0|0,0:0|0:0,0:0:0:0:
200,168,36984,1,2,0:0:0:0:
336,48,37327,6,0,P|419:66|475:138,1,180,0|2,0:0|0:0,0:0:0:0:
480,232,37841,2,0,P|396:213|340:141,1,180,0|0,0:0|0:0,0:0:0:0:
336,48,38355,1,2,0:0:0:0:
256,88,38527,1,2,0:0:0:0:
176,48,38698,6,0,P|92:66|36:138,1,180,0|2,0:0|0:0,0:0:0:0:
32,232,39212,2,0,P|115:213|171:141,1,180,0|0,0:0|0:0,0:0:0:0:
176,48,39727,1,2,0:0:0:0:
256,296,40069,6,0,L|256:392,2,90,0|0|2,0:0|0:0|0:0,0:0:0:0:
344,264,40584,2,0,P|272:200|176:256,1,180
256,296,41098,1,2,0:0:0:0:
168,320,41269,1,0,0:0:0:0:
120,248,41441,6,0,P|96:160|104:128,1,90
184,136,41784,1,2,0:0:0:0:
120,72,41955,2,0,P|200:40|272:128,1,180
184,136,42469,1,2,0:0:0:0:
184,136,42641,1,2,0:0:0:0:
96,168,42812,5,0,0:0:0:0:
168,224,42984,1,0,0:0:0:0:
256,192,43155,1,2,0:0:0:0:
344,168,43327,2,0,P|440:144|440:264,1,180,0|0,0:0|0:0,0:0:0:0:
392,240,43841,1,2,0:0:0:0:
344,168,44012,1,2,0:0:0:0:
256,192,44184,1,4,0:0:0:0:
128,296,44869,5,0,0:0:0:0:
128,296,45212,1,0,0:0:0:0:
128,296,45555,6,0,B|208:240|176:112,1,180,4|2,0:0|0:0,0:0:0:0:
144,56,46069,2,0,P|184:136|280:144,1,180
344,112,46584,2,0,P|312:80|240:72,2,90,2|0|0,0:0|0:0|0:0,0:0:0:0:
344,200,47098,1,0,0:0:0:0:
272,248,47269,5,2,0:0:0:0:
416,152,47441,1,2,0:0:0:0:
424,240,47612,6,0,P|440:288|416:344,1,90
352,280,47955,2,0,P|304:272|248:192,1,90,2|0,0:0|0:0,0:0:0:0:
183,256,48298,2,0,P|192:208|216:176,1,90
272,248,48641,1,2,0:0:0:0:
304,168,48812,2,0,P|296:120|240:72,1,90
208,32,49155,2,0,B|168:66|192:128,1,90,0|2,0:0|0:0,0:0:0:0:
272,88,49498,2,0,P|328:80|368:56,2,90,0|0|0,0:0|0:0|0:0,0:0:0:0:
208,32,50012,5,2,0:0:0:0:
72,152,50184,1,0,0:0:0:0:
168,304,50355,1,2,0:0:0:0:
344,304,50527,5,0,0:0:0:0:
440,152,50698,1,2,0:0:0:0:
304,32,50869,1,2,0:0:0:0:
256,104,51041,6,0,P|296:200|240:280,1,180,0|2,0:0|0:0,0:0:0:0:
208,184,51555,2,0,P|168:104|207:29,1,180,0|0,0:3|0:0,0:0:0:0:
304,32,52069,5,2,0:0:0:0:
344,112,52241,1,0,0:0:0:0:
296,184,52412,1,0,0:0:0:0:
208,184,52584,1,0,0:0:0:0:
168,104,52755,1,2,0:0:0:0:
256,104,52927,1,0,0:0:0:0:
344,112,53098,6,0,P|368:72|424:40,1,90
424,136,53441,2,0,P|400:176|336:224,1,90,2|0,0:0|0:0,0:0:0:0:
304,264,53784,2,0,P|264:288|216:304,1,90
144,304,54127,1,2,0:0:0:0:
120,224,54298,2,0,P|128:176|168:112,1,90
208,72,54641,2,0,P|248:40|296:24,1,90,0|2,0:0|0:0,0:0:0:0:
352,88,54984,2,0,L|280:168,2,90
456,56,55498,5,2,0:0:0:0:
456,240,55669,1,2,0:0:0:0:
312,344,55841,5,0,0:0:0:0:
144,304,56012,1,0,0:0:0:0:
304,264,56184,1,2,0:0:0:0:
120,224,56355,1,0,0:0:0:0:
136,144,56527,6,0,P|160:64|192:56,1,90,4|0,0:0|0:0,0:0:0:0:
224,120,56869,2,0,P|224:176|168:208,1,90,2|0,0:0|0:0,0:0:0:0:
120,224,57212,1,0,0:0:0:0:
56,288,57384,1,0,0:0:0:0:
120,224,57555,1,2,0:0:0:0:
56,288,57727,1,0,0:0:0:0:
40,200,57898,5,0,0:0:0:0:
144,304,58069,1,0,0:0:0:0:
288,336,58241,1,2,0:0:0:0:
424,296,58412,1,0,0:0:0:0:
424,208,58584,6,0,P|448:160|432:120,1,90
352,152,58927,2,0,P|344:104|368:64,1,90,2|0,0:0|0:0,0:0:0:0:
288,24,59269,2,0,P|264:64|264:144,1,90
272,192,59612,1,2,0:0:0:0:
344,248,59784,2,0,P|312:280|240:272,1,90
272,192,60127,2,0,P|224:200|192:248,1,90,0|2,0:0|0:0,0:0:0:0:
200,320,60469,1,0,0:0:0:0:
128,272,60641,5,0,0:0:0:0:
88,192,60812,1,0,0:0:0:0:
128,112,60984,1,2,0:0:0:0:
88,192,61155,1,2,0:0:0:0:
272,192,61327,5,0,0:0:0:0:
320,264,61498,1,0,0:0:0:0:
272,192,61669,1,2,0:0:0:0:
368,336,61841,1,0,0:0:0:0:
320,264,62012,6,0,B|368:232|432:272,1,90,4|0,0:0|0:0,0:0:0:0:
368,336,62355,1,0,0:0:0:0:
272,336,62527,2,0,P|232:304|232:240,1,90
272,192,62869,5,0,0:0:0:0:
328,120,63041,1,2,0:0:0:0:
240,112,63212,1,0,0:0:0:0:
272,192,63384,5,0,0:0:0:0:
320,120,63555,1,0,0:0:0:0:
232,112,63727,1,2,0:0:0:0:
264,192,63898,1,0,0:0:0:0:
176,184,64069,6,0,B|136:200|72:184,1,90
176,184,64412,2,0,B|160:144|176:80,1,90,2|0,0:0|0:0,0:0:0:0:
176,184,64755,2,0,B|200:232|176:288,1,90
96,248,65098,1,2,0:0:0:0:
16,296,65269,2,0,B|40:344|96:344,1,90
176,344,65612,1,0,0:0:0:0:
176,344,65784,1,2,0:0:0:0:
264,320,65955,2,0,L|384:288,1,90
352,296,66298,1,0,0:0:0:0:
400,112,66469,5,2,0:0:0:0:
112,112,66641,1,2,0:0:0:0:
256,80,66812,5,0,0:0:0:0:
400,192,66984,1,0,0:0:0:0:
256,240,67155,1,0,0:0:0:0:
112,192,67327,1,0,0:0:0:0:
256,160,67498,1,4,0:0:0:0:
368,296,77784,5,0,0:0:0:0:
368,296,78127,1,0,0:0:0:0:
488,160,78469,6,0,B|424:80|304:112,1,180,4|2,0:0|0:0,0:0:0:0:
376,184,78984,1,0,0:0:0:0:
288,168,79155,1,2,0:0:0:0:
248,96,79327,5,0,0:0:0:0:
88,96,79498,1,2,0:0:0:0:
168,240,79669,1,0,0:0:0:0:
168,144,79841,5,0,0:0:0:0:
88,288,80012,1,0,0:0:0:0:
248,288,80184,1,2,0:3:0:0:
168,144,80355,1,2,0:3:0:0:
168,56,80527,6,0,P|192:24|248:8,1,90,2|0,0:0|0:0,0:0:0:0:
248,96,80869,2,0,P|280:120|328:128,1,90,2|0,0:0|0:0,0:0:0:0:
416,120,81212,2,0,P|407:168|383:200,1,90
296,208,81555,1,2,0:0:0:0:
352,272,81727,2,0,P|377:303|385:351,1,90
296,336,82069,2,0,B|248:355|214:315,1,90,0|2,0:0|0:0,0:0:0:0:
136,264,82412,2,0,P|168:232|232:232,1,90
296,208,82755,1,0,0:0:0:0:
144,344,82927,5,2,0:0:0:0:
24,192,83098,1,2,0:0:0:0:
112,176,83269,5,0,0:0:0:0:
32,136,83441,1,0,0:0:0:0:
72,216,83612,1,2,0:0:0:0:
88,128,83784,1,0,0:0:0:0:
136,48,83955,6,0,P|176:32|240:48,1,90,4|0,0:0|0:0,0:0:0:0:
296,88,84298,1,2,0:0:0:0:
360,152,84469,1,0,0:0:0:0:
416,216,84641,5,0,0:0:0:0:
344,264,84812,1,0,0:0:0:0:
288,200,84984,1,2,0:0:0:0:
360,152,85155,1,0,0:0:0:0:
416,216,85327,6,0,P|432:264|408:328,1,90
344,264,85669,1,2,0:0:0:0:
288,200,85841,1,0,0:0:0:0:
360,152,86012,6,0,P|384:112|440:80,1,90
336,48,86355,2,0,P|312:88|248:136,1,90,2|0,0:0|0:0,0:0:0:0:
208,168,86698,2,0,P|168:192|112:208,1,90
176,280,87041,1,2,0:0:0:0:
248,328,87212,2,0,P|264:280|304:224,1,90
344,176,87555,2,0,P|384:144|432:128,1,90,0|2,0:0|0:0,0:0:0:0:
416,224,87898,2,0,P|376:256|344:304,2,90
440,312,88412,1,2,0:0:0:0:
440,312,88584,1,0,0:0:0:0:
376,376,88755,5,2,0:0:0:0:
328,376,88841,1,2,0:0:0:0:
288,360,88927,1,2,0:0:0:0:
232,296,89098,1,0,0:0:0:0:
208,208,89270,1,0,0:0:0:0:
224,120,89441,6,0,P|181:103|117:111,1,90,4|0,0:0|0:0,0:0:0:0:
56,136,89784,1,2,0:0:0:0:
120,192,89955,1,0,0:0:0:0:
40,136,90127,1,0,0:0:0:0:
112,208,90298,1,0,0:0:0:0:
24,136,90470,1,2,0:0:0:0:
104,224,90641,1,0,0:0:0:0:
8,232,90812,5,0,0:0:0:0:
136,104,90984,1,0,0:0:0:0:
312,104,91155,1,2,0:0:0:0:
440,232,91327,1,0,0:0:0:0:
480,312,91498,6,0,L|368:312,1,90
304,344,91841,2,0,L|184:344,1,90,2|0,0:0|0:0,0:0:0:0:
122,312,92184,2,0,L|32:312,1,90
8,232,92527,1,2,0:0:0:0:
96,232,92698,2,0,L|176:152,1,90
248,192,93041,2,0,L|160:280,1,90,0|2,0:0|0:0,0:0:0:0:
272,280,93384,2,0,L|352:200,1,90
400,152,93727,5,0,0:0:0:0:
328,96,93898,1,2,0:0:0:0:
400,152,94070,1,0,0:0:0:0:
416,64,94241,5,2,0:0:0:0:
328,96,94412,1,0,0:0:0:0:
416,64,94584,1,2,0:0:0:0:
240,128,94755,1,0,0:0:0:0:
152,160,94927,6,0,B|106:176|32:160,1,90,4|0,0:0|0:0,0:0:0:0:
104,88,95270,1,2,0:0:0:0:
152,160,95441,1,0,0:0:0:0:
144,248,95612,1,0,0:0:0:0:
216,304,95784,1,0,0:0:0:0:
296,304,95955,1,2,0:0:0:0:
368,248,96127,1,0,0:0:0:0:
368,360,96298,5,0,0:0:0:0:
144,360,96470,1,0,0:0:0:0:
144,248,96641,5,2,0:0:0:0:
368,248,96812,1,2,0:0:0:0:
304,184,96984,6,0,B|256:200|200:184,1,90
216,96,97327,2,0,P|256:88|320:104,1,90,2|0,0:0|0:0,0:0:0:0:
392,96,97670,2,0,P|400:152|384:208,1,90
304,184,98012,1,2,0:0:0:0:
207,184,98184,2,0,B|218:237|256:256,1,90
328,312,98527,1,0,0:0:0:0:
184,312,98698,1,2,0:0:0:0:
256,256,98870,2,0,B|293:237|304:184,1,90
256,112,99212,5,0,0:0:0:0:
208,32,99384,1,2,0:0:0:0:
304,32,99555,1,0,0:0:0:0:
256,112,99727,5,2,0:0:0:0:
208,112,99812,1,2,0:0:0:0:
160,112,99898,1,2,0:0:0:0:
72,112,100070,1,0,0:0:0:0:
72,112,100241,1,0,0:0:0:0:
120,192,100412,6,0,B|64:216|88:296|88:296|104:368,1,180,4|2,0:0|0:0,0:0:0:0:
192,360,100927,2,0,B|168:256|168:256|200:240|208:184,1,180,0|0,0:0|0:0,0:0:0:0:
280,248,101441,1,2,0:0:0:0:
352,304,101612,2,0,P|368:256|336:192,1,90
280,168,101955,2,0,P|264:120|280:80,1,90,0|2,0:0|0:0,0:0:0:0:
360,120,102298,1,0,0:0:0:0:
432,64,102470,2,0,P|448:104|424:176,2,90,0|0|2,0:0|0:0|0:0,0:0:0:0:
443,320,103155,6,0,B|363:328|339:280|243:288,1,180,0|2,0:0|0:0,0:0:0:0:
184,320,103670,2,0,B|176:240|224:216|216:144,1,180,0|0,0:3|0:3,0:3:0:0:
128,176,104184,2,0,B|169:234|221:221|267:286,1,180,2|0,0:3|0:3,0:3:0:0:
256,376,104698,1,0,0:0:0:0:
184,320,104870,5,2,0:0:0:0:
48,200,105041,1,2,0:0:0:0:
120,360,105212,5,0,0:0:0:0:
128,176,105384,1,0,0:0:0:0:
40,336,105555,6,0,P|96:272|216:240,1,180,2|4,0:0|0:0,0:0:0:0:
272,232,106070,1,0,0:0:0:0:
360,256,106241,1,0,0:0:0:0:
400,336,106412,2,0,B|336:336|336:336|264:336|230:295,1,180
344,144,106927,6,0,B|408:144|408:144|480:144|513:184,1,180,2|0,0:0|0:0,0:0:0:0:
448,248,107441,1,0,0:0:0:0:
360,256,107612,1,2,0:0:0:0:
272,232,107784,2,0,P|216:176|208:144,1,90
204,79,108127,1,0,0:0:0:0:
120,56,108298,2,0,B|112:96|144:120|128:160,1,90,2|0,0:0|0:0,0:0:0:0:
64,192,108641,5,0,0:0:0:0:
112,264,108812,1,0,0:0:0:0:
24,272,108984,1,2,0:0:0:0:
112,264,109155,2,0,P|176:328|264:320,1,180
352,320,109670,2,0,B|352:272|304:240,1,90,2|0,0:0|0:0,0:0:0:0:
224,248,110012,6,0,B|240:128|384:176,1,180,0|2,0:0|0:0,0:0:0:0:
416,232,110527,1,0,0:0:0:0:
440,144,110698,1,2,0:0:0:0:
424,104,110784,1,2,0:0:0:0:
384,80,110870,1,0,0:0:0:0:
296,72,111041,1,2,0:0:0:0:
416,232,111212,1,0,0:0:0:0:
328,168,111384,6,0,P|272:184|216:160,1,90,4|0,0:0|0:0,0:0:0:0:
160,136,111727,1,2,0:0:0:0:
80,104,111898,2,0,B|64:232|208:224,1,180
160,136,112412,2,0,P|96:184|112:288,1,180,2|0,0:0|0:0,0:0:0:0:
102,276,112927,1,0,0:0:0:0:
168,336,113098,1,2,0:0:0:0:
256,352,113270,2,0,L|368:352,1,90
416,296,113612,1,0,0:0:0:0:
416,208,113784,1,2,0:0:0:0:
96,176,114127,5,0,0:0:0:0:
184,144,114298,1,0,0:0:0:0:
168,232,114470,1,2,0:0:0:0:
96,176,114641,2,0,P|104:96|186:55,1,180
325,55,115155,2,0,P|408:96|416:176,1,180,2|0,0:0|0:0,0:0:0:0:
328,144,115670,1,0,0:0:0:0:
256,200,115841,1,2,0:0:0:0:
184,144,116012,1,0,0:0:0:0:
256,88,116184,5,0,0:0:0:0:
256,200,116355,1,0,0:0:0:0:
256,312,116527,1,2,0:0:0:0:
432,288,116870,5,0,0:0:0:0:
344,280,117041,1,0,0:0:0:0:
256,312,117212,1,0,0:0:0:0:
344,280,117384,1,0,0:0:0:0:
256,312,117555,1,0,0:0:0:0:
168,280,117727,5,0,0:0:0:0:
80,288,117898,1,0,0:0:0:0:
16,224,118070,1,0,0:0:0:0:
80,160,118241,5,0,0:0:0:0:
112,80,118412,1,0,0:0:0:0:
192,112,118584,1,0,0:0:0:0:
120,176,118755,5,0,0:0:0:0:
152,96,118927,1,0,0:0:0:0:
232,128,119098,1,0,0:0:0:0:
160,192,119270,5,0,0:0:0:0:
192,112,119441,1,0,0:0:0:0:
272,144,119612,5,0,0:0:0:0:
352,176,119784,1,0,0:0:0:0:
408,248,119955,1,0,0:0:0:0:
376,328,120127,1,0,0:0:0:0:
296,368,120298,1,0,0:0:0:0:
208,352,120470,1,0,0:0:0:0:
184,264,120641,1,0,0:0:0:0:
274,209,120812,1,0,0:0:0:0:
344,256,120984,2,0,P|190:208|354:182,1,450
274,209,122012,1,0,0:0:0:0:
376,80,122355,6,0,P|312:48|168:80,1,180,4|0,0:0|0:0,0:0:0:0:
136,112,122870,2,0,P|96:192|128:312,1,180,2|0,0:0|0:0,0:0:0:0:
160,352,123384,1,2,0:0:0:0:
192,272,123555,1,0,0:0:0:0:
248,336,123727,6,0,L|288:240,1,90,0|2,0:0|0:0,0:0:0:0:
336,320,124070,2,0,L|408:144,1,180,0|2,0:0|0:0,0:0:0:0:
464,216,124584,1,0,0:0:0:0:
432,304,124755,2,0,L|304:160,1,180,2|4,0:0|0:0,0:0:0:0:
72,56,125441,5,2,0:0:0:0:
160,56,125612,2,0,B|176:128|16:144|88:232,1,180
160,200,126127,1,2,0:0:0:0:
120,280,126298,1,0,0:0:0:0:
192,336,126470,5,2,0:0:0:0:
360,272,126641,1,0,0:0:0:0:
160,200,126812,5,2,0:0:0:0:
328,136,126984,1,2,0:0:0:0:
240,168,127155,6,0,L|264:280,1,90
296,336,127498,2,0,P|400:352|448:296,1,180,2|2,0:0|0:0,0:0:0:0:
360,272,128012,1,0,0:0:0:0:
424,208,128184,1,2,0:0:0:0:
488,144,128355,2,0,P|424:56|328:64,1,180
392,136,128870,6,0,P|312:128|272:40,1,180,2|0,0:0|0:0,0:0:0:0:
271,45,129384,1,0,0:0:0:0:
184,56,129555,2,0,P|224:152|288:208,1,180,2|0,0:0|0:0,0:0:0:0:
304,288,130070,1,0,0:0:0:0:
216,264,130241,1,2,0:0:0:0:
152,208,130412,1,0,0:0:0:0:
112,128,130584,5,2,0:0:0:0:
64,208,130755,1,0,0:0:0:0:
152,208,130927,1,2,0:0:0:0:
112,128,131098,2,0,P|64:208|120:296,1,180
168,336,131612,1,2,0:0:0:0:
256,336,131784,1,0,0:0:0:0:
344,336,131955,6,0,L|440:336,1,90
342,248,132298,2,0,L|432:248,1,90,2|0,0:0|0:0,0:0:0:0:
336,160,132641,1,2,0:0:0:0:
384,160,132727,1,2,0:0:0:0:
432,160,132812,1,0,0:0:0:0:
336,72,132984,1,2,0:0:0:0:
248,72,133155,6,0,L|144:72,1,90,4|4,0:0|0:0,0:0:0:0:
64,72,133498,1,0,0:0:0:0:
112,152,133670,1,2,0:0:0:0:
24,160,133841,2,0,P|16:248|56:344,1,180
136,328,134355,1,2,0:0:0:0:
136,328,134527,1,0,0:0:0:0:
168,248,134698,6,0,P|208:280|232:336,1,90
256,192,135041,1,2,0:0:0:0:
344,136,135212,2,0,P|304:104|280:48,1,90
256,192,135555,2,0,P|296:232|344:256,1,90,0|2,0:0|0:0,0:0:0:0:
416,272,135898,1,0,0:0:0:0:
416,184,136070,6,0,P|432:112|344:40,1,180,0|2,0:0|0:0,0:0:0:0:
149,42,136584,2,0,P|80:112|96:184,1,180
168,136,137098,5,2,0:0:0:0:
256,48,137270,1,0,0:0:0:0:
344,136,137441,1,0,0:0:0:0:
256,136,137612,1,0,0:0:0:0:
256,224,137784,6,0,B|320:288|320:288|256:352,1,180,2|0,0:0|0:0,0:0:0:0:
192,288,138298,1,0,0:0:0:0:
128,352,138470,2,0,B|64:288|64:288|128:224,1,180,2|2,0:0|0:0,0:0:0:0:
192,288,138984,1,0,0:0:0:0:
256,224,139155,1,2,0:0:0:0:
128,352,139327,1,0,0:0:0:0:
384,32,139670,5,0,0:0:0:0:
384,32,139841,1,2,0:0:0:0:
128,32,140184,5,2,0:0:0:0:
80,104,140355,1,0,0:0:0:0:
128,32,140527,1,2,0:0:0:0:
304,32,140698,1,0,0:0:0:0:
192,176,141041,5,0,0:0:0:0:
240,248,141212,2,0,B|280:312|280:312|328:376|400:336,1,180,2|2,0:0|0:0,0:0:0:0:
408,240,141727,1,0,0:0:0:0:
320,216,141898,1,2,0:0:0:0:
456,328,142070,1,0,0:0:0:0:
56,328,142412,5,0,0:0:0:0:
128,272,142584,1,2,0:0:0:0:
48,240,142755,1,0,0:0:0:0:
48,352,142927,1,2,0:0:0:0:
152,256,143098,1,0,0:0:0:0:
32,216,143270,1,2,0:0:0:0:
144,368,143441,1,0,0:0:0:0:
256,24,143784,5,0,0:0:0:0:
304,96,143955,1,2,0:0:0:0:
208,96,144127,1,0,0:0:0:0:
288,56,144298,6,0,P|352:48|448:104,1,180,4|2,0:0|0:0,0:0:0:0:
448,280,144812,2,0,P|352:336|288:328,1,180
336,248,145327,1,2,0:0:0:0:
408,192,145498,1,0,0:0:0:0:
336,136,145670,2,0,L|248:208,1,90
176,176,146012,1,2,0:0:0:0:
168,88,146184,6,0,L|237:31,1,90
176,176,146527,1,0,0:0:0:0:
336,136,146698,2,0,L|176:264,1,180,2|2,0:0|0:0,0:0:0:0:
120,304,147212,5,0,0:0:0:0:
208,328,147384,1,2,0:0:0:0:
112,216,147555,1,0,0:0:0:0:
400,168,147898,5,0,0:0:0:0:
392,80,148070,1,2,0:0:0:0:
304,64,148241,1,0,0:0:0:0:
392,80,148412,5,0,0:0:0:0:
216,48,148584,1,0,0:0:0:0:
304,64,148755,5,2,0:0:0:0:
128,32,148927,1,2,0:0:0:0:
216,48,149098,5,0,0:0:0:0:
40,16,149270,1,0,0:0:0:0:
88,192,149441,6,0,P|8:208|32:312,1,180,2|4,0:0|0:0,0:0:0:0:
96,280,149955,1,0,0:0:0:0:
176,320,150127,1,2,0:0:0:0:
88,192,150298,6,0,P|104:112|208:136,1,180,0|0,0:0|0:0,0:0:0:0:
200,200,150812,2,0,P|280:184|256:80,1,180,2|0,0:0|0:0,0:0:0:0:
216,40,151327,1,0,0:0:0:0:
304,16,151498,6,0,P|360:80|376:192,1,180,2|0,0:0|0:0,0:0:0:0:
336,248,152012,1,0,0:0:0:0:
264,304,152184,1,2,0:0:0:0:
176,320,152355,1,0,0:0:0:0:
88,288,152527,5,2,0:0:0:0:
160,240,152698,1,0,0:0:0:0:
232,192,152870,1,2,0:0:0:0:
88,288,153041,2,0,P|40:184|96:120,1,180
144,88,153555,1,0,0:0:0:0:
224,40,153727,1,0,0:0:0:0:
296,88,153898,5,2,0:0:0:0:
368,136,154070,1,0,0:0:0:0:
224,40,154241,1,2,0:0:0:0:
368,136,154412,1,0,0:0:0:0:
448,176,154584,5,2,0:0:0:0:
464,192,154670,1,2,0:0:0:0:
448,208,154755,1,2,0:0:0:0:
368,248,154927,1,2,0:0:0:0:
304,192,155098,2,4,L|200:192,1,90,4|4,0:0|0:0,0:0:0:0:
136,152,155441,5,0,0:0:0:0:
136,240,155612,1,2,0:0:0:0:
216,104,155784,1,0,0:0:0:0:
384,32,156127,5,0,0:0:0:0:
448,96,156298,2,0,L|352:160,1,90,2|0,0:0|0:0,0:0:0:0:
456,192,156641,2,0,L|344:264,1,90,0|0,0:0|0:0,0:0:0:0:
304,192,156984,1,2,0:0:0:0:
296,104,157155,2,0,L|184:176,1,90
304,192,157498,1,0,0:0:0:0:
224,240,157670,2,0,L|112:312,1,90,2|0,0:0|0:0,0:0:0:0:
232,328,158012,5,2,0:0:0:0:
304,280,158184,1,0,0:0:0:0:
224,240,158355,1,2,0:0:0:0:
56,312,158527,2,0,P|138:251|96:152,1,180
80,104,159041,5,2,0:0:0:0:
128,184,159212,1,0,0:0:0:0:
168,96,159384,1,0,0:0:0:0:
216,176,159555,1,0,0:0:0:0:
256,96,159727,1,2,0:0:0:0:
296,176,159898,1,0,0:0:0:0:
384,184,160070,5,0,0:0:0:0:
216,176,160241,1,0,0:0:0:0:
296,176,160412,5,2,0:0:0:0:
128,184,160584,1,0,0:0:0:0:
168,96,160755,5,2,0:0:0:0:
256,96,160927,1,0,0:0:0:0:
216,176,161098,1,2,0:0:0:0:
384,184,161270,1,0,0:0:0:0:
432,360,161612,5,0,0:0:0:0:
352,312,161784,1,2,0:0:0:0:
264,288,161955,1,2,0:0:0:0:
176,304,162127,5,2,0:0:0:0:
96,336,162298,1,0,0:0:0:0:
168,216,162470,1,2,0:0:0:0:
8,216,162641,1,0,0:0:0:0:
176,304,162984,5,0,0:0:0:0:
88,256,163155,1,2,0:0:0:0:
88,160,163327,1,2,0:0:0:0:
104,80,163498,5,2,0:0:0:0:
176,128,163670,1,0,0:0:0:0:
144,0,163841,1,2,0:0:0:0:
272,128,164012,1,0,0:0:0:0:
448,328,164355,5,0,0:0:0:0:
424,192,164527,1,2,0:0:0:0:
448,56,164698,1,2,0:0:0:0:
312,48,164870,5,0,0:0:0:0:
376,112,165041,1,2,0:0:0:0:
344,240,165212,1,2,0:0:0:0:
184,328,165384,1,0,0:0:0:0:
8,120,165727,5,2,0:0:0:0:
128,56,165898,1,2,0:0:0:0:
200,168,166070,1,0,0:0:0:0:
80,240,166241,1,4,0:0:0:0:
256,192,166327,12,0,170012,0:0:0:0:
