osu file format v12

[General]
AudioFilename: Lionheart.mp3
AudioLeadIn: 1489
PreviewTime: 50989
Countdown: 0
SampleSet: Normal
StackLeniency: 0.7
Mode: 1
LetterboxInBreaks: 0

[Editor]
Bookmarks: 50989
DistanceSpacing: 0.9
BeatDivisor: 4
GridSize: 32

[Metadata]
Title:Lionheart
TitleUnicode:Lionheart
Artist:Masayoshi Minoshima
ArtistUnicode:Masayoshi Minoshima
Creator:Arusha Shuna
Version:NTaikOni
Source:
Tags:maimai halfpipe tokyo mako sakata nwolf
BeatmapID:249194
BeatmapSetID:91123

[Difficulty]
HPDrainRate:7
CircleSize:4
OverallDifficulty:5
ApproachRate:4
SliderMultiplier:1.6
SliderTickRate:1

[Events]
//Background and Video events
0,0,"BG.jpg",0,0
//Break Periods
//Storyboard Layer 0 (Background)
//Storyboard Layer 1 (Fail)
//Storyboard Layer 2 (Pass)
//Storyboard Layer 3 (Foreground)
//Storyboard Sound Samples
//Background Colour Transformations
3,100,163,162,255

[TimingPoints]
80,454.545454545455,4,1,0,75,1,0
21898,-100,4,1,0,75,0,0
36443,-94.3396226415094,4,1,0,75,0,0
50989,-89.2857142857143,4,1,0,75,0,1
80080,-100,4,1,0,75,0,0

[Colours]
Combo1 : 255,0,128
Combo2 : 137,11,191
Combo3 : 18,124,255
Combo4 : 255,128,255

[HitObjects]
192,128,80,1,0,0:0:0:0:
320,128,989,1,8,0:0:0:0:
320,128,1330,1,8,0:0:0:0:
320,128,1670,1,8,0:0:0:0:
192,128,1898,1,0,0:0:0:0:
192,128,2580,1,0,0:0:0:0:
320,128,2807,1,8,0:0:0:0:
320,128,3148,1,8,0:0:0:0:
320,128,3489,1,8,0:0:0:0:
192,128,3716,1,0,0:0:0:0:
192,128,4398,1,0,0:0:0:0:
320,128,4625,1,8,0:0:0:0:
320,128,4739,1,8,0:0:0:0:
320,128,4966,1,8,0:0:0:0:
320,128,5307,1,8,0:0:0:0:
192,128,5534,1,0,0:0:0:0:
320,128,5761,1,8,0:0:0:0:
320,128,5989,1,8,0:0:0:0:
192,128,6216,1,0,0:0:0:0:
320,128,6443,1,8,0:0:0:0:
320,128,6557,1,8,0:0:0:0:
192,128,6784,1,0,0:0:0:0:
320,128,6898,1,8,0:0:0:0:
320,128,7125,1,8,0:0:0:0:
192,256,7352,1,4,0:0:0:0:
320,128,7807,1,8,0:0:0:0:
192,256,8261,1,4,0:0:0:0:
320,128,8602,1,8,0:0:0:0:
320,128,8716,1,8,0:0:0:0:
320,128,8943,1,8,0:0:0:0:
192,256,9170,1,4,0:0:0:0:
320,128,9625,1,8,0:0:0:0:
192,256,10080,1,4,0:0:0:0:
320,128,10420,1,8,0:0:0:0:
192,128,10761,1,8,0:0:0:0:
192,256,10989,1,4,0:0:0:0:
320,128,11443,1,8,0:0:0:0:
192,256,11898,1,4,0:0:0:0:
192,128,12239,1,0,0:0:0:0:
320,128,12352,1,8,0:0:0:0:
320,128,12580,1,8,0:0:0:0:
192,128,12807,1,4,0:0:0:0:
320,256,13261,1,12,0:0:0:0:
192,128,13716,1,0,0:0:0:0:
192,128,14057,1,0,0:0:0:0:
320,128,14170,1,8,0:0:0:0:
320,128,14398,1,8,0:0:0:0:
192,128,14625,1,4,0:0:0:0:
320,128,14852,1,8,0:0:0:0:
192,128,15080,1,0,0:0:0:0:
320,128,15307,1,8,0:0:0:0:
320,128,15534,1,8,0:0:0:0:
320,128,15761,1,8,0:0:0:0:
192,128,15989,1,0,0:0:0:0:
192,128,16216,1,0,0:0:0:0:
320,128,16443,1,8,0:0:0:0:
192,128,16670,1,0,0:0:0:0:
320,128,16898,1,8,0:0:0:0:
320,128,17125,1,8,0:0:0:0:
192,128,17352,1,0,0:0:0:0:
192,128,17580,1,0,0:0:0:0:
320,128,17807,1,8,0:0:0:0:
320,128,18034,1,8,0:0:0:0:
192,128,18261,1,0,0:0:0:0:
192,128,18375,1,0,0:0:0:0:
192,128,18489,1,0,0:0:0:0:
192,128,18602,1,0,0:0:0:0:
320,128,18716,1,8,0:0:0:0:
320,128,18830,1,8,0:0:0:0:
320,128,18943,1,8,0:0:0:0:
320,128,19057,1,8,0:0:0:0:
192,128,19170,1,0,0:0:0:0:
320,128,19284,1,8,0:0:0:0:
192,128,19398,1,0,0:0:0:0:
192,128,19511,1,0,0:0:0:0:
320,128,19625,1,8,0:0:0:0:
320,128,19739,1,8,0:0:0:0:
320,128,19852,1,8,0:0:0:0:
320,128,19966,1,8,0:0:0:0:
320,128,20080,1,0,0:0:0:0:
320,128,20307,1,8,0:0:0:0:
192,128,20420,1,0,0:0:0:0:
192,128,20534,1,0,0:0:0:0:
192,128,20761,1,0,0:0:0:0:
320,128,20989,1,8,0:0:0:0:
192,128,21216,1,0,0:0:0:0:
320,128,21330,1,8,0:0:0:0:
192,128,21443,1,0,0:0:0:0:
320,128,21670,1,8,0:0:0:0:
192,256,21898,5,4,0:0:0:0:
192,128,22125,1,0,0:0:0:0:
192,128,22239,1,0,0:0:0:0:
320,128,22352,1,8,0:0:0:0:
320,128,22580,1,8,0:0:0:0:
192,128,22807,1,0,0:0:0:0:
320,128,23034,1,8,0:0:0:0:
192,128,23148,1,0,0:0:0:0:
192,128,23375,1,0,0:0:0:0:
192,128,23489,1,0,0:0:0:0:
192,128,23716,1,0,0:0:0:0:
320,128,23830,1,8,0:0:0:0:
320,128,23943,1,8,0:0:0:0:
320,128,24170,1,8,0:0:0:0:
192,128,24398,1,0,0:0:0:0:
192,128,24625,1,0,0:0:0:0:
320,128,24852,1,8,0:0:0:0:
320,128,24966,1,8,0:0:0:0:
192,128,25080,1,0,0:0:0:0:
192,128,25193,1,0,0:0:0:0:
320,128,25307,1,8,0:0:0:0:
320,128,25420,1,8,0:0:0:0:
192,128,25534,1,0,0:0:0:0:
320,128,25761,1,8,0:0:0:0:
192,128,25875,1,0,0:0:0:0:
320,128,25989,1,8,0:0:0:0:
320,128,26216,1,8,0:0:0:0:
192,128,26443,1,0,0:0:0:0:
192,128,26670,1,0,0:0:0:0:
320,128,26784,1,8,0:0:0:0:
192,128,27125,1,0,0:0:0:0:
320,128,27352,1,8,0:0:0:0:
320,128,27580,1,8,0:0:0:0:
192,128,27693,1,0,0:0:0:0:
320,128,27807,1,8,0:0:0:0:
192,128,28034,1,0,0:0:0:0:
192,128,28261,1,0,0:0:0:0:
320,128,28489,1,8,0:0:0:0:
320,128,28602,1,8,0:0:0:0:
320,128,28716,1,8,0:0:0:0:
192,128,28943,1,0,0:0:0:0:
320,128,29057,1,8,0:0:0:0:
192,128,29170,1,0,0:0:0:0:
320,128,29398,1,8,0:0:0:0:
320,128,29625,1,8,0:0:0:0:
192,128,29852,1,0,0:0:0:0:
320,128,30080,1,8,0:0:0:0:
192,128,30193,1,0,0:0:0:0:
192,128,30420,1,0,0:0:0:0:
192,128,30534,1,0,0:0:0:0:
192,128,30761,1,0,0:0:0:0:
192,128,30989,1,0,0:0:0:0:
320,128,31102,1,8,0:0:0:0:
320,128,31216,1,8,0:0:0:0:
192,128,31443,1,0,0:0:0:0:
192,128,31670,1,0,0:0:0:0:
192,128,31898,1,0,0:0:0:0:
320,128,32125,1,8,0:0:0:0:
320,128,32239,1,8,0:0:0:0:
320,128,32466,1,8,0:0:0:0:
192,128,32580,1,0,0:0:0:0:
192,128,32693,1,0,0:0:0:0:
192,128,32807,1,0,0:0:0:0:
192,128,33034,1,0,0:0:0:0:
320,128,33148,1,8,0:0:0:0:
192,128,33261,1,0,0:0:0:0:
320,128,33489,1,8,0:0:0:0:
320,128,33716,1,8,0:0:0:0:
192,128,33943,1,0,0:0:0:0:
192,128,34057,1,0,0:0:0:0:
192,128,34398,1,0,0:0:0:0:
192,128,34625,1,0,0:0:0:0:
192,128,34739,1,0,0:0:0:0:
320,128,34852,1,8,0:0:0:0:
320,128,35080,1,8,0:0:0:0:
192,128,35307,1,0,0:0:0:0:
192,128,35534,1,0,0:0:0:0:
192,128,35648,1,0,0:0:0:0:
320,128,35761,1,8,0:0:0:0:
320,128,35875,1,8,0:0:0:0:
320,128,35989,1,8,0:0:0:0:
320,256,36216,1,0,0:0:0:0:
192,128,36443,5,12,0:0:0:0:
192,128,36670,1,0,0:0:0:0:
320,128,36784,1,8,0:0:0:0:
192,128,36898,1,0,0:0:0:0:
320,128,37125,1,8,0:0:0:0:
192,128,37352,1,0,0:0:0:0:
192,128,37580,1,0,0:0:0:0:
320,128,37693,1,8,0:0:0:0:
320,128,38034,1,8,0:0:0:0:
320,128,38148,1,8,0:0:0:0:
320,128,38261,1,8,0:0:0:0:
192,128,38375,1,0,0:0:0:0:
320,128,38489,1,8,0:0:0:0:
320,128,38716,1,8,0:0:0:0:
192,128,38943,1,0,0:0:0:0:
320,128,39170,1,8,0:0:0:0:
192,128,39398,1,0,0:0:0:0:
320,128,39511,1,8,0:0:0:0:
192,128,39852,1,0,0:0:0:0:
320,128,39966,1,8,0:0:0:0:
192,128,40080,1,0,0:0:0:0:
320,128,40307,1,8,0:0:0:0:
320,128,40534,1,8,0:0:0:0:
192,128,40761,1,0,0:0:0:0:
320,128,40989,1,8,0:0:0:0:
320,128,41216,1,8,0:0:0:0:
320,128,41330,1,8,0:0:0:0:
320,128,41670,1,8,0:0:0:0:
192,128,41898,1,0,0:0:0:0:
320,128,42011,1,8,0:0:0:0:
192,128,42125,1,0,0:0:0:0:
192,128,42239,1,0,0:0:0:0:
320,128,42352,1,8,0:0:0:0:
192,128,42580,1,0,0:0:0:0:
320,256,42807,1,12,0:0:0:0:
192,128,43034,1,0,0:0:0:0:
320,128,43148,1,8,0:0:0:0:
192,128,43375,1,0,0:0:0:0:
320,128,43489,1,8,0:0:0:0:
320,128,43716,1,8,0:0:0:0:
320,128,43943,1,8,0:0:0:0:
320,128,44057,1,8,0:0:0:0:
320,128,44170,1,8,0:0:0:0:
192,128,44398,1,0,0:0:0:0:
320,128,44625,1,8,0:0:0:0:
192,128,44852,1,0,0:0:0:0:
320,128,44966,1,8,0:0:0:0:
320,128,45307,1,8,0:0:0:0:
192,128,45420,1,0,0:0:0:0:
320,128,45534,1,8,0:0:0:0:
320,128,45648,1,8,0:0:0:0:
320,128,45761,1,8,0:0:0:0:
320,128,45989,1,8,0:0:0:0:
192,128,46216,1,0,0:0:0:0:
320,128,46443,1,8,0:0:0:0:
192,128,46670,1,0,0:0:0:0:
320,128,46784,1,8,0:0:0:0:
192,128,47125,1,0,0:0:0:0:
320,128,47352,1,8,0:0:0:0:
192,128,47466,1,0,0:0:0:0:
320,128,47580,1,8,0:0:0:0:
192,128,47807,1,0,0:0:0:0:
320,128,47920,1,8,0:0:0:0:
320,128,48034,1,8,0:0:0:0:
320,128,48261,1,8,0:0:0:0:
192,128,48489,1,0,0:0:0:0:
192,128,48602,1,0,0:0:0:0:
192,128,48830,1,0,0:0:0:0:
320,128,48943,1,8,0:0:0:0:
320,128,49170,1,8,0:0:0:0:
320,128,49284,1,8,0:0:0:0:
320,128,49398,1,8,0:0:0:0:
320,128,49511,1,8,0:0:0:0:
320,128,49625,1,8,0:0:0:0:
192,128,49739,1,0,0:0:0:0:
320,128,49852,1,8,0:0:0:0:
320,128,49966,1,8,0:0:0:0:
320,128,50080,1,8,0:0:0:0:
192,128,50193,1,0,0:0:0:0:
320,128,50307,1,8,0:0:0:0:
320,128,50420,1,8,0:0:0:0:
320,128,50534,1,8,0:0:0:0:
320,128,50648,1,8,0:0:0:0:
320,128,50761,1,8,0:0:0:0:
192,128,50989,5,0,0:0:0:0:
320,128,51102,1,8,0:0:0:0:
192,128,51216,1,0,0:0:0:0:
320,128,51443,1,8,0:0:0:0:
320,128,51670,1,8,0:0:0:0:
320,128,51898,1,8,0:0:0:0:
192,128,52125,1,0,0:0:0:0:
192,128,52239,1,0,0:0:0:0:
320,128,52352,1,8,0:0:0:0:
192,128,52580,1,0,0:0:0:0:
320,128,52807,1,8,0:0:0:0:
192,128,52920,1,0,0:0:0:0:
192,128,53034,1,0,0:0:0:0:
320,128,53261,1,8,0:0:0:0:
192,128,53489,1,0,0:0:0:0:
320,128,53716,1,8,0:0:0:0:
320,128,53830,1,8,0:0:0:0:
192,128,53943,1,0,0:0:0:0:
192,128,54170,1,0,0:0:0:0:
320,128,54284,1,8,0:0:0:0:
192,128,54398,1,0,0:0:0:0:
320,128,54625,1,8,0:0:0:0:
192,128,54852,1,0,0:0:0:0:
192,128,54966,1,0,0:0:0:0:
320,128,55080,1,8,0:0:0:0:
192,128,55307,1,0,0:0:0:0:
320,128,55534,1,8,0:0:0:0:
192,128,55761,1,0,0:0:0:0:
192,128,55875,1,0,0:0:0:0:
192,128,55989,1,0,0:0:0:0:
320,128,56102,1,8,0:0:0:0:
192,128,56216,1,0,0:0:0:0:
320,128,56443,1,8,0:0:0:0:
192,128,56670,1,0,0:0:0:0:
192,128,56784,1,0,0:0:0:0:
320,128,56898,1,8,0:0:0:0:
192,128,57125,1,0,0:0:0:0:
320,128,57352,1,8,0:0:0:0:
320,128,57580,1,8,0:0:0:0:
320,128,57693,1,8,0:0:0:0:
320,128,57920,1,0,0:0:0:0:
192,128,58034,1,8,0:0:0:0:
320,128,58261,1,8,0:0:0:0:
320,128,58489,1,8,0:0:0:0:
192,128,58602,1,0,0:0:0:0:
192,128,58716,1,0,0:0:0:0:
192,128,58943,1,0,0:0:0:0:
320,128,59170,1,8,0:0:0:0:
192,128,59398,1,0,0:0:0:0:
320,128,59511,1,8,0:0:0:0:
320,128,59739,1,8,0:0:0:0:
320,128,59852,1,8,0:0:0:0:
320,128,60080,1,8,0:0:0:0:
320,128,60307,1,8,0:0:0:0:
192,128,60420,1,0,0:0:0:0:
192,128,60534,1,0,0:0:0:0:
192,128,60761,1,0,0:0:0:0:
320,128,60989,1,8,0:0:0:0:
192,128,61216,1,0,0:0:0:0:
320,128,61330,1,8,0:0:0:0:
192,128,61443,1,0,0:0:0:0:
192,128,61670,1,0,0:0:0:0:
320,128,61898,1,8,0:0:0:0:
320,128,62125,1,8,0:0:0:0:
320,128,62239,1,8,0:0:0:0:
192,128,62352,1,0,0:0:0:0:
192,128,62580,1,0,0:0:0:0:
320,128,62807,1,8,0:0:0:0:
192,128,63034,1,0,0:0:0:0:
192,128,63148,1,0,0:0:0:0:
320,128,63261,1,8,0:0:0:0:
192,128,63375,1,0,0:0:0:0:
192,128,63489,1,0,0:0:0:0:
320,128,63716,1,8,0:0:0:0:
192,128,63943,1,0,0:0:0:0:
320,128,64057,1,8,0:0:0:0:
192,128,64170,1,0,0:0:0:0:
192,128,64398,1,0,0:0:0:0:
320,128,64625,1,8,0:0:0:0:
320,128,64852,1,8,0:0:0:0:
320,128,64966,1,8,0:0:0:0:
320,128,65193,1,8,0:0:0:0:
320,128,65307,1,8,0:0:0:0:
320,256,65534,1,12,0:0:0:0:
192,128,65761,1,0,0:0:0:0:
192,128,65875,1,0,0:0:0:0:
320,128,65989,1,8,0:0:0:0:
192,128,66216,1,0,0:0:0:0:
320,128,66443,1,8,0:0:0:0:
192,128,66670,1,0,0:0:0:0:
320,128,66784,1,8,0:0:0:0:
320,128,67011,1,8,0:0:0:0:
192,128,67125,1,0,0:0:0:0:
192,128,67352,1,0,0:0:0:0:
320,128,67466,1,8,0:0:0:0:
192,128,67580,1,0,0:0:0:0:
320,128,67807,1,8,0:0:0:0:
192,128,68034,1,0,0:0:0:0:
320,128,68261,1,8,0:0:0:0:
192,128,68375,1,0,0:0:0:0:
320,128,68602,1,8,0:0:0:0:
320,128,68830,1,8,0:0:0:0:
192,128,68943,1,0,0:0:0:0:
192,128,69170,1,0,0:0:0:0:
320,128,69284,1,8,0:0:0:0:
192,128,69398,1,0,0:0:0:0:
320,128,69625,1,8,0:0:0:0:
192,128,69739,1,0,0:0:0:0:
192,128,69852,1,0,0:0:0:0:
320,128,70080,1,8,0:0:0:0:
192,128,70307,1,0,0:0:0:0:
320,128,70420,1,8,0:0:0:0:
320,128,70648,1,8,0:0:0:0:
320,128,70761,1,8,0:0:0:0:
320,128,70989,1,8,0:0:0:0:
192,128,71216,1,0,0:0:0:0:
320,128,71330,1,8,0:0:0:0:
320,128,71443,1,8,0:0:0:0:
192,128,71670,1,0,0:0:0:0:
320,128,71898,1,8,0:0:0:0:
192,128,72125,1,0,0:0:0:0:
320,128,72239,1,8,0:0:0:0:
192,128,72466,1,0,0:0:0:0:
192,128,72580,1,0,0:0:0:0:
320,128,72807,1,8,0:0:0:0:
320,128,73034,1,8,0:0:0:0:
192,128,73148,1,0,0:0:0:0:
192,128,73261,1,0,0:0:0:0:
320,128,73489,1,8,0:0:0:0:
320,128,73716,1,8,0:0:0:0:
192,128,73943,1,0,0:0:0:0:
192,128,74057,1,0,0:0:0:0:
192,128,74170,1,0,0:0:0:0:
320,128,74284,1,8,0:0:0:0:
192,128,74398,1,0,0:0:0:0:
320,128,74625,1,8,0:0:0:0:
320,128,74852,1,8,0:0:0:0:
192,128,74966,1,0,0:0:0:0:
192,128,75080,1,0,0:0:0:0:
320,128,75307,1,8,0:0:0:0:
320,128,75534,1,8,0:0:0:0:
192,128,75761,1,0,0:0:0:0:
320,128,75875,1,8,0:0:0:0:
320,128,76102,1,8,0:0:0:0:
192,128,76216,1,0,0:0:0:0:
320,128,76443,1,8,0:0:0:0:
192,128,76670,1,0,0:0:0:0:
320,128,76784,1,8,0:0:0:0:
192,128,76898,1,0,0:0:0:0:
320,128,77125,1,8,0:0:0:0:
320,128,77352,1,8,0:0:0:0:
192,128,77580,1,0,0:0:0:0:
320,128,77693,1,8,0:0:0:0:
320,128,77920,1,8,0:0:0:0:
192,128,78034,1,0,0:0:0:0:
320,128,78261,1,8,0:0:0:0:
192,128,78489,1,0,0:0:0:0:
320,128,78602,1,8,0:0:0:0:
192,128,78716,1,0,0:0:0:0:
192,128,78943,1,0,0:0:0:0:
320,128,79170,1,8,0:0:0:0:
320,128,79398,1,8,0:0:0:0:
320,128,79511,1,8,0:0:0:0:
192,128,79625,1,0,0:0:0:0:
192,128,79739,1,0,0:0:0:0:
192,128,79852,1,0,0:0:0:0:
192,256,80080,1,4,0:0:0:0:
256,192,80307,12,0,81443,0:0:0:0:
