osu file format v12

[General]
AudioFilename: Lionheart.mp3
AudioLeadIn: 0
PreviewTime: 50989
Countdown: 0
SampleSet: Soft
StackLeniency: 0.7
Mode: 0
LetterboxInBreaks: 0

[Editor]
Bookmarks: 7239,50989
DistanceSpacing: 1.3
BeatDivisor: 4
GridSize: 4

[Metadata]
Title:Lionheart
TitleUnicode:Lionheart
Artist:Masayoshi Minoshima
ArtistUnicode:Masayoshi Minoshima
Creator:Arusha Shuna
Version:Master
Source:
Tags:maimai halfpipe tokyo mako sakata nwolf
BeatmapID:246812
BeatmapSetID:91123

[Difficulty]
HPDrainRate:7
CircleSize:4
OverallDifficulty:7
ApproachRate:8
SliderMultiplier:2.2
SliderTickRate:1

[Events]
//Background and Video events
0,0,"BG.jpg",0,0
//Break Periods
//Storyboard Layer 0 (Background)
//Storyboard Layer 1 (Fail)
//Storyboard Layer 2 (Pass)
//Storyboard Layer 3 (Foreground)
//Storyboard Sound Samples
//Background Colour Transformations
3,100,163,162,255

[TimingPoints]
80,454.545454545455,4,2,1,100,1,0
50989,-100,4,2,1,100,0,1
80080,-100,4,2,1,100,0,0

[Colours]
Combo1 : 70,70,255
Combo2 : 10,125,220
Combo3 : 97,5,152
Combo4 : 255,0,128

[HitObjects]
28,96,7352,2,0,B|108:76|168:92,1,110,2|0,0:0|0:0,0:0:0:0:
360,48,7807,2,0,B|304:80|232:80,1,110,2|0,0:0|0:0,0:0:0:0:
196,196,8261,1,2,0:0:0:0:
108,356,8602,1,2,0:0:0:0:
288,364,8943,1,2,0:0:0:0:
384,112,9170,6,0,B|381:139|329:207,1,110,2|0,0:0|0:0,0:0:0:0:
172,356,9625,2,0,B|220:344|276:276,1,110,2|0,0:0|0:0,0:0:0:0:
256,140,10080,1,2,0:0:0:0:
348,288,10420,1,2,0:0:0:0:
152,276,10761,1,2,0:0:0:0:
112,136,10989,6,0,P|164:80|208:72,1,110,2|0,0:0|0:0,0:0:0:0:
76,216,11443,2,0,P|28:168|32:108,1,110,2|0,0:0|0:0,0:0:0:0:
160,208,11898,1,2,0:0:0:0:
316,116,12239,1,2,0:0:0:0:
384,284,12580,1,2,0:0:0:0:
256,304,12807,6,0,B|220:284|220:284|176:280|176:280|128:260,1,110,2|0,0:0|0:0,0:0:0:0:
256,80,13261,2,0,B|292:88|292:88|332:116|332:116|360:124,1,110,2|0,0:0|0:0,0:0:0:0:
440,208,13716,1,2,0:0:0:0:
232,224,14057,1,2,0:0:0:0:
88,76,14398,1,2,0:0:0:0:
256,64,14625,5,2,0:0:0:0:
376,44,14852,1,2,0:0:0:0:
476,112,15080,1,2,0:0:0:0:
484,232,15307,1,0,0:0:0:0:
200,358,15534,5,2,0:0:0:0:
276,265,15761,1,2,0:0:0:0:
249,147,15989,1,2,0:0:0:0:
148,80,16216,1,0,0:0:0:0:
256,320,16443,5,2,0:0:0:0:
136,340,16670,1,2,0:0:0:0:
36,272,16898,1,2,0:0:0:0:
28,152,17125,1,0,0:0:0:0:
312,26,17352,5,2,0:0:0:0:
236,119,17579,1,2,0:0:0:0:
263,237,17807,1,2,0:0:0:0:
364,304,18034,1,0,0:0:0:0:
396,144,18261,5,2,0:0:0:0:
380,104,18375,1,2,0:0:0:0:
344,80,18489,1,2,0:0:0:0:
300,76,18602,1,2,0:0:0:0:
260,100,18716,1,2,0:0:0:0:
236,136,18830,1,2,0:0:0:0:
224,176,18943,1,2,0:0:0:0:
192,204,19057,1,2,0:0:0:0:
152,220,19170,5,2,0:0:0:0:
108,216,19284,1,2,0:0:0:0:
72,188,19398,1,2,0:0:0:0:
60,148,19511,1,2,0:0:0:0:
68,104,19625,1,2,0:0:0:0:
100,76,19739,1,2,0:0:0:0:
144,68,19852,1,2,0:0:0:0:
184,84,19966,1,2,0:0:0:0:
256,192,20080,12,0,20989,0:0:0:0:
156,112,21216,5,2,0:0:0:0:
356,272,21443,1,4,0:0:0:0:
388,116,21670,1,0,0:0:0:0:
384,112,21784,1,0,0:0:0:0:
380,108,21898,6,0,P|324:108|280:160,1,110,2|0,0:0|0:0,0:0:0:0:
132,276,22352,2,0,P|188:276|232:224,1,110,8|2,0:0|0:0,0:0:0:0:
152,56,22807,2,0,P|92:124|112:156,1,110,2|0,0:0|0:0,0:0:0:0:
120,196,23148,1,2,0:0:0:0:
180,236,23261,1,8,0:0:0:0:
324,104,23489,6,0,P|284:140|304:208,1,110,2|2,0:0|0:0,0:0:0:0:
432,188,23943,1,2,0:0:0:0:
372,316,24170,1,10,0:0:0:0:
308,288,24284,1,0,0:0:0:0:
244,320,24398,2,0,P|184:360|116:344,1,110,2|2,0:0|0:0,0:0:0:0:
168,240,24852,5,2,0:0:0:0:
372,72,25080,1,12,0:0:0:0:
408,320,25307,1,0,0:0:0:0:
168,240,25534,5,2,0:0:0:0:
120,184,25648,1,0,0:0:0:0:
48,192,25761,2,0,P|4:228|56:296,2,110,2|8|2,0:0|0:0|0:0,0:0:0:0:
108,76,26443,2,0,P|172:48|244:72,1,110,2|0,0:0|0:0,0:0:0:0:
432,56,26784,2,0,P|368:84|329:78,1,110,2|0,0:0|0:0,0:0:0:0:
268,68,27125,1,2,0:0:0:0:
200,168,27352,6,0,P|164:212|88:212,2,110,2|0|8,0:0|0:0|0:0,0:0:0:0:
320,140,28034,1,2,0:0:0:0:
364,196,28148,1,0,0:0:0:0:
432,220,28261,2,0,P|492:196|504:152,1,110,2|0,0:0|0:0,0:0:0:0:
332,24,28716,5,14,0:0:0:0:
280,204,28943,1,0,0:0:0:0:
280,204,29057,1,0,0:0:0:0:
280,204,29170,6,0,B|312:172|352:184|352:184|400:168,1,110,2|0,0:0|0:0,0:0:0:0:
233,284,29625,2,0,B|262:274|262:274|301:284|335:253,2,110,8|2|2,0:0|0:0|0:0,0:0:0:0:
140,228,30307,1,0,0:0:0:0:
152,160,30420,2,0,P|132:108|168:44,1,110,2|0,0:0|0:0,0:0:0:0:
204,108,30761,6,0,P|224:160|198:217,1,110,2|2,0:0|0:0,0:0:0:0:
352,28,31216,1,0,0:0:0:0:
456,88,31443,1,10,0:0:0:0:
480,156,31557,1,0,0:0:0:0:
460,224,31670,1,2,0:0:0:0:
304,184,31898,1,2,0:0:0:0:
376,332,32125,1,2,0:0:0:0:
376,332,32239,1,0,0:0:0:0:
376,332,32352,5,12,0:0:0:0:
208,216,32580,1,2,0:0:0:0:
100,336,32807,6,0,P|144:280|120:216,1,110,2|0,0:0|0:0,0:0:0:0:
292,60,33261,2,0,P|248:116|251:150,1,110,8|2,0:0|0:0,0:0:0:0:
412,252,33716,2,0,L|448:372,1,110,2|0,0:0|0:0,0:0:0:0:
340,248,34057,2,0,L|368:132,1,110,2|0,0:0|0:0,0:0:0:0:
276,280,34398,1,2,0:0:0:0:
168,304,34625,5,2,0:0:0:0:
52,264,34852,1,0,0:0:0:0:
92,140,35080,1,8,0:0:0:0:
216,176,35307,1,2,0:0:0:0:
156,212,35420,1,0,0:0:0:0:
96,248,35534,5,2,0:0:0:0:
300,322,35761,1,0,0:0:0:0:
376,114,35989,1,10,0:0:0:0:
169,39,36216,1,0,0:0:0:0:
96,248,36443,6,0,B|80:300|156:288|140:348,1,110,6|0,0:0|0:0,0:0:0:0:
168,120,36898,2,0,B|152:172|228:160|212:220,1,110,10|0,0:0|0:0,0:0:0:0:
296,356,37352,2,0,L|340:236,1,110,2|0,0:0|0:0,0:0:0:0:
404,80,37693,2,0,L|366:183,1,110,2|0,0:0|0:0,0:0:0:0:
364,188,38034,1,2,0:0:0:0:
362,193,38148,1,0,0:0:0:0:
360,198,38261,6,0,P|318:239|258:231,1,110,2|0,0:0|0:0,0:0:0:0:
408,296,38716,2,0,P|365:336|305:328,1,110,10|0,0:0|0:0,0:0:0:0:
208,288,39170,2,0,P|128:256|68:284,1,110,2|2,0:0|0:0,0:0:0:0:
132,40,39625,5,12,0:0:0:0:
316,160,39852,1,2,0:0:0:0:
107,260,40080,6,0,P|128:256|208:288,1,110,2|0,0:0|0:0,0:0:0:0:
304,96,40534,2,0,P|384:128|404:123,1,110,8|2,0:0|0:0,0:0:0:0:
252,188,40989,2,0,L|336:276,1,110,2|0,0:0|0:0,0:0:0:0:
227,263,41330,2,0,L|152:184,1,110,2|0,0:0|0:0,0:0:0:0:
64,180,41670,6,0,L|108:236,2,55,2|0|2,0:0|0:0|0:0,0:0:0:0:
112,68,42125,1,0,0:0:0:0:
228,100,42352,2,0,P|288:136|336:120,1,110,8|2,0:0|0:0,0:0:0:0:
388,100,42693,1,0,0:0:0:0:
452,132,42807,1,2,0:0:0:0:
428,272,43034,5,0,0:0:0:0:
256,208,43261,1,14,0:0:0:0:
84,272,43489,1,2,0:0:0:0:
80,268,43602,1,0,0:0:0:0:
76,264,43716,6,0,L|48:156,1,110,2|0,0:0|0:0,0:0:0:0:
164,8,44170,2,0,L|204:132,1,110,8|2,0:0|0:0,0:0:0:0:
196,312,44625,2,0,P|165:214|148:200,1,110,2|0,0:0|0:0,0:0:0:0:
88,48,44966,2,0,P|118:145|136:160,1,110,2|0,0:0|0:0,0:0:0:0:
160,76,45307,6,0,P|176:100|220:112,2,55,2|0|2,0:0|0:0|0:0,0:0:0:0:
268,24,45761,1,0,0:0:0:0:
204,216,45989,1,10,0:0:0:0:
404,112,46216,1,2,0:0:0:0:
404,118,46330,1,0,0:0:0:0:
404,124,46443,2,0,P|376:184|320:208,1,110,2|0,0:0|0:0,0:0:0:0:
336,360,46784,2,0,P|298:305|305:245,1,110,2|2,0:0|0:0,0:0:0:0:
269,199,47125,1,0,0:0:0:0:
492,148,47352,5,2,0:0:0:0:
384,284,47580,1,2,0:0:0:0:
208,260,47807,1,8,0:0:0:0:
315,119,48034,1,2,0:0:0:0:
128,96,48261,2,0,P|56:108|36:144,1,110,2|2,0:0|0:0,0:0:0:0:
104,164,48602,1,0,0:0:0:0:
169,189,48716,2,0,P|152:217|80:229,1,110,10|2,0:0|0:0,0:0:0:0:
256,192,49170,12,4,50989,0:0:0:0:
124,232,51216,6,0,P|104:304|160:344,1,110,0|10,0:0|0:0,0:0:0:0:
388,152,51670,2,0,P|408:80|390:55,1,110,0|2,0:0|0:0,0:0:0:0:
248,68,52125,1,2,0:0:0:0:
188,200,52352,1,8,0:0:0:0:
156,264,52466,1,0,0:0:0:0:
188,328,52580,1,2,0:0:0:0:
260,336,52693,1,0,0:0:0:0:
324,308,52807,6,0,P|388:300|436:332,1,110,2|0,0:0|0:0,0:0:0:0:
256,200,53261,2,0,P|236:136|252:88,1,110,10|2,0:0|0:0,0:0:0:0:
188,308,53716,2,0,P|124:300|76:332,1,110,2|2,0:0|0:0,0:0:0:0:
20,288,54057,2,0,P|64:248|124:228,1,110,0|0,0:0|0:0,0:0:0:0:
180,228,54398,1,2,0:0:0:0:
368,88,54625,6,0,P|360:144|300:212,1,110,2|0,0:0|0:0,0:0:0:0:
144,88,55080,2,0,P|152:144|212:212,1,110,8|2,0:0|0:0,0:0:0:0:
108,336,55534,2,0,P|160:352|236:320,1,110,2|2,0:0|0:0,0:0:0:0:
92,264,55875,2,0,P|144:240|168:180,1,110,0|0,0:0|0:0,0:0:0:0:
44,208,56216,2,0,P|72:160|52:96,1,110,2|2,0:0|0:0,0:0:0:0:
160,40,56670,5,0,0:0:0:0:
268,84,56898,1,10,0:0:0:0:
120,144,57125,1,2,0:0:0:0:
219,196,57352,2,0,P|195:264|255:312,1,110,2|2,0:0|0:0,0:0:0:0:
295,196,57693,2,0,P|319:264|259:312,1,110,2|0,0:0|0:0,0:0:0:0:
256,348,58034,1,2,0:0:0:0:
148,328,58261,6,0,B|120:280|120:280|108:276|108:276|80:232,1,110,2|0,0:0|0:0,0:0:0:0:
148,44,58716,2,0,B|125:79|125:79|113:83|113:83|85:131,1,110,10|0,0:0|0:0,0:0:0:0:
184,200,59170,2,0,L|240:88,1,110,2|0,0:0|0:0,0:0:0:0:
248,228,59511,2,0,L|280:340,1,110,2|0,0:0|0:0,0:0:0:0:
300,180,59852,1,2,0:0:0:0:
352,72,60080,6,0,P|400:128|376:168,2,110,2|0|10,0:0|0:0|0:0,0:0:0:0:
232,56,60761,1,2,0:0:0:0:
444,32,60989,1,2,0:0:0:0:
380,232,61216,1,0,0:0:0:0:
432,280,61330,2,0,P|408:336|348:348,1,110,2|0,0:0|0:0,0:0:0:0:
312,304,61670,1,2,0:0:0:0:
148,256,61898,6,0,B|100:272|100:272|96:280|96:280|48:296,1,110,2|0,0:0|0:0,0:0:0:0:
364,128,62353,2,0,B|412:112|412:112|416:104|416:104|464:88,1,110,10|2,0:0|0:0,0:0:0:0:
224,208,62807,2,0,L|128:144,1,110,2|0,0:0|0:0,0:0:0:0:
272,264,63148,2,0,L|368:196,1,110,2|0,0:0|0:0,0:0:0:0:
228,320,63489,1,2,0:0:0:0:
120,268,63716,5,2,0:0:0:0:
64,160,63943,1,0,0:0:0:0:
184,164,64170,1,10,0:0:0:0:
76,224,64398,5,0,0:0:0:0:
136,40,64625,1,2,0:0:0:0:
264,192,64852,1,2,0:0:0:0:
24,108,65080,5,10,0:0:0:0:
232,20,65307,1,0,0:0:0:0:
300,8,65420,1,0,0:0:0:0:
360,44,65534,6,0,P|416:80|472:64,1,110,6|0,0:0|0:0,0:0:0:0:
408,208,65989,1,10,0:0:0:0:
464,252,66102,1,0,0:0:0:0:
432,316,66216,2,0,B|400:336|400:336|392:352|392:352|344:384,1,110,2|2,0:0|0:0,0:0:0:0:
284,276,66670,1,0,0:0:0:0:
224,240,66784,1,2,0:0:0:0:
180,296,66898,1,8,0:0:0:0:
136,240,67011,1,2,0:0:0:0:
76,276,67125,1,0,0:0:0:0:
168,104,67352,6,0,P|88:96|44:140,2,110,2|0|10,0:0|0:0|0:0,0:0:0:0:
108,236,68034,1,2,0:0:0:0:
176,260,68148,1,0,0:0:0:0:
240,228,68261,2,0,P|308:232|344:268,1,110,2|0,0:0|0:0,0:0:0:0:
292,156,68602,2,0,P|223:160|168:185,1,110,2|2,0:0|0:0,0:0:0:0:
264,84,68943,1,0,0:0:0:0:
144,72,69170,6,0,P|108:96|96:172,1,110,2|0,0:0|0:0,0:0:0:0:
344,320,69625,2,0,P|380:296|392:220,1,110,8|2,0:0|0:0,0:0:0:0:
320,72,70080,2,0,L|268:172,1,110,2|0,0:0|0:0,0:0:0:0:
184,324,70420,2,0,L|236:224,1,110,2|2,0:0|0:0,0:0:0:0:
234,226,70761,1,0,0:0:0:0:
188,112,70989,5,2,0:0:0:0:
122,212,71216,1,2,0:0:0:0:
87,45,71443,1,8,0:0:0:0:
21,146,71670,1,2,0:0:0:0:
188,112,71898,2,0,L|324:80,1,110,2|2,0:0|0:0,0:0:0:0:
436,72,72352,1,8,0:0:0:0:
492,120,72466,1,0,0:0:0:0:
492,192,72580,1,2,0:0:0:0:
430,227,72693,1,0,0:0:0:0:
360,208,72807,6,0,P|272:208|248:232,1,110,2|0,0:0|0:0,0:0:0:0:
116,180,73261,2,0,P|56:216|8:196,1,110,10|0,0:0|0:0,0:0:0:0:
60,68,73716,2,0,P|120:32|168:52,1,110,2|0,0:0|0:0,0:0:0:0:
216,80,74057,1,2,0:0:0:0:
248,144,74170,1,8,0:0:0:0:
208,204,74284,1,2,0:0:0:0:
252,260,74398,2,0,P|312:296|360:276,1,110,0|2,0:0|0:0,0:0:0:0:
136,212,74852,6,0,P|88:180|32:208,2,110,0|10|2,0:0|0:0|0:0,0:0:0:0:
244,156,75534,2,0,L|372:104,1,110,2|0,0:0|0:0,0:0:0:0:
244,228,75875,2,0,L|345:269,1,110,2|2,0:0|0:0,0:0:0:0:
180,192,76216,1,0,0:0:0:0:
148,76,76443,5,2,0:0:0:0:
268,52,76670,1,0,0:0:0:0:
104,192,76898,1,10,0:0:0:0:
224,168,77125,1,0,0:0:0:0:
64,308,77352,1,2,0:0:0:0:
184,284,77580,1,0,0:0:0:0:
248,252,77693,2,0,P|316:236|376:288,1,110,2|2,0:0|0:0,0:0:0:0:
399,309,78034,2,0,P|347:329|295:305,1,110,0|2,0:0|0:0,0:0:0:0:
296,152,78489,5,2,0:0:0:0:
388,76,78716,1,8,0:0:0:0:
216,152,78943,5,2,0:0:0:0:
124,76,79170,1,2,0:0:0:0:
256,192,79284,12,4,80080,0:0:0:0:
