osu file format v12

[General]
AudioFilename: Lionheart.mp3
AudioLeadIn: 0
PreviewTime: 50989
Countdown: 0
SampleSet: Soft
StackLeniency: 0.7
Mode: 0
LetterboxInBreaks: 0

[Editor]
Bookmarks: 7239,50989
DistanceSpacing: 0.5
BeatDivisor: 4
GridSize: 4

[Metadata]
Title:Lionheart
TitleUnicode:Lionheart
Artist:Masayoshi Minoshima
ArtistUnicode:Masayoshi Minoshima
Creator:Arusha Shuna
Version:Beginner
Source:
Tags:maimai halfpipe tokyo mako sakata nwolf
BeatmapID:247483
BeatmapSetID:91123

[Difficulty]
HPDrainRate:2
CircleSize:2
OverallDifficulty:1
ApproachRate:1
SliderMultiplier:1.2
SliderTickRate:1

[Events]
//Background and Video events
0,0,"BG.jpg",0,0
//Break Periods
//Storyboard Layer 0 (Background)
//Storyboard Layer 1 (Fail)
//Storyboard Layer 2 (Pass)
//Storyboard Layer 3 (Foreground)
//Storyboard Sound Samples
//Background Colour Transformations
3,100,163,162,255

[TimingPoints]
80,454.545454545455,4,2,1,100,1,0
50989,-100,4,2,1,100,0,1
80080,-100,4,2,1,100,0,0

[Colours]
Combo1 : 70,70,255
Combo2 : 10,125,220
Combo3 : 97,5,152
Combo4 : 255,0,128

[HitObjects]
120,208,7352,5,2,0:0:0:0:
72,100,8261,2,2,P|176:76|232:188,1,240
280,288,10080,1,2,0:0:0:0:
340,184,10989,6,2,B|320:116|272:96|272:96|140:96,1,240
212,196,12807,2,2,B|232:264|280:284|280:284|412:284,1,240,2|2,0:0|0:0,0:0:0:0:
396,164,14625,6,0,B|399:145|343:129|343:129|323:77,2,120,2|0|2,0:0|0:0|0:0,0:0:0:0:
272,180,16443,2,0,B|269:199|325:215|325:215|345:267,2,120,2|0|2,0:0|0:0|0:0,0:0:0:0:
304,64,18261,6,2,B|264:47|209:43|160:74|152:128|144:156|112:196|56:212|0:168,1,360
256,192,20080,12,4,21898,0:0:0:0:
304,108,22807,6,0,P|360:80|424:92,2,120,2|8|2,0:0|0:0|0:0,0:0:0:0:
376,204,24625,2,0,P|316:236|260:216,1,120,2|12,0:0|0:0,0:0:0:0:
220,192,25534,5,2,0:0:0:0:
132,108,26443,1,2,0:0:0:0:
100,160,26898,1,8,0:0:0:0:
132,212,27352,1,2,0:0:0:0:
240,260,28261,2,2,B|264:312|324:252|368:300,1,120,2|14,0:0|0:0,0:0:0:0:
392,328,29170,5,2,0:0:0:0:
436,216,30080,2,0,P|472:168|436:100,2,120,2|8|2,0:0|0:0|0:0,0:0:0:0:
332,160,31898,1,2,0:0:0:0:
280,132,32352,1,14,0:0:0:0:
224,156,32807,6,2,P|140:212|132:112,1,240,2|2,0:0|0:0,0:0:0:0:
168,68,34170,1,8,0:0:0:0:
228,56,34625,1,2,0:0:0:0:
340,100,35534,2,2,P|372:156|348:204,1,120,2|10,0:0|0:0,0:0:0:0:
292,192,36443,6,0,P|180:196|92:292,2,240,6|2|2,0:0|0:0|0:0,0:0:0:0:
300,312,39170,2,2,P|384:276|404:240,1,120,2|14,0:0|0:0,0:0:0:0:
400,196,40080,5,2,0:0:0:0:
320,108,40989,1,2,0:0:0:0:
260,108,41443,1,8,0:0:0:0:
200,108,41898,1,2,0:0:0:0:
96,168,42807,2,2,P|68:228|96:288,2,120,2|12|2,0:0|0:0|0:0,0:0:0:0:
196,232,44625,6,2,L|328:252,2,120,2|8|2,0:0|0:0|0:0,0:0:0:0:
256,128,46443,2,0,L|120:108,1,120,2|12,0:0|0:0,0:0:0:0:
80,100,47352,5,2,0:0:0:0:
140,200,48261,2,2,P|148:248|204:304,1,120,2|10,0:0|0:0,0:0:0:0:
256,192,49170,12,4,50989,0:0:0:0:
88,120,51898,6,0,P|144:96|208:104,1,120,2|8,0:0|0:0,0:0:0:0:
248,140,52807,1,2,0:0:0:0:
424,264,53716,6,0,P|368:288|304:280,1,120,2|8,0:0|0:0,0:0:0:0:
264,244,54625,1,2,0:0:0:0:
144,232,55534,6,0,P|88:184|112:120,1,120,2|8,0:0|0:0,0:0:0:0:
116,88,56443,1,2,0:0:0:0:
232,120,57352,1,2,0:0:0:0:
288,140,57807,1,8,0:0:0:0:
344,120,58261,6,2,P|404:116|356:236,1,240,2|2,0:0|0:0,0:0:0:0:
316,248,59625,1,8,0:0:0:0:
260,228,60080,6,2,B|180:228|180:228|124:228|80:260|68:340,1,240
123,353,61443,1,8,0:0:0:0:
176,328,61898,2,2,B|256:328|256:328|312:328|356:296|368:216,1,240,2|2,0:0|0:0,0:0:0:0:
360,112,63716,6,0,B|332:68|300:60|300:60|240:60,1,120,2|8,0:0|0:0,0:0:0:0:
201,60,64625,1,2,0:0:0:0:
152,96,65080,1,10,0:0:0:0:
104,132,65534,6,2,B|53:155|33:227|33:227|53:295|99:319,1,240,6|2,0:0|0:0,0:0:0:0:
160,328,66898,1,8,0:0:0:0:
220,320,67352,6,2,B|270:296|290:224|290:224|270:156|224:132,1,240
268,92,68716,1,8,0:0:0:0:
316,60,69170,6,2,P|384:28|452:72,2,120,2|0|2,0:0|0:0|0:0,0:0:0:0:
196,60,70989,6,2,P|144:32|76:44,2,120,2|8|2,0:0|0:0|0:0,0:0:0:0:
284,144,72807,5,2,0:0:0:0:
344,144,73261,1,8,0:0:0:0:
404,144,73716,2,2,P|471:247|339:313,1,240
352,292,75080,5,8,0:0:0:0:
300,260,75534,2,2,P|196:192|130:324,1,240
208,340,77352,1,2,0:0:0:0:
280,240,78261,5,2,0:0:0:0:
328,204,78716,1,8,0:0:0:0:
344,148,79170,2,2,P|360:72|264:124,1,240,2|4,0:0|0:0,0:0:0:0:
