osu file format v12

[General]
AudioFilename: Lionheart.mp3
AudioLeadIn: 0
PreviewTime: 50989
Countdown: 0
SampleSet: Soft
StackLeniency: 0.7
Mode: 0
LetterboxInBreaks: 0

[Editor]
Bookmarks: 7239,50989
DistanceSpacing: 0.8
BeatDivisor: 4
GridSize: 4

[Metadata]
Title:Lionheart
TitleUnicode:Lionheart
Artist:Masayoshi Minoshima
ArtistUnicode:Masayoshi Minoshima
Creator:Arusha Shuna
Version:Basic
Source:
Tags:maimai halfpipe tokyo mako sakata nwolf
BeatmapID:247270
BeatmapSetID:91123

[Difficulty]
HPDrainRate:3
CircleSize:3
OverallDifficulty:2
ApproachRate:3
SliderMultiplier:1.4
SliderTickRate:2

[Events]
//Background and Video events
0,0,"BG.jpg",0,0
//Break Periods
//Storyboard Layer 0 (Background)
//Storyboard Layer 1 (Fail)
//Storyboard Layer 2 (Pass)
//Storyboard Layer 3 (Foreground)
//Storyboard Sound Samples
//Background Colour Transformations
3,100,163,162,255

[TimingPoints]
80,454.545454545455,4,2,1,100,1,0
50989,-100,4,2,1,100,0,1
80080,-100,4,2,1,100,0,0

[Colours]
Combo1 : 70,70,255
Combo2 : 10,125,220
Combo3 : 97,5,152
Combo4 : 255,0,128

[HitObjects]
80,116,7352,5,2,0:0:0:0:
168,76,7807,1,2,0:0:0:0:
264,100,8261,2,0,P|328:68|408:80,2,140,2|2|2,0:0|0:0|0:0,0:0:0:0:
196,172,9625,5,2,0:0:0:0:
140,252,10080,2,0,P|76:284|-4:272,2,140,2|2|2,0:0|0:0|0:0,0:0:0:0:
236,260,11443,5,2,0:0:0:0:
304,192,11898,2,0,P|264:128|304:56,1,140,2|2,0:0|0:0,0:0:0:0:
368,120,12807,5,2,0:0:0:0:
400,216,13261,1,2,0:0:0:0:
483,264,13716,2,0,P|504:208|464:144,1,140,2|2,0:0|0:0,0:0:0:0:
376,104,14625,6,0,B|328:88|328:88|288:48|232:72,1,140,2|2,0:0|0:0,0:0:0:0:
264,160,15534,2,0,B|221:178|181:138|181:138|133:122,1,140,2|2,0:0|0:0,0:0:0:0:
72,48,16443,2,0,P|32:104|56:184,1,140,2|2,0:0|0:0,0:0:0:0:
72,264,17352,2,0,B|128:256|144:208|144:208|208:192,1,140,2|2,0:0|0:0,0:0:0:0:
240,120,18261,5,2,0:0:0:0:
336,152,18716,1,2,0:0:0:0:
392,232,19170,1,2,0:0:0:0:
392,328,19625,1,2,0:0:0:0:
256,192,20080,12,4,21443,0:0:0:0:
100,296,21898,6,2,B|92:240|92:240|52:200|84:136,1,140,2|10,0:0|0:0,0:0:0:0:
172,180,22807,2,0,P|224:156|316:180,1,140,2|8,0:0|0:0,0:0:0:0:
248,256,23716,5,2,0:0:0:0:
320,320,24170,1,10,0:0:0:0:
400,264,24625,2,0,B|372:232|340:228|340:228|328:176|280:160,1,140,2|12,0:0|0:0,0:0:0:0:
220,120,25534,6,2,B|172:108|172:108|128:72|64:96,1,140,2|10,0:0|0:0,0:0:0:0:
112,184,26443,1,2,0:0:0:0:
200,224,26898,1,8,0:0:0:0:
296,212,27352,2,0,P|344:192|424:228,2,140,2|8|2,0:0|0:0|0:0,0:0:0:0:
352,292,28716,1,14,0:0:0:0:
256,316,29170,6,2,B|200:316|200:316|164:336|164:336|96:336,1,140,2|10,0:0|0:0,0:0:0:0:
40,280,30080,1,2,0:0:0:0:
116,220,30534,1,8,0:0:0:0:
136,124,30989,2,0,B|72:116|40:160|40:160|-12:168,2,140,2|8|2,0:0|0:0|0:0,0:0:0:0:
224,172,32352,1,14,0:0:0:0:
276,256,32807,6,2,B|308:324|348:264|396:340,2,140,2|10|2,0:0|0:0|0:0,0:0:0:0:
336,180,34170,1,8,0:0:0:0:
284,96,34625,1,2,0:0:0:0:
188,72,35080,1,8,0:0:0:0:
96,108,35534,2,2,P|60:232|188:288,1,280,2|6,0:0|0:0,0:0:0:0:
152,196,36898,6,0,P|220:160|244:80,2,140,10|2|10,0:0|0:0|0:0,0:0:0:0:
176,292,38261,1,2,0:0:0:0:
264,332,38716,1,10,0:0:0:0:
304,304,38943,1,0,0:0:0:0:
344,276,39170,2,2,P|420:240|476:264,1,140,2|14,0:0|0:0,0:0:0:0:
356,160,40080,6,0,P|284:180|216:132,1,140,2|8,0:0|0:0,0:0:0:0:
144,100,40989,1,2,0:0:0:0:
120,196,41443,1,10,0:0:0:0:
208,244,41898,2,0,B|220:308|288:284|288:364,2,140,2|8|2,0:0|0:0|0:0,0:0:0:0:
200,196,43034,1,0,0:0:0:0:
228,156,43261,1,14,0:0:0:0:
300,92,43716,6,2,P|376:68|444:84,2,140,2|8|2,0:0|0:0|0:0,0:0:0:0:
212,132,45080,1,10,0:0:0:0:
184,224,45534,2,0,B|140:272|192:304|136:360,2,140,2|8|2,0:0|0:0|0:0,0:0:0:0:
149,189,46670,1,0,0:0:0:0:
114,154,46898,1,14,0:0:0:0:
196,100,47352,6,2,P|276:92|336:48,1,140,2|10,0:0|0:0,0:0:0:0:
416,104,48261,1,2,0:0:0:0:
396,148,48489,1,0,0:0:0:0:
376,192,48716,1,10,0:0:0:0:
256,192,49170,12,4,50989,0:0:0:0:
152,124,51443,5,10,0:0:0:0:
256,80,51898,2,2,P|332:76|380:104,2,105,2|0|2,0:0|0:0|0:0,0:0:0:0:
232,132,52807,5,2,0:0:0:0:
304,216,53261,1,10,0:0:0:0:
244,312,53716,2,2,P|200:332|120:320,2,105
208,268,54625,6,2,P|136:240|56:260,1,140,0|10,0:0|0:0,0:0:0:0:
140,156,55534,2,0,P|229:179|264:208,2,105,2|0|2,0:0|0:0|0:0,0:0:0:0:
84,148,56443,6,2,P|44:100|112:48,1,140,2|10,0:0|0:0,0:0:0:0:
196,48,57352,2,0,P|256:20|316:36,2,105,2|0|2,0:0|0:0|0:0,0:0:0:0:
172,100,58261,5,2,0:0:0:0:
228,196,58716,1,10,0:0:0:0:
340,164,59170,2,2,P|424:120|460:124,2,105,2|0|2,0:0|0:0|0:0,0:0:0:0:
336,220,60080,5,2,0:0:0:0:
240,280,60534,1,10,0:0:0:0:
136,236,60989,2,2,P|84:232|28:280,2,105,2|0|2,0:0|0:0|0:0,0:0:0:0:
176,196,61898,6,0,B|208:184|208:184|220:196|244:200|268:196|280:184|280:184|324:208,1,140,2|10,0:0|0:0,0:0:0:0:
408,236,62807,2,2,P|448:304|440:348,2,105,2|0|2,0:0|0:0|0:0,0:0:0:0:
408,179,63716,6,2,P|432:99|400:31,1,140,2|10,0:0|0:0,0:0:0:0:
360,60,64398,1,0,0:0:0:0:
304,68,64625,2,0,P|236:28|168:60,1,140,2|0,0:0|0:0,0:0:0:0:
76,76,65534,5,6,0:0:0:0:
48,184,65989,1,8,0:0:0:0:
124,268,66443,1,2,0:0:0:0:
240,244,66898,1,2,0:0:0:0:
268,196,67125,5,0,0:0:0:0:
296,148,67352,2,2,B|352:128|352:128|364:104|364:104|432:80,2,140,2|8|2,0:0|0:0|0:0,0:0:0:0:
216,72,68716,1,2,0:0:0:0:
156,60,68943,5,0,0:0:0:0:
124,108,69170,1,2,0:0:0:0:
144,204,69625,2,2,P|146:265|75:306,1,140,10|2,0:0|0:0,0:0:0:0:
20,232,70534,1,2,0:0:0:0:
32,176,70761,5,0,0:0:0:0:
40,120,70989,2,10,P|80:72|160:80,1,140,2|10,0:0|0:0,0:0:0:0:
264,84,71898,2,0,L|344:100,1,70,0|2,0:0|0:0,0:0:0:0:
348,220,72580,5,2,0:0:0:0:
308,256,72807,2,2,B|260:280|220:220|164:260,1,140,2|10,0:0|0:0,0:0:0:0:
60,252,73716,1,2,0:0:0:0:
28,144,74170,1,0,0:0:0:0:
140,88,74625,6,2,P|160:52|256:60,1,140,2|10,0:0|0:0,0:0:0:0:
360,112,75534,2,2,P|436:132|472:116,2,105,2|0|2,0:0|0:0|0:0,0:0:0:0:
304,84,76443,5,2,0:0:0:0:
272,192,76898,1,8,0:0:0:0:
164,224,77352,1,2,0:0:0:0:
80,152,77807,1,0,0:0:0:0:
64,96,78034,6,0,P|40:56|52:8,2,70,0|2|0,0:0|0:0|0:0,0:0:0:0:
116,76,78716,1,10,0:0:0:0:
228,84,79170,2,2,P|332:143|228:155,1,280,2|4,0:0|0:0,0:0:0:0:
