osu file format v12

[General]
AudioFilename: Lionheart.mp3
AudioLeadIn: 0
PreviewTime: 50989
Countdown: 0
SampleSet: Soft
StackLeniency: 0.7
Mode: 0
LetterboxInBreaks: 0

[Editor]
Bookmarks: 7239,50989
DistanceSpacing: 0.9
BeatDivisor: 4
GridSize: 4

[Metadata]
Title:Lionheart
TitleUnicode:Lionheart
Artist:Masayoshi Minoshima
ArtistUnicode:Masayoshi Minoshima
Creator:Arusha Shuna
Version:Advanced
Source:
Tags:maimai halfpipe tokyo mako sakata nwolf
BeatmapID:246811
BeatmapSetID:91123

[Difficulty]
HPDrainRate:5
CircleSize:4
OverallDifficulty:4
ApproachRate:5
SliderMultiplier:1.8
SliderTickRate:2

[Events]
//Background and Video events
0,0,"BG.jpg",0,0
//Break Periods
//Storyboard Layer 0 (Background)
//Storyboard Layer 1 (Fail)
//Storyboard Layer 2 (Pass)
//Storyboard Layer 3 (Foreground)
//Storyboard Sound Samples
//Background Colour Transformations
3,100,163,162,255

[TimingPoints]
80,454.545454545455,4,2,1,100,1,0
50989,-100,4,2,1,100,0,1
80080,-100,4,2,1,100,0,0

[Colours]
Combo1 : 255,0,128
Combo2 : 137,11,191
Combo3 : 18,124,255
Combo4 : 255,128,255

[HitObjects]
80,92,7352,6,0,P|136:68|192:80,1,90,2|0,0:0|0:0,0:0:0:0:
236,108,7807,2,0,P|271:109|319:85,1,90,2|0,0:0|0:0,0:0:0:0:
388,40,8261,1,2,0:0:0:0:
388,40,8602,1,2,0:0:0:0:
388,40,8943,1,2,0:0:0:0:
376,120,9170,6,0,P|383:167|366:204,1,90,2|0,0:0|0:0,0:0:0:0:
308,260,9625,2,0,P|295:268|223:281,1,90,2|0,0:0|0:0,0:0:0:0:
148,256,10080,1,2,0:0:0:0:
148,256,10420,1,2,0:0:0:0:
148,256,10761,1,2,0:0:0:0:
200,196,10989,6,0,P|164:164|160:116,1,90,2|0,0:0|0:0,0:0:0:0:
196,52,11443,2,0,P|228:88|224:148,1,90,2|0,0:0|0:0,0:0:0:0:
280,192,11898,1,2,0:0:0:0:
280,192,12239,1,2,0:0:0:0:
280,192,12580,1,2,0:0:0:0:
312,264,12807,6,0,P|276:304|232:312,1,90,2|0,0:0|0:0,0:0:0:0:
160,304,13261,2,0,P|126:295|90:255,1,90,2|0,0:0|0:0,0:0:0:0:
128,184,13716,1,2,0:0:0:0:
128,184,14057,1,2,0:0:0:0:
128,184,14398,1,2,0:0:0:0:
156,108,14625,6,0,P|208:96|252:116,1,90,2|2,0:0|0:0,0:0:0:0:
308,64,15080,2,0,P|336:112|324:152,1,90,2|0,0:0|0:0,0:0:0:0:
404,172,15534,2,0,P|388:224|348:244,1,90,2|2,0:0|0:0,0:0:0:0:
392,316,15989,2,0,P|348:344|312:336,1,90,2|0,0:0|0:0,0:0:0:0:
236,312,16443,5,2,0:0:0:0:
160,284,16670,1,2,0:0:0:0:
120,212,16898,1,2,0:0:0:0:
148,136,17125,1,0,0:0:0:0:
220,100,17352,5,2,0:0:0:0:
300,124,17580,1,2,0:0:0:0:
336,196,17807,1,2,0:0:0:0:
316,276,18034,1,0,0:0:0:0:
256,192,18261,12,2,19852,0:0:0:0:
256,192,20080,12,4,21443,0:0:0:0:
112,288,21898,2,0,P|152:244|212:252,1,90,2|2,0:0|0:0,0:0:0:0:
184,320,22352,1,8,0:0:0:0:
260,352,22580,1,2,0:0:0:0:
256,268,22807,2,0,P|296:224|380:232,2,135,2|2|2,0:0|0:0|0:0,0:0:0:0:
332,296,23716,6,0,P|396:308|428:288,1,90,2|0,0:0|0:0,0:0:0:0:
452,228,24170,1,8,0:0:0:0:
436,148,24398,1,2,0:0:0:0:
372,96,24625,1,2,0:0:0:0:
292,96,24852,2,0,P|228:112|208:140,1,90,0|14,0:0|0:0,0:0:0:0:
196,296,25534,6,0,P|140:296|104:260,1,90,2|2,0:0|0:0,0:0:0:0:
88,200,25989,2,0,P|144:200|180:236,1,90,8|2,0:0|0:0,0:0:0:0:
248,228,26443,2,0,P|324:208|400:260,2,135,2|2|2,0:0|0:0|0:0,0:0:0:0:
304,288,27352,5,2,0:0:0:0:
384,304,27580,1,0,0:0:0:0:
452,260,27807,1,10,0:0:0:0:
472,180,28034,2,0,P|488:164|504:132,2,45,2|2|2,0:0|0:0|0:0,0:0:0:0:
392,200,28489,2,0,P|340:200|284:176,1,90,0|14,0:0|0:0,0:0:0:0:
144,180,29170,6,0,P|192:208|240:192,2,90,2|0|8,0:0|0:0|0:0,0:0:0:0:
204,124,29852,1,2,0:0:0:0:
284,140,30080,2,0,P|380:136|432:172,1,135,2|2,0:0|0:0,0:0:0:0:
344,256,30761,5,2,0:0:0:0:
272,292,30989,2,0,P|160:320|104:296,2,180,2|10|0,0:0|0:0|0:0,0:0:0:0:
228,224,32125,2,0,P|192:244|136:216,1,90,2|14,0:0|0:0,0:0:0:0:
220,84,32807,5,2,0:0:0:0:
296,64,33034,1,0,0:0:0:0:
376,76,33261,2,0,P|416:128|400:176,1,90,8|2,0:0|0:0,0:0:0:0:
332,144,33716,2,0,P|308:196|360:264,1,135,2|2,0:0|0:0,0:0:0:0:
228,296,34398,5,2,0:0:0:0:
160,340,34625,2,0,P|112:372|56:360,1,90,2|0,0:0|0:0,0:0:0:0:
96,292,35080,1,10,0:0:0:0:
120,216,35307,1,2,0:0:0:0:
56,164,35534,2,0,P|96:136|144:136,1,90,0|2,0:0|0:0,0:0:0:0:
208,168,35989,2,0,P|248:200|304:196,1,90,10|0,0:0|0:0,0:0:0:0:
304,124,36443,6,0,P|408:80|452:144,2,180,6|10|2,0:0|0:0|0:0,0:0:0:0:
376,156,37580,2,0,L|380:252,1,90,2|8,0:0|0:0,0:0:0:0:
344,320,38034,1,2,0:0:0:0:
260,336,38261,6,0,P|164:344|116:268,2,180,2|10|0,0:0|0:0|0:0,0:0:0:0:
208,276,39398,1,2,0:0:0:0:
272,224,39625,1,12,0:0:0:0:
112,192,40080,6,0,P|86:237|26:257,1,90,2|2,0:0|0:0,0:0:0:0:
28,176,40534,2,0,P|56:116|96:104,1,90,8|2,0:0|0:0,0:0:0:0:
156,120,40989,2,0,P|244:156|356:128,2,180,2|10|2,0:0|0:0|0:0,0:0:0:0:
212,60,42125,1,2,0:0:0:0:
292,72,42352,2,0,P|388:92|404:168,1,180,8|2,0:0|0:0,0:0:0:0:
360,228,43034,2,0,P|340:284|368:324,1,90,0|14,0:0|0:0,0:0:0:0:
196,268,43716,6,0,B|128:280|128:280|80:328|4:288,1,180,2|8,0:0|0:0,0:0:0:0:
68,228,44398,1,2,0:0:0:0:
4,176,44625,2,0,B|49:130|106:155|106:155|173:142,1,180,2|8,0:0|0:0,0:0:0:0:
244,180,45307,5,2,0:0:0:0:
240,100,45534,2,0,P|296:112|320:148,1,90,2|0,0:0|0:0,0:0:0:0:
320,216,45989,2,0,P|278:255|235:255,1,90,8|2,0:0|0:0,0:0:0:0:
168,252,46443,2,0,P|88:248|64:268,2,90,2|0|14,0:0|0:0|0:0,0:0:0:0:
136,92,47352,6,0,P|172:48|212:48,2,90,2|2|8,0:0|0:0|0:0,0:0:0:0:
112,168,48034,1,2,0:0:0:0:
88,244,48261,2,0,P|52:288|12:288,2,90,2|2|8,0:0|0:0|0:0,0:0:0:0:
168,228,48943,1,2,0:0:0:0:
256,192,49170,12,4,50989,0:0:0:0:
104,120,51443,6,0,P|200:84|276:128,1,180,10|2,0:0|0:0,0:0:0:0:
348,112,52125,1,2,0:0:0:0:
184,176,52580,5,2,0:0:0:0:
152,256,52807,1,2,0:0:0:0:
124,332,53034,1,0,0:0:0:0:
200,320,53261,2,0,P|240:328|296:304,2,90,10|0|2,0:0|0:0|0:0,0:0:0:0:
232,244,53943,1,2,0:0:0:0:
88,164,54398,5,2,0:0:0:0:
136,104,54625,2,0,P|172:88|224:100,1,90,2|2,0:0|0:0,0:0:0:0:
284,144,55080,2,0,P|332:153|368:137,1,90,10|0,0:0|0:0,0:0:0:0:
428,84,55534,1,2,0:0:0:0:
444,164,55761,1,2,0:0:0:0:
292,108,56216,5,2,0:0:0:0:
212,128,56443,2,0,P|188:176|120:188,1,90,2|0,0:0|0:0,0:0:0:0:
140,112,56898,2,0,P|164:64|232:52,1,90,10|2,0:0|0:0,0:0:0:0:
276,36,57352,2,0,P|340:52|356:100,1,90,2|2,0:0|0:0,0:0:0:0:
344,232,58034,5,2,0:0:0:0:
264,212,58261,1,2,0:0:0:0:
256,292,58489,1,0,0:0:0:0:
176,272,58716,1,10,0:0:0:0:
172,352,58943,1,0,0:0:0:0:
96,328,59170,2,0,P|36:328|16:264,2,135,2|2|0,0:0|0:0|0:0,0:0:0:0:
140,264,60080,5,2,0:0:0:0:
193,200,60307,1,0,0:0:0:0:
129,151,60534,1,10,0:0:0:0:
76,214,60761,1,0,0:0:0:0:
48,136,60989,2,0,P|5:79|58:32,2,135,2|2|0,0:0|0:0|0:0,0:0:0:0:
128,140,61898,6,0,P|146:113|198:93,1,90,2|0,0:0|0:0,0:0:0:0:
208,172,62352,2,0,P|243:159|275:119,1,90,10|2,0:0|0:0,0:0:0:0:
292,40,62807,2,0,P|360:100|340:156,2,135,2|2|0,0:0|0:0|0:0,0:0:0:0:
212,52,63716,5,2,0:0:0:0:
144,96,63943,1,2,0:0:0:0:
136,176,64170,1,8,0:0:0:0:
184,240,64398,1,2,0:0:0:0:
264,252,64625,5,2,0:0:0:0:
332,208,64852,1,0,0:0:0:0:
344,128,65080,1,10,0:0:0:0:
300,60,65307,1,2,0:0:0:0:
220,48,65534,6,0,L|104:56,1,90,2|0,0:0|0:0,0:0:0:0:
112,132,65989,2,0,L|216:124,1,90,10|2,0:0|0:0,0:0:0:0:
280,104,66443,1,0,0:0:0:0:
356,128,66670,1,2,0:0:0:0:
316,284,67125,5,2,0:0:0:0:
252,232,67352,2,0,B|208:317|140:233|96:301,2,180,2|10|2,0:0|0:0|0:0,0:0:0:0:
212,160,68489,1,0,0:0:0:0:
52,184,68943,6,0,P|24:228|32:292,1,90,0|2,0:0|0:0,0:0:0:0:
64,336,69398,1,0,0:0:0:0:
144,332,69625,2,0,B|136:264|204:248|176:148,1,180,10|2,0:0|0:0,0:0:0:0:
220,92,70307,1,2,0:0:0:0:
380,68,70761,5,2,0:0:0:0:
396,148,70989,1,2,0:0:0:0:
372,224,71216,1,0,0:0:0:0:
308,272,71443,1,10,0:0:0:0:
228,284,71670,1,2,0:0:0:0:
152,260,71898,2,0,P|88:248|56:276,1,90,0|2,0:0|0:0,0:0:0:0:
156,124,72580,5,2,0:0:0:0:
232,104,72807,2,0,P|240:56|296:28,1,90,2|0,0:0|0:0,0:0:0:0:
308,104,73261,2,0,P|301:145|265:173,1,90,10|2,0:0|0:0,0:0:0:0:
232,248,73716,1,0,0:0:0:0:
272,320,73943,1,2,0:0:0:0:
136,232,74398,5,2,0:0:0:0:
84,172,74625,2,0,L|200:116,1,90,2|0,0:0|0:0,0:0:0:0:
212,200,75080,2,0,L|280:136,1,90,8|2,0:0|0:0,0:0:0:0:
336,84,75534,1,2,0:0:0:0:
396,140,75761,1,0,0:0:0:0:
368,300,76216,5,2,0:0:0:0:
336,224,76443,2,0,P|288:288|288:304,1,90,2|0,0:0|0:0,0:0:0:0:
208,292,76898,2,0,P|240:200|312:148,1,180,10|2,0:0|0:0,0:0:0:0:
268,80,77580,1,0,0:0:0:0:
416,140,78034,5,2,0:0:0:0:
396,220,78261,2,0,P|375:233|311:237,1,90,2|0,0:0|0:0,0:0:0:0:
336,160,78716,2,0,P|302:153|254:177,1,90,8|2,0:0|0:0,0:0:0:0:
232,256,79170,2,0,P|234:307|197:221,1,360,2|4,0:0|0:0,0:0:0:0:
