osu file format v12

[General]
AudioFilename: Alstroemeria Records - Taketori Hishou.mp3
AudioLeadIn: 1000
PreviewTime: 163564
Countdown: 0
SampleSet: Soft
StackLeniency: 0.7
Mode: 0
LetterboxInBreaks: 0

[Editor]
Bookmarks: 199606
DistanceSpacing: 1
BeatDivisor: 2
GridSize: 4

[Metadata]
Title:Flight of the Bamboo Cutter
TitleUnicode:竹取飛翔
Artist:Masayoshi Minoshima
ArtistUnicode:Masayoshi Minoshima
Creator:a3272509123
Version:Normal
Source:Touhou
Tags:Lunatic Princess eikkaleyd Sun Rainbow Houraisan Kaguya Taketori Hishou Alstroemeria Records
BeatmapID:152218
BeatmapSetID:47754

[Difficulty]
HPDrainRate:4
CircleSize:3
OverallDifficulty:4
ApproachRate:5
SliderMultiplier:1.1
SliderTickRate:1

[Events]
//Background and Video events
0,0,"background.jpg",0,0
//Break Periods
2,82964,91669
2,103174,111880
2,153701,162406
//Storyboard Layer 0 (Background)
//Storyboard Layer 1 (Fail)
//Storyboard Layer 2 (Pass)
//Storyboard Layer 3 (Foreground)
//Storyboard Sound Samples
//Background Colour Transformations
3,100,163,162,255

[TimingPoints]
659,315.789473684211,4,2,1,70,1,0
1290,-200,4,2,1,50,0,0
12027,-200,4,2,1,30,0,0
12185,-200,4,2,1,70,0,0
17080,-200,4,2,1,30,0,0
17237,-200,4,2,1,70,0,0
22764,-100,4,2,1,70,0,0
42343,-100,4,1,0,70,0,0
92869,-100,4,2,1,70,0,0
101711,-100,4,1,0,70,0,0
132659,-100,4,2,1,70,0,0
133290,-100,4,1,0,70,0,0
143395,-100,4,1,0,55,0,0
163606,-100,4,2,0,55,0,0
183816,-100,4,1,0,70,0,1
193843,-100,4,1,0,70,0,0
193922,-100,4,1,0,70,0,1
204027,-100,4,1,0,70,0,0

[Colours]
Combo1 : 231,217,41
Combo2 : 255,0,0
Combo3 : 128,0,128
Combo4 : 255,128,192

[HitObjects]
256,56,1290,2,0,L|256:120,1,55,2|2,0:0|0:0,0:0:0:0:
256,168,1922,2,0,B|224:168|224:168|192:184|192:184|144:184,2,110,2|0|2,0:0|0:0|0:0,0:0:0:0:
368,168,3816,1,0,0:0:0:0:
296,248,4448,6,0,B|262:293|174:293|144:240,1,165,2|2,0:0|0:0,0:0:0:0:
128,192,5711,2,0,B|240:192,1,110,2|2,0:0|0:0,0:0:0:0:
336,240,6974,6,0,B|424:176,1,110,0|2,0:0|0:0,0:0:0:0:
336,112,8237,2,0,B|272:112,2,55,0|0|2,0:0|0:0|0:0,0:0:0:0:
256,192,9501,2,0,B|208:232|144:184,2,110,2|2|2,0:0|0:0|0:0,0:0:0:0:
312,96,11395,1,2,0:0:0:0:
368,192,12027,5,4,0:0:0:0:
320,288,12659,1,2,0:0:0:0:
208,304,13290,1,0,0:0:0:0:
112,248,13922,1,2,0:0:0:0:
168,152,14553,2,0,B|224:112|264:192|336:144,2,165,0|0|2,0:0|0:0|0:0,0:0:0:0:
208,256,17080,5,4,0:0:0:0:
312,288,17711,2,0,B|424:288,2,110,2|0|2,0:0|0:0|0:0,0:0:0:0:
256,192,19606,12,4,22132,0:0:0:0:
112,80,22764,6,0,B|128:216,1,110,2|0,0:0|0:0,0:0:0:0:
216,248,23395,2,0,B|336:224,1,110
352,120,24027,2,0,B|448:88,2,55,2|0|0,0:0|0:0|0:0,0:0:0:0:
240,112,24659,6,0,B|136:152|48:96,2,165,0|2|0,0:0|0:0|0:0,0:0:0:0:
224,224,25922,1,0,0:0:0:0:
296,304,26237,1,2,0:0:0:0:
376,232,26553,1,0,0:0:0:0:
304,152,26869,1,2,0:0:0:0:
200,120,27185,6,0,B|136:120|136:120|96:96|96:96|32:96,2,165,4|0|0,0:0|0:0|0:0,0:0:0:0:
312,112,28448,2,0,P|328:168|308:216,1,110,0|2,0:0|0:0,0:0:0:0:
212,268,29080,2,0,P|196:212|216:164,1,110,0|2,0:0|0:0,0:0:0:0:
172,64,29711,6,0,P|80:92|60:116,2,110,0|2|0,0:0|0:0|0:0,0:0:0:0:
280,64,30659,1,2,0:0:0:0:
224,160,30974,2,0,B|272:232,2,55,0|0|2,0:0|0:0|0:0,0:0:0:0:
120,124,31606,1,0,0:0:0:0:
120,124,31764,1,0,0:0:0:0:
120,124,31922,1,2,0:0:0:0:
144,232,32237,6,0,B|264:280|392:216,1,220,4|2,0:0|0:0,0:0:0:0:
424,144,33185,1,0,0:0:0:0:
320,112,33501,2,0,B|184:128,1,110,2|0,0:0|0:0,0:0:0:0:
160,96,33974,2,0,B|120:145|121:221|180:272,1,165,2|0,0:0|0:0,0:0:0:0:
264,272,34764,6,0,B|400:248,2,110,0|2|0,0:0|0:0|0:0,0:0:0:0:
176,208,35711,1,2,0:0:0:0:
176,208,35869,1,0,0:0:0:0:
176,208,36027,2,0,B|120:232|56:200,2,110,0|2|0,0:0|0:0|0:0,0:0:0:0:
264,144,36974,1,2,0:0:0:0:
368,120,37290,6,0,B|384:344,1,220,4|2,0:0|0:0,0:0:0:0:
272,328,38237,1,0,0:0:0:0:
168,288,38553,2,0,B|152:64,1,220,4|2,0:0|0:0,0:0:0:0:
264,88,39501,1,0,0:0:0:0:
264,88,39659,1,0,0:0:0:0:
264,88,39816,2,0,B|384:120,1,110,4|2,0:0|0:0,0:0:0:0:
400,224,40448,2,0,B|288:192,1,110,4|2,0:0|0:0,0:0:0:0:
256,192,41080,12,4,42343,0:0:0:0:
128,96,42974,6,0,B|152:208,1,110,0|8,0:0|0:0,0:0:0:0:
264,200,43606,2,0,B|304:256,2,55,0|0|8,0:0|0:0|0:0,0:0:0:0:
296,96,44237,2,0,B|440:128,1,110,0|8,0:0|0:0,0:0:0:0:
452,220,44869,5,0,0:0:0:0:
408,320,45185,1,8,0:0:0:0:
296,320,45501,1,0,0:0:0:0:
252,220,45816,1,8,0:0:0:0:
168,152,46132,2,0,B|104:120,2,55,0|0|8,0:0|0:0|0:0,0:0:0:0:
248,72,46764,2,0,B|288:72|288:72|328:88|328:88|392:88,1,110,0|8,0:0|0:0,0:0:0:0:
408,184,47395,6,0,B|408:264|336:320|224:288,1,220,4|0,0:0|0:0,0:0:0:0:
184,208,48343,1,8,0:0:0:0:
104,128,48659,2,0,B|40:144,2,55,0|0|8,0:0|0:0|0:0,0:0:0:0:
200,80,49290,2,0,B|328:72,1,110,0|8,0:0|0:0,0:0:0:0:
384,160,49922,6,0,B|344:240|440:280,2,110,0|8|0,0:0|0:0|0:0,0:0:0:0:
280,200,50869,1,8,0:0:0:0:
280,200,51027,1,0,0:0:0:0:
280,200,51185,2,0,B|192:200|176:288,1,110,0|8,0:0|0:0,0:0:0:0:
80,216,51816,2,0,B|72:128,1,55
128,144,52132,2,8,B|176:96,1,55
216,88,52448,6,0,B|272:128|368:64,1,110,4|8,0:0|0:0,0:0:0:0:
368,112,52922,2,0,B|384:232,1,110
392,272,53395,1,8,0:0:0:0:
280,280,53711,1,0,0:0:0:0:
224,288,53869,1,0,0:0:0:0:
168,296,54027,2,0,B|72:296,1,55,8|0,0:0|0:0,0:0:0:0:
80,192,54501,5,0,0:0:0:0:
80,192,54659,2,0,B|112:192|112:192|152:176|152:176|192:176,1,110,8|0,0:0|0:0,0:0:0:0:
280,112,55290,1,8,0:0:0:0:
392,136,55606,1,0,0:0:0:0:
424,240,55922,1,8,0:0:0:0:
336,304,56237,6,0,B|376:352,2,55,0|0|8,0:0|0:0|0:0,0:0:0:0:
256,224,56869,2,0,B|104:224,1,110,0|0,0:0|0:0,0:0:0:0:
80,136,57501,6,0,B|208:136,1,110,4|8,0:0|0:0,0:0:0:0:
304,136,58132,2,0,B|304:72,2,55,0|0|8,0:0|0:0|0:0,0:0:0:0:
408,160,58764,2,0,B|440:256,2,55,0|0|8,0:0|0:0|0:0,0:0:0:0:
328,240,59395,6,0,B|264:344,1,110,0|8,0:0|0:0,0:0:0:0:
168,288,60027,1,0,0:0:0:0:
168,288,60185,1,0,0:0:0:0:
168,288,60343,1,8,0:0:0:0:
120,184,60659,2,0,B|96:128,2,55,0|0|8,0:0|0:0|0:0,0:0:0:0:
256,192,61290,12,4,62553,0:0:0:0:
256,72,63185,5,0,0:0:0:0:
360,48,63501,1,8,0:0:0:0:
440,128,63816,1,0,0:0:0:0:
432,184,63974,1,0,0:0:0:0:
424,240,64132,2,0,B|376:240|376:280|320:280,2,110,8|0|8,0:0|0:0|0:0,0:0:0:0:
384,136,65080,6,0,B|280:136|280:72|152:72,1,220
88,136,66027,1,8,0:0:0:0:
192,160,66343,2,0,B|200:224,2,55,0|0|8,0:0|0:0|0:0,0:0:0:0:
304,152,66974,2,0,B|336:208,2,55,0|0|8,0:0|0:0|0:0,0:0:0:0:
384,80,67606,6,0,B|480:192,1,110,4|8,0:0|0:0,0:0:0:0:
456,216,68080,2,0,B|464:296|392:352|312:328,1,165,0|8,0:0|0:0,0:0:0:0:
264,328,68869,1,0,0:0:0:0:
160,296,69185,1,8,0:0:0:0:
104,208,69501,1,0,0:0:0:0:
160,112,69816,5,8,0:0:0:0:
160,112,69974,1,0,0:0:0:0:
160,112,70132,2,0,B|224:96|280:120,2,110,0|8|0,0:0|0:0|0:0,0:0:0:0:
232,200,71080,1,8,0:0:0:0:
336,168,71395,2,0,B|368:272,1,110,0|8,0:0|0:0,0:0:0:0:
272,320,72027,1,4,0:0:0:0:
160,304,72343,1,8,0:0:0:0:
144,192,72659,6,0,B|140:98|208:40|324:32|372:152,1,330,4|8,0:0|0:0,0:0:0:0:
400,248,73922,2,0,B|272:272,1,110,0|8,0:0|0:0,0:0:0:0:
184,296,74553,2,0,B|120:312,2,55,0|0|8,0:0|0:0|0:0,0:0:0:0:
224,192,75185,6,0,B|272:144|216:80,2,110,0|8|0,0:0|0:0|0:0,0:0:0:0:
336,176,76132,1,8,0:0:0:0:
432,232,76448,2,0,B|272:312|96:248,1,330,0|8,0:0|0:0,0:0:0:0:
152,152,77711,6,0,B|208:104|176:32,1,110,4|8,0:0|0:0,0:0:0:0:
288,88,78343,1,0,0:0:0:0:
400,80,78659,1,8,0:0:0:0:
408,192,78974,2,0,B|440:264,2,55,0|0|8,0:0|0:0|0:0,0:0:0:0:
296,208,79606,2,0,B|232:208|232:208|152:232|152:232|72:232,1,220
120,128,80553,5,8,0:0:0:0:
224,88,80869,1,0,0:0:0:0:
336,96,81185,1,8,0:0:0:0:
256,192,81501,12,4,82764,0:0:0:0:
128,64,92869,6,0,B|152:200,2,110,4|2|2,0:0|0:0|0:0,0:0:0:0:
236,80,93816,1,0,0:0:0:0:
236,80,93974,1,2,0:0:0:0:
340,120,94290,1,0,0:0:0:0:
340,120,94448,2,0,B|348:200|308:272|228:288,1,220,2|2,0:0|0:0,0:0:0:0:
176,200,95395,6,0,B|64:200,2,110,0|2|0,0:0|0:0|0:0,0:0:0:0:
240,112,96343,1,0,0:0:0:0:
240,112,96501,2,0,B|304:104|400:152|384:240|344:312,1,275,2|2,0:0|0:0,0:0:0:0:
248,272,97606,1,0,0:0:0:0:
160,208,97922,6,0,B|120:208|120:208|80:192|80:192|24:192,2,110,4|2|2,0:0|0:0|0:0,0:0:0:0:
232,128,98869,1,0,0:0:0:0:
232,128,99027,2,0,B|296:128|296:128|336:112|336:112|400:112,1,165,2|2,0:0|0:0,0:0:0:0:
408,224,99816,2,0,B|432:304,2,55,0|2|0,0:0|0:0|0:0,0:0:0:0:
304,256,100448,6,0,B|192:304|64:248,1,220,0|2,0:0|0:0,0:0:0:0:
128,152,101395,1,0,0:0:0:0:
256,192,101711,12,4,102974,0:0:0:0:
384,96,113080,6,0,B|360:208,1,110,4|8,0:0|0:0,0:0:0:0:
248,200,113712,2,0,B|208:256,2,55,0|0|8,0:0|0:0|0:0,0:0:0:0:
216,96,114343,2,0,B|72:128,1,110,0|8,0:0|0:0,0:0:0:0:
80,228,114975,1,0,0:0:0:0:
144,312,115291,1,8,0:0:0:0:
248,344,115607,5,0,0:0:0:0:
280,240,115922,1,8,0:0:0:0:
344,152,116238,2,0,B|408:120,2,55,0|0|8,0:0|0:0|0:0,0:0:0:0:
264,72,116870,2,0,B|224:72|224:72|184:88|184:88|120:88,1,110,0|8,0:0|0:0,0:0:0:0:
104,184,117501,6,0,B|104:264|176:320|288:288,1,220,0|4,0:0|0:0,0:0:0:0:
328,208,118449,1,8,0:0:0:0:
408,128,118765,2,0,B|472:144,2,55,0|0|8,0:0|0:0|0:0,0:0:0:0:
312,80,119396,2,0,B|184:72,1,110,0|8,0:0|0:0,0:0:0:0:
128,160,120028,6,0,B|168:240|72:280,2,110,0|8|0,0:0|0:0|0:0,0:0:0:0:
232,200,120975,1,8,0:0:0:0:
232,200,121133,1,0,0:0:0:0:
232,200,121291,2,0,B|320:200|336:288,1,110,0|8,0:0|0:0,0:0:0:0:
432,216,121922,6,0,B|440:128,1,55
384,144,122238,2,8,B|336:96,1,55
296,80,122553,2,0,B|240:104|144:64,1,110,0|8,0:0|0:0,0:0:0:0:
120,168,123185,6,0,B|184:200|168:304,1,110,4|8,0:0|0:0,0:0:0:0:
264,312,123816,1,0,0:0:0:0:
368,288,124132,1,8,0:0:0:0:
432,200,124448,6,0,B|352:192|344:80|248:64,1,220
160,96,125395,1,8,0:0:0:0:
240,176,125711,2,0,B|264:264,2,55,0|0|8,0:0|0:0|0:0,0:0:0:0:
136,208,126343,2,0,B|128:264,2,55,0|0|8,0:0|0:0|0:0,0:0:0:0:
208,296,126974,6,0,B|312:360|424:288,1,220
424,184,127922,1,8,0:0:0:0:
392,80,128237,2,0,B|344:64|344:64|280:80,1,110,4|8,0:0|0:0,0:0:0:0:
232,176,128869,2,0,B|174:190|174:190|126:174,1,110,0|8,0:0|0:0,0:0:0:0:
88,280,129501,5,0,0:0:0:0:
136,312,129659,1,0,0:0:0:0:
192,328,129816,1,8,0:0:0:0:
304,312,130132,2,0,B|432:304,1,110,0|8,0:0|0:0,0:0:0:0:
448,200,130764,2,0,B|320:208,1,110,0|8,0:0|0:0,0:0:0:0:
232,168,131395,2,0,B|136:144,2,55,0|0|8,0:0|0:0|0:0,0:0:0:0:
280,64,132027,2,0,B|304:80|336:80|336:80|344:96|392:120,1,110,0|8,0:0|0:0,0:0:0:0:
416,216,132659,5,4,0:0:0:0:
416,216,132974,1,4,0:0:0:0:
304,208,133290,6,0,B|315:91|229:62|144:16|56:168,1,330,4|8,0:0|0:0,0:0:0:0:
104,232,134553,2,0,B|232:256,1,110,0|8,0:0|0:0,0:0:0:0:
312,296,135185,2,0,B|376:316,2,55,0|0|8,0:0|0:0|0:0,0:0:0:0:
288,192,135816,6,0,B|240:144|296:80,2,110,0|8|0,0:0|0:0|0:0,0:0:0:0:
176,184,136763,1,8,0:0:0:0:
80,232,137080,2,0,B|192:272,1,110,0|8,0:0|0:0,0:0:0:0:
292,276,137711,2,0,B|412:252,1,110,0|8,0:0|0:0,0:0:0:0:
360,152,138343,6,0,B|304:104|336:24,1,110,4|8,0:0|0:0,0:0:0:0:
224,88,138974,1,0,0:0:0:0:
112,80,139290,1,8,0:0:0:0:
104,192,139606,2,0,B|68:256,2,55,0|0|8,0:0|0:0|0:0,0:0:0:0:
216,208,140237,2,0,B|280:208|280:208|360:232|360:232|440:232,1,220
392,128,141184,5,8,0:0:0:0:
288,88,141500,1,0,0:0:0:0:
176,96,141816,1,8,0:0:0:0:
256,192,142132,12,4,143395,0:0:0:0:
144,104,144027,6,0,B|160:216,1,110,2|0,0:0|0:0,0:0:0:0:
272,200,144659,2,0,B|296:344,2,110,0|2|0,0:0|0:0|0:0,0:0:0:0:
320,104,145606,1,2,0:0:0:0:
320,104,145922,6,0,B|360:192|448:288,1,220
336,320,146869,1,2,0:0:0:0:
224,296,147185,2,0,B|192:288|168:264,2,55,0|0|2,0:0|0:0|0:0,0:0:0:0:
256,192,147816,2,0,B|241:162|244:128,2,55,0|2|0,0:0|0:0|0:0,0:0:0:0:
352,136,148448,6,0,B|400:176|392:288|304:304|240:272,1,220
200,208,149395,1,2,0:0:0:0:
176,104,149711,2,0,B|240:88,2,55,0|0|2,0:0|0:0|0:0,0:0:0:0:
96,176,150343,2,0,B|80:248|144:312,1,110,0|2,0:0|0:0,0:0:0:0:
224,288,150974,5,0,0:0:0:0:
328,264,151290,1,2,0:0:0:0:
304,160,151606,1,0,0:0:0:0:
200,184,151922,1,2,0:0:0:0:
256,192,152237,12,4,153501,0:0:0:0:
304,112,163606,6,0,B|384:232,1,110,4|2,0:0|0:0,0:0:0:0:
400,312,164237,2,0,B|272:296,1,110,0|2,0:0|0:0,0:0:0:0:
216,216,164869,2,0,B|176:296,2,55,0|0|2,0:0|0:0|0:0,0:0:0:0:
256,112,165501,2,0,B|344:168|472:112,1,220
416,216,166448,6,0,B|424:336,1,110,2|0,0:0|0:0,0:0:0:0:
320,280,167080,1,2,0:0:0:0:
208,272,167395,1,0,0:0:0:0:
128,192,167711,1,2,0:0:0:0:
232,160,168027,2,0,B|256:120|200:80,4,55,0|2|0|2|0,0:0|0:0|0:0|0:0|0:0,0:0:0:0:
336,136,168974,5,2,0:0:0:0:
432,192,169290,1,0,0:0:0:0:
464,296,169606,1,2,0:0:0:0:
352,272,169922,2,0,B|208:288,1,110,0|2,0:0|0:0,0:0:0:0:
160,208,170553,2,0,B|296:192,1,110,0|2,0:0|0:0,0:0:0:0:
328,104,171185,6,0,B|352:104|376:128|376:128|400:104|424:104,2,110,0|2|0,0:0|0:0|0:0,0:0:0:0:
216,88,172132,1,2,0:0:0:0:
216,88,172290,1,0,0:0:0:0:
216,88,172448,2,0,B|176:216,1,110,0|2,0:0|0:0,0:0:0:0:
261,271,173080,2,0,B|341:223|377:215,1,110,0|2,0:0|0:0,0:0:0:0:
432,136,173711,5,4,0:0:0:0:
344,72,174027,1,2,0:0:0:0:
232,80,174343,1,0,0:0:0:0:
152,152,174659,1,2,0:0:0:0:
256,184,174974,2,0,B|344:224|480:184,2,220,0|2|0,0:0|0:0|0:0,0:0:0:0:
152,208,176553,6,0,B|184:272|136:328,2,110,2|0|2,0:0|0:0|0:0,0:0:0:0:
224,120,177501,1,0,0:0:0:0:
336,128,177816,1,2,0:0:0:0:
384,224,178132,1,0,0:0:0:0:
312,312,178448,1,2,0:0:0:0:
200,304,178764,5,0,0:0:0:0:
96,112,179395,1,2,0:0:0:0:
320,120,180027,1,0,0:0:0:0:
200,304,180659,1,2,0:0:0:0:
256,192,181290,12,4,183185,0:0:0:0:
112,112,183816,6,0,B|144:256,1,110,6|8,0:0|0:0,0:0:0:0:
224,288,184448,2,0,B|352:272,1,110,2|8,0:0|0:0,0:0:0:0:
424,208,185080,1,0,0:0:0:0:
424,208,185237,1,2,0:0:0:0:
424,208,185395,1,8,0:0:0:0:
384,104,185711,2,0,B|312:144|240:80,1,110,2|8,0:0|0:0,0:0:0:0:
168,112,186343,6,0,B|64:200|152:328,1,220,2|0,0:0|0:0,0:0:0:0:
248,280,187290,1,8,0:0:0:0:
336,216,187606,2,0,B|320:152,2,55,2|0|8,0:0|0:0|0:0,0:0:0:0:
408,136,188237,2,0,B|384:72|304:72,1,110,2|8,0:0|0:0,0:0:0:0:
216,72,188869,6,0,B|176:72|176:72|136:80|136:80|80:80,2,110,4|8|0,0:0|0:0|0:0,0:0:0:0:
272,168,189816,1,8,0:0:0:0:
376,200,190132,5,2,0:0:0:0:
400,248,190290,1,0,0:0:0:0:
376,296,190448,1,8,0:0:0:0:
280,296,190764,2,0,B|224:264|152:304,1,110,2|8,0:0|0:0,0:0:0:0:
168,184,191395,6,0,B|118:213|62:181,2,110,2|8|0,0:0|0:0|0:0,0:0:0:0:
256,112,192343,1,8,0:0:0:0:
256,112,192501,1,0,0:0:0:0:
256,112,192659,6,0,B|312:128,1,55,2|0,0:0|0:0,0:0:0:0:
344,168,192974,2,0,B|384:232,1,55,8|0,0:0|0:0,0:0:0:0:
344,264,193290,2,0,B|272:312,1,55,2|2,0:0|0:0,0:0:0:0:
240,288,193606,2,0,B|176:264,1,55,8|2,0:0|0:0,0:0:0:0:
160,224,193922,6,0,B|128:160|168:96,3,110,6|8|0|8,0:0|0:0|0:0|0:0,0:0:0:0:
264,88,195185,2,0,B|224:48,2,55,0|2|8,0:0|0:0|0:0,0:0:0:0:
376,104,195816,2,0,B|392:264,1,110,0|8,0:0|0:0,0:0:0:0:
312,296,196448,6,0,B|256:320|184:288,2,110,2|8|0,0:0|0:0|0:0,0:0:0:0:
304,184,197395,1,8,0:0:0:0:
304,184,197553,1,0,0:0:0:0:
304,184,197711,2,0,B|256:72,1,110,2|8,0:0|0:0,0:0:0:0:
152,96,198343,5,0,0:0:0:0:
112,136,198501,1,2,0:0:0:0:
104,192,198659,1,8,0:0:0:0:
120,248,198816,1,2,0:0:0:0:
156,288,198974,6,0,P|232:304|284:264,1,110,4|8,0:0|0:0,0:0:0:0:
252,180,199606,2,0,P|296:160|354:183,1,110,2|8,0:0|0:0,0:0:0:0:
376,72,200237,2,0,B|408:80|432:40,2,55,0|2|8,0:0|0:0|0:0,0:0:0:0:
264,64,200869,2,0,B|224:64|224:64|176:80|176:80|136:80,1,110,0|8,0:0|0:0,0:0:0:0:
112,184,201501,5,2,0:0:0:0:
152,288,201816,1,0,0:0:0:0:
256,248,202132,1,2,0:0:0:0:
216,144,202448,1,0,0:0:0:0:
256,192,202764,12,4,204027,0:0:0:0:
