osu file format v9

[General]
AudioFilename: 06. micanx - Fire.mp3
AudioLeadIn: 0
PreviewTime: 87908
Countdown: 0
SampleSet: Normal
StackLeniency: 0.7
Mode: 0
LetterboxInBreaks: 1

[Editor]
Bookmarks: 153737
DistanceSpacing: 2
BeatDivisor: 2
GridSize: 8

[Metadata]
Title:Fire
Artist:Masayoshi Minoshima
Creator:Shinxyn
Version:Hard
Source:Touhou
Tags:mican* Fires Flames of Hokkai Alstroemeria Records

[Difficulty]
HPDrainRate:6
CircleSize:4
OverallDifficulty:6
ApproachRate:7
SliderMultiplier:1.6
SliderTickRate:0.5

[Events]
//Background and Video events
0,0,"byaku.jpg"
//Break Periods
//Storyboard Layer 0 (Background)
//Storyboard Layer 1 (Fail)
//Storyboard Layer 2 (Pass)
//Storyboard Layer 3 (Foreground)
//Storyboard Sound Samples
//Background Colour Transformations
3,100,163,162,255

[TimingPoints]
132,342.857142857143,4,1,0,60,1,0
22588,-200,4,2,0,80,0,0
24645,-100,4,1,0,60,0,0
25331,-200,4,2,0,80,0,0
27388,-100,4,1,0,60,0,0
28073,-200,4,2,0,80,0,0
30131,-100,4,1,0,60,0,0
30473,-200,4,1,0,60,0,0
30816,-200,4,2,0,80,0,0
32702,-100,4,1,0,60,0,0
33559,-200,4,2,0,80,0,0
35616,-100,4,1,0,60,0,0
36302,-200,4,2,0,80,0,0
38273,-100,4,1,0,60,0,0
39045,-200,4,2,0,80,0,0
41102,-100,4,1,0,60,0,0
41445,-200,4,1,0,60,0,0
41788,-200,4,2,0,80,0,0
43673,-100,4,1,0,60,0,0
44531,-200,4,2,0,80,0,0
46588,-100,4,1,0,60,0,0
47273,-200,4,2,0,80,0,0
49331,-100,4,1,0,60,0,0
50016,-200,4,2,0,80,0,0
52073,-100,4,1,0,60,0,0
52416,-200,4,1,0,60,0,0
52759,-200,4,2,0,80,0,0
54816,-100,4,1,0,60,0,0
55502,-200,4,2,0,80,0,0
57388,-100,4,1,0,60,0,0
58245,-200,4,2,0,80,0,0
60473,-100,4,1,0,60,0,0
60988,-200,4,2,0,80,0,0
65959,-100,4,1,1,80,0,0
110016,-100,4,2,1,80,0,0
153731,-100,4,1,1,80,0,0
175673,-100,4,2,0,80,0,0
176359,-100,4,2,0,65,0,0
177045,-100,4,2,0,50,0,0
177731,-100,4,2,0,35,0,0
178416,-100,4,2,0,20,0,0

[Colours]
Combo1 : 106,20,222
Combo2 : 247,62,62
Combo3 : 221,32,140

[HitObjects]
256,192,22074,1,0
256,192,22417,1,0
216,120,22760,6,0,B|168:144|176:216,2,80,0|0|0
256,192,23789,2,0,B|240:272|136:320,1,160,0|0
112,240,24817,5,0
216,120,25160,1,0
256,192,25503,6,0,B|288:232|360:208,2,80
312,136,26532,2,0,B|376:128|416:176|408:232,1,160
328,216,27560,5,0
192,136,27903,1,0
256,184,28246,6,0,B|232:224|176:224|160:200,2,80
192,136,29274,2,0,B|152:80|80:80|40:144,1,160
120,176,30303,5,0
264,88,30646,2,0,B|432:88,2,160
176,344,33046,5,0
336,344,33389,1,0
256,320,33732,5,0
256,240,34074,2,0,B|208:184|296:144|240:80,1,160
247,89,35103,1,2
247,89,35446,1,0
328,72,35789,5,0
384,224,36132,1,0
328,280,36474,5,0
256,320,36817,2,0,B|176:352|96:304,1,160
136,232,37846,1,2
144,152,38189,1,0
144,152,38532,5,0
304,160,38874,1,0
296,240,39217,5,0
232,192,39560,2,0,B|208:128|256:80|312:80,2,160,0|2|0
296,240,41274,5,0
160,152,41617,2,0,B|112:224|168:320,2,160,0|2|0
248,96,44017,5,0
120,192,44360,1,0
272,248,44703,5,0
256,328,45046,2,0,B|168:288|208:192,1,160,2|0
272,248,46074,1,2
272,248,46246,1,0
416,56,46760,5,0
320,184,47103,1,0
256,40,47446,5,0
200,104,47789,2,0,B|232:184|176:272,1,160,2|0
120,216,48817,1,2
120,216,48989,1,0
328,96,49503,5,0
272,248,49846,1,0
120,216,50189,5,0
120,136,50532,2,0,B|176:158|237:112|288:152,2,160,0|2|0
120,136,52246,5,0
120,296,52589,2,0,B|176:318|237:272|288:312,2,160,0|2|0
256,112,54989,5,0
256,272,55332,1,0
256,112,55674,5,0
320,152,56017,2,0,B|280:200|256:208|232:200|184:144,1,160,2|0
256,112,57046,1,2
256,112,57217,1,0
256,352,57732,5,0
256,192,58074,1,0
256,112,58417,5,0
312,63,58760,2,0,B|288:8|256:0|224:8|200:64,1,160,2|0
192,144,59789,1,2
256,192,60132,2,0,B|336:256,1,80,0|0
448,144,60817,1,0
400,208,61160,5,2
336,160,61503,1,2
312,128,61674,1,0
280,112,61846,1,2
240,112,62017,1,0
208,136,62189,1,0
128,136,62532,6,0,B|128:192|184:232|248:208,1,160
208,136,63903,2,0,B|256:88|320:104|344:176,1,160
264,192,65274,2,0,B|216:224|152:216|128:144,1,160,0|0
256,296,66474,6,0,B|328:240|416:264,1,160,0|0
406,261,66989,1,0
408,104,67332,2,0,B|336:160|224:128,1,160,0|0
256,135,67846,2,0,B|160:112|88:160,1,160
100,152,68360,1,0
184,288,68703,5,0
160,48,69217,2,0,B|184:112|176:216,1,160
176,205,69732,1,0
72,328,70074,5,2
288,216,70417,1,0
48,184,70760,1,2
216,352,71103,1,0
200,232,71446,6,0,B|128:168|152:72,1,160
148,88,71960,1,0
304,112,72303,1,0
152,304,72817,6,0,B|256:336|296:224,1,160
285,248,73331,1,0
120,216,73674,1,0
328,96,74189,6,0,B|256:48|160:72,1,160
174,68,74703,1,0
120,216,75046,1,0
360,256,75560,5,2
152,144,75903,1,2
360,256,76246,1,2
152,144,76589,1,0
40,240,76931,6,0,B|88:304|192:296,1,160,4|0
182,296,77446,2,0,B|248:352|352:336,1,160
332,338,77960,1,0
179,45,78303,6,0,B|144:136|200:208,1,160
264,160,78817,2,0,B|320:88|424:104,1,160,0|0
408,184,79331,1,0
264,248,79674,6,0,B|352:224|336:104,1,160
264,160,80189,2,0,B|334:236|420:177,1,160
368,280,80703,1,0
216,336,81046,5,2
408,184,81389,1,0
184,104,81731,1,2
216,336,82074,1,0
112,216,82417,6,0,B|48:152|80:56,1,160
104,144,82931,2,0,B|160:216|136:320,1,160
112,216,83446,1,0
176,176,83617,1,0
112,216,83789,6,0,B|144:120|224:104,1,160
176,176,84303,2,0,B|248:232|224:352,1,160
152,288,84817,1,0
228,319,84989,1,0
304,320,85160,6,0,B|432:272|424:96,1,240
424,130,86017,1,0
192,64,86531,5,2
48,352,86874,1,2
56,112,87217,1,2
176,320,87560,1,0
120,216,87903,6,0,B|152:168|216:168,1,80
264,160,88246,1,0
344,184,88417,2,0,B|416:240|504:208,1,160
416,216,88931,2,0,B|384:256|400:320,1,80
472,288,89274,6,0,B|496:256|496:184,1,80
456,144,89617,1,0
384,120,89789,2,0,B|312:80|216:80,1,160
152,80,90303,2,0,B|152:128|216:168,1,80
112,176,90646,6,0,B|144:224|208:232,2,80
72,104,91160,2,0,B|136:176|96:272,1,160
168,304,91674,1,0
328,328,92017,5,2
328,328,92189,1,0
456,240,92360,1,0
456,240,92531,1,0
320,160,92703,1,2
320,160,92874,1,0
439,64,93046,1,0
439,64,93217,1,0
448,144,93389,6,0,B|400:152|384:208,1,80
320,240,93731,1,0
320,160,93903,2,0,B|360:72|480:56,1,160
448,144,94417,2,0,B|488:192|448:248,1,80
400,272,94760,6,0,B|312:272,1,80
272,336,95103,1,0
224,272,95274,2,0,B|57:272,1,160
104,200,95789,2,0,B|208:200,1,80
144,128,96131,6,0,B|129:101|160:72|144:32,1,80
216,96,96474,1,0
288,128,96646,2,0,B|240:192|336:240|256:304,1,160
216,232,97160,1,0
64,192,97503,6,0,B|64:288,1,80,2|0
144,56,97846,2,0,B|224:56,1,80,2|0
64,192,98189,2,0,B|136:272,1,80,2|0
144,56,98531,2,0,B|208:128,1,80
96,115,98874,6,0,B|184:211,1,80
232,176,99217,1,0
192,248,99389,2,0,B|272:296|368:256,1,160
312,192,99903,2,0,B|368:192|376:104,1,80
368,64,100246,6,0,B|432:72|448:128,1,80
440,184,100589,1,0
368,144,100760,2,0,B|376:248|272:272,1,160
312,192,101274,2,0,B|280:152|192:176,1,80
160,192,101617,6,0,B|120:160|64:184,1,80
112,256,101960,1,0
160,192,102131,2,0,B|208:112|184:32,1,160
112,64,102646,1,0
272,88,102989,6,0,B|280:128|328:160,1,80,2|0
240,296,103331,2,0,B|232:256|184:224,1,80
272,88,103674,2,0,B|305:110|362:99,1,80,2|0
240,296,104017,2,0,B|206:273|149:284,1,80
80,296,104360,6,0,B|32:272|32:208,1,80
112,224,104703,1,0
144,152,104874,2,0,B|216:96|296:160,1,160
344,216,105389,2,0,B|304:256|248:224,1,80
192,224,105731,6,0,B|192:272|144:304,1,80
112,224,106074,1,0
192,224,106246,2,0,B|192:280|136:328|72:328,1,160
40,264,106760,1,0
112,120,107103,6,0,B|112:32,1,80
184,80,107446,1,0
256,40,107617,2,0,B|256:224,1,160
256,280,108131,1,0
256,360,108303,1,0
326,319,108474,6,0,B|238:271,1,80,2|0
256,120,108817,2,0,B|360:184,1,80,2|0
192,248,109160,2,0,B|104:192,1,80,2|0
128,48,109503,2,0,B|208:96,1,80
192,168,109846,5,4
192,168,110189,1,8
336,240,110531,6,0,B|400:288|512:280,2,160,0|8|0
432,112,111560,1,8
384,176,111732,2,0,B|328:176|288:112,1,80
360,80,112074,1,0
432,112,112246,1,8
336,240,112589,5,0
336,240,112931,1,8
176,240,113274,6,0,B|120:256|104:216|104:216|80:168|24:200,2,160,0|8|0
176,240,114303,1,8
192,160,114474,2,0,B|248:168|248:216|248:216|256:264|328:264,1,160
320,184,114989,1,8
432,64,115331,5,0
200,288,115674,1,8
352,336,116017,6,0,B|432:376|520:328,2,160,0|8|0
248,216,117046,2,0,B|160:192|144:96,1,160,8|0
216,64,117560,1,0
248,136,117731,2,0,B|160:160|152:256,1,160,8|0
272,360,118417,6,0,B|229:331|168:360|104:328,1,160,8|0
264,272,119103,2,0,B|320:280|368:328|456:320,1,160,8|0
312,200,119789,1,8
152,184,120131,2,0,B|56:168,2,80,0|0|8
248,56,120817,5,0
264,328,121160,1,8
416,280,121503,6,0,B|488:216|472:96,2,160,0|8|0
312,160,122531,2,0,B|240:112|128:128,1,160,8|0
88,168,123046,1,0
152,216,123217,1,8
80,248,123389,1,0
144,296,123560,5,0
368,88,123903,1,8
232,176,124246,6,0,B|280:248|368:264,2,160,0|8|0
232,176,125274,1,8
136,48,125617,1,0
192,104,125789,1,0
232,176,125960,2,0,B|224:264|152:320,1,160,8|0
56,192,126646,1,8
192,104,126989,5,0
192,104,127160,1,0
192,104,127331,2,0,B|272:80|353:105,1,160,8|0
350,262,128017,2,0,B|326:182|351:101,1,160,8|0
508,104,128703,2,0,B|428:128|347:103,1,160,8|0
350,104,129389,2,0,B|304:184|192:208,1,160,8|0
72,144,130074,2,0,B|96:240|208:264,1,160,8|0
336,256,130760,2,0,B|256:368|128:344|64:288|32:224,1,320,8|8
200,184,131789,5,4
200,184,132474,6,0,B|248:168|296:184,1,80
200,184,132817,2,0,B|200:96|288:64,1,160,8|0
344,216,133503,1,8
224,328,133846,1,0
256,256,134017,1,0
256,256,134189,2,0,B|280:224|272:160,2,80,8|0|0
96,248,134874,5,8
160,104,135217,1,0
200,256,135560,2,0,B|80:120,2,160,8|0|8
56,192,136589,1,0
16,264,136760,1,0
96,248,136931,2,0,B|224:384,1,160,8|0
205,364,137617,1,8
192,208,137960,5,0
272,192,138131,1,0
344,232,138303,2,0,B|416:168|376:72,1,160,8|0
192,208,138989,2,0,B|120:272|160:368,1,160,8|0
344,232,139674,2,0,B|435:201|435:97,1,160,8|0
272,96,140360,2,0,B|192:48|104:96,1,160,8|0
72,240,141046,2,0,B|160:280|272:232,1,160,8|0
184,96,141731,2,0,B|104:48|16:96,1,160,8|0
0,240,142417,1,8
0,240,142589,1,0
96,168,142760,5,4
96,168,143103,1,8
320,192,143446,6,0,B|368:184|408:160,1,80
472,144,143789,2,0,B|480:216|432:256|352:256,1,160,8|0
224,248,144474,1,8
80,168,144817,1,0
160,168,144989,2,0,B|208:136|216:88,1,80,0|8
128,96,145331,1,0
160,168,145503,2,0,B|104:224|176:296|248:232,1,160,0|8
280,96,146189,5,0
304,256,146531,2,0,B|352:192|272:144|232:192|232:192|208:240|144:256|96:184|168:128,1,320,8|8
280,96,147560,1,0
304,256,147903,2,0,B|347:277|299:349|235:333|211:285|211:285|171:237|91:285|139:349,1,320,8|8
256,128,149103,5,0
256,208,149274,1,8
216,136,149446,1,0
296,200,149617,1,0
136,192,149960,1,8
256,296,150303,6,0,B|352:312|400:200,1,160,0|8
312,88,150989,2,0,B|256:24|128:48,1,160,0|8
80,176,151674,2,0,B|48:224|96:288,2,80,0|0|8
256,192,152360,12,4,153731
64,128,154246,6,0,B|88:216|184:256,1,160
240,272,154760,1,0
176,328,154931,1,0
240,272,155103,6,0,B|320:208|384:296,1,160
304,320,155617,2,0,B|216:288|224:152,1,160
256,120,156131,1,0
304,184,156303,1,0
176,128,156474,6,0,B|184:48|248:24|320:64,1,160
256,120,156989,2,0,B|232:200|208:224|144:200,1,160
176,128,157503,1,0
256,120,157674,1,0
304,184,157846,5,2
168,264,158189,1,0
440,96,158531,1,2
304,184,158874,1,0
304,184,159046,1,0
352,248,159217,6,0,B|296:288|232:248|224:192,1,160,4|0
256,120,159731,2,0,B|312:80|376:120|384:176,1,160
304,184,160246,1,0
232,160,160417,1,0
160,184,160589,6,0,B|80:216|0:176,1,160
8,256,161103,2,0,B|96:288|192:248,1,160
232,216,161617,1,0
232,296,161789,1,0
304,336,161960,5,0
376,304,162131,1,0
376,224,162303,1,0
304,256,162474,2,0,B|304:88,1,160
296,16,162989,2,0,B|240:24|224:80,1,80
360,143,163331,6,0,B|312:136|304:96,1,80,2|0
166,95,163674,2,0,B|176:128|232:136,1,80,2|0
374,64,164017,2,0,B|336:64|304:96,1,80,2|0
232,136,164360,1,0
232,136,164703,6,0,B|216:232|128:264,1,160,4|0
120,184,165217,2,0,B|208:160|272:240,1,160
224,296,165731,1,0
304,304,165903,1,0
344,232,166074,6,0,B|328:144|224:136,1,160
152,112,166589,1,0
120,184,166760,1,0
192,208,166931,1,0
232,136,167103,1,0
152,280,167446,6,0,B|232:312|272:256|272:200,1,160
320,136,167960,1,0
320,136,168131,1,0
352,208,168303,1,0
352,208,168474,2,0,B|400:184|400:112,1,80
248,96,168817,6,0,B|312:32,1,80,2|0
192,152,169160,2,0,B|120:224,1,80
184,56,169503,2,0,B|80:56,1,80,2|0
248,200,169846,1,0
368,304,170189,6,0,B|280:344|208:288,1,160,4|0
160,240,170703,2,0,B|96:184|120:80,1,160
184,56,171217,1,0
200,136,171389,1,0
248,200,171560,6,0,B|312:144|312:48,1,160
296,136,172074,2,0,B|376:192|392:272,1,160
312,264,172589,1,0
232,280,172760,1,0
248,200,172931,6,0,B|184:192|128:248|160:328,1,160
232,280,173446,1,0
288,344,173617,1,0
312,264,173789,1,0
368,328,173960,1,0
392,248,174131,1,0
448,312,174303,5,2
256,56,174646,1,2
64,312,174989,1,2
256,192,175332,5,0
256,192,175503,1,0
256,192,175674,12,0,178417
