osu file format v13

[General]
AudioFilename: Masayoshi Minoshima BEAUTIFUL MOMENT.mp3
AudioLeadIn: 0
PreviewTime: 37916
Countdown: 0
SampleSet: None
StackLeniency: 0.7
Mode: 0
LetterboxInBreaks: 1
WidescreenStoryboard: 1

[Editor]
DistanceSpacing: 0.5
BeatDivisor: 4
GridSize: 4
TimelineZoom: 2.799999

[Metadata]
Title:BEAUTIFUL MOMENT
TitleUnicode:BEAUTIFUL MOMENT
Artist:Masayoshi Minoshima
ArtistUnicode:Masayoshi Minoshima
Creator:Comet
Version:Hard
Source:Touhou
Tags:cloud_9 alstromenia_records touhou reitaisai_11 electronic instrumental piano
BeatmapID:448328
BeatmapSetID:183499

[Difficulty]
HPDrainRate:4
CircleSize:3
OverallDifficulty:6.9
ApproachRate:8
SliderMultiplier:2.2
SliderTickRate:1

[Events]
//Background and Video events
0,0,"swag.jpg",0,0
//Break Periods
//Storyboard Layer 0 (Background)
//Storyboard Layer 1 (Fail)
//Storyboard Layer 2 (Pass)
//Storyboard Layer 3 (Foreground)
//Storyboard Sound Samples
//Background Colour Transformations
3,100,163,162,255

[TimingPoints]
182,468.75,4,1,0,30,1,0
14010,-100,4,1,0,50,0,0
16353,-66.6666666666667,4,1,0,50,0,0
17057,-100,4,1,0,50,0,0
63697,-100,4,1,0,50,0,1
74947,-100,4,1,0,50,0,0

[HitObjects]
87,43,182,5,8,0:0:0:0:
304,60,416,2,0,P|370:78|418:106,1,110,0|8,0:0|0:0,0:0:0:0:
388,272,1119,5,8,0:0:0:0:
356,192,1353,2,0,P|432:176|496:180,1,110,0|8,0:0|0:0,0:0:0:0:
288,184,2057,5,8,0:0:0:0:
204,156,2291,1,0,0:0:0:0:
136,208,2525,1,8,0:0:0:0:
272,192,2994,2,0,P|317:161|370:167,2,110,0|8|0,0:0|0:0|0:0,0:0:0:0:
108,128,3932,6,0,P|160:136|206:103,2,110,0|8|0,0:0|0:0|0:0,0:0:0:0:
284,128,4869,5,8,0:0:0:0:
212,176,5103,2,0,L|330:237,1,110
140,272,5807,1,8,0:0:0:0:
168,188,6041,2,0,P|64:212|36:192,1,110,0|8,0:0|0:0,0:0:0:0:
228,140,6744,2,0,P|280:116|315:76,2,110,0|8|0,0:0|0:0|0:0,0:0:0:0:
108,268,7682,6,0,B|148:240|204:216,2,110,0|8|0,0:0|0:0|0:0,0:0:0:0:
176,148,8619,6,0,P|152:152|136:224,2,110,0|8|0,0:0|0:0|0:0,0:0:0:0:
316,256,9557,5,8,0:0:0:0:
236,220,9791,2,0,P|352:152|360:152,1,110,0|8,0:0|0:0,0:0:0:0:
148,160,10494,5,0,0:0:0:0:
184,228,10728,2,0,P|131:244|87:277,1,110,0|8,0:0|0:0,0:0:0:0:
256,224,11432,5,8,0:0:0:0:
148,124,11666,2,0,P|264:56|272:56,1,110,0|8,0:0|0:0,0:0:0:0:
326,330,12369,2,0,P|442:262|450:262,2,110,2|4|0,0:0|0:0|0:0,0:0:0:0:
124,61,13307,5,8,0:0:0:0:
144,148,13541,2,2,B|80:136|35:130,1,110,10|10,0:0|0:0,0:0:0:0:
392,160,14478,5,8,0:0:0:0:
395,159,14947,2,0,L|251:187,1,110,2|8,0:0|0:0,0:0:0:0:
266,105,15650,2,8,P|337:106|407:123,1,110,0|2,0:0|0:0,0:0:0:0:
134,80,16119,5,8,0:0:0:0:
216,184,16353,1,0,0:0:0:0:
348,196,16588,1,0,0:0:0:0:
244,116,16822,6,0,P|280:208|248:264,2,165.000006294251,0|0|0,0:0|0:0|0:0,0:0:0:0:
248,204,17994,2,10,L|336:280,2,110,2|12|0,0:0|0:0|0:0,0:0:0:0:
244,200,19166,5,4,0:0:0:0:
328,228,19400,1,8,0:0:0:0:
244,200,19635,2,0,L|320:120,1,110,0|8,0:0|0:0,0:0:0:0:
244,200,20103,1,4,0:0:0:0:
156,216,20338,1,8,0:0:0:0:
180,132,20572,6,0,L|276:200,1,110,0|8,0:0|0:0,0:0:0:0:
296,112,21041,5,0,0:0:0:0:
296,200,21275,2,8,L|304:316,1,110
232,256,21744,1,8,0:0:0:0:
156,212,21978,2,0,L|156:324,1,110,0|8,0:0|0:0,0:0:0:0:
236,280,22447,5,0,0:0:0:0:
156,244,22682,1,8,0:0:0:0:
180,180,22916,5,0,0:0:0:0:
240,236,23150,5,0,0:0:0:0:
212,292,23385,5,0,0:0:0:0:
364,208,23853,5,0,0:0:0:0:
360,204,23971,1,0,0:0:0:0:
356,200,24088,1,8,0:0:0:0:
236,180,24322,2,2,L|174:75,2,110,2|8|2,0:0|0:0|0:0,0:0:0:0:
208,120,25025,5,0,0:0:0:0:
204,120,25142,1,0,0:0:0:0:
200,124,25260,1,0,0:0:0:0:
220,136,25728,5,0,0:0:0:0:
101,173,25963,1,12,0:0:0:0:
147,122,26666,5,0,0:0:0:0:
136,148,26783,1,0,0:0:0:0:
132,176,26900,1,0,0:0:0:0:
129,229,27135,2,0,B|166:164|218:248|276:182,1,165,2|8,0:0|0:0,0:0:0:0:
292,124,27603,5,4,0:0:0:0:
308,72,27838,2,8,L|420:72,1,110
412,128,28307,5,8,0:0:0:0:
384,176,28541,1,0,0:0:0:0:
332,196,28775,1,8,0:0:0:0:
284,220,29010,6,0,L|196:220,2,55,0|2|8,0:0|0:0|0:0,0:0:0:0:
232,204,29478,5,0,0:0:0:0:
180,224,29713,2,0,L|100:144,1,110,10|0,0:0|0:0,0:0:0:0:
148,116,30182,2,0,P|220:76|252:72,1,110
256,128,30650,5,8,0:0:0:0:
244,184,30885,1,0,0:0:0:0:
208,224,31119,1,8,0:0:0:0:
252,256,31353,6,0,L|364:232,2,110,0|10|2,0:0|0:0|0:0,0:0:0:0:
204,284,32057,5,8,0:0:0:0:
164,248,32291,1,0,0:0:0:0:
148,196,32525,1,8,0:0:0:0:
156,140,32760,5,6,0:0:0:0:
204,116,32994,2,8,L|316:112,3,110,0|2|8|0,0:0|0:0|0:0|0:0,0:0:0:0:
340,160,33932,5,12,0:0:0:0:
296,192,34166,1,0,0:0:0:0:
272,240,34400,1,8,0:0:0:0:
260,296,34635,1,0,0:0:0:0:
152,288,35103,5,8,0:0:0:0:
164,236,35338,5,10,0:0:0:0:
144,184,35572,1,0,0:0:0:0:
176,140,35807,5,8,0:0:0:0:
224,168,36041,1,4,0:0:0:0:
256,212,36275,5,8,0:0:0:0:
300,180,36510,1,0,0:0:0:0:
316,128,36744,1,8,0:0:0:0:
300,168,36978,2,0,L|416:176,1,110,2|8,0:0|0:0,0:0:0:0:
388,228,37447,1,0,0:0:0:0:
332,252,37682,1,8,0:0:0:0:
248,228,37916,5,0,0:0:0:0:
208,240,38150,1,8,0:0:0:0:
224,200,38385,1,0,0:0:0:0:
176,248,38619,5,0,0:0:0:0:
156,256,38736,1,0,0:0:0:0:
136,264,38853,1,0,0:0:0:0:
233,171,39557,6,0,B|268:156|304:152|338:174,1,110,8|2,0:0|0:0,0:0:0:0:
344,216,40025,1,8,0:0:0:0:
308,244,40260,1,0,0:0:0:0:
268,260,40494,1,8,0:0:0:0:
228,244,40728,6,8,L|92:252,2,110,0|0|6,0:0|0:0|0:0,0:0:0:0:
224,200,41432,5,0,0:0:0:0:
244,160,41666,1,0,0:0:0:0:
276,128,41900,1,8,0:0:0:0:
304,164,42135,2,2,L|400:172,2,55,2|6|8,0:0|0:0|0:0,0:0:0:0:
300,208,42603,5,0,0:0:0:0:
272,244,42838,2,0,L|380:260,1,110,8|0,0:0|0:0,0:0:0:0:
412,228,43307,1,14,0:0:0:0:
392,188,43541,1,8,0:0:0:0:
356,160,43775,6,8,L|244:224,1,110,8|12,0:0|0:0,0:0:0:0:
220,204,44244,1,8,0:0:0:0:
188,176,44478,1,0,0:0:0:0:
200,132,44713,1,8,0:0:0:0:
168,104,44947,1,0,0:0:0:0:
136,136,45182,6,8,L|183:163,2,55,0|6|0,0:0|0:0|0:0,0:0:0:0:
116,96,45650,5,8,0:0:0:0:
92,180,46119,1,8,0:0:0:0:
304,244,46588,6,0,L|192:248,1,110,8|0,0:0|0:0,0:0:0:0:
120,164,47057,1,8,0:0:0:0:
184,164,47291,1,0,0:0:0:0:
248,152,47525,1,8,0:0:0:0:
391,115,47760,5,0,0:0:0:0:
332,140,47994,1,8,0:0:0:0:
304,200,48228,1,0,0:0:0:0:
240,212,48463,1,8,0:0:0:0:
296,176,48697,6,0,L|216:268,1,110,2|8,0:0|0:0,0:0:0:0:
168,224,49166,5,8,0:0:0:0:
204,168,49400,1,8,0:0:0:0:
148,136,49635,1,6,0:0:0:0:
212,132,49869,1,8,0:0:0:0:
344,108,50338,5,0,0:0:0:0:
212,128,50807,1,0,0:0:0:0:
152,160,51041,5,0,0:0:0:0:
156,112,51275,5,8,0:0:0:0:
260,144,51510,1,0,0:0:0:0:
180,220,51744,1,8,0:0:0:0:
104,140,51978,5,0,0:0:0:0:
212,156,52213,2,0,L|80:252,1,110,8|2,0:0|0:0,0:0:0:0:
107,291,52682,1,8,0:0:0:0:
196,228,52916,1,0,0:0:0:0:
284,164,53150,1,8,0:0:0:0:
184,120,53385,5,0,0:0:0:0:
232,220,53619,1,8,0:0:0:0:
324,160,53853,6,2,L|392:200,2,55,4|0|8,0:0|0:0|0:0,0:0:0:0:
220,120,54322,1,0,0:0:0:0:
124,176,54557,5,0,0:0:0:0:
232,188,54791,2,2,L|324:128,1,110,2|10,0:0|0:0,0:0:0:0:
216,136,55260,5,0,0:0:0:0:
260,236,55494,6,0,L|380:244,1,110,8|0,0:0|0:0,0:0:0:0:
284,172,55963,1,8,0:0:0:0:
176,160,56197,1,0,0:0:0:0:
272,104,56432,1,8,0:0:0:0:
164,120,56666,1,0,0:0:0:0:
192,224,56900,6,0,L|132:328,2,110,8|4|8,0:0|0:0|0:0,0:0:0:0:
372,108,57838,5,8,0:0:0:0:
93,111,58307,1,8,0:0:0:0:
168,188,58775,1,8,0:0:0:0:
264,136,59010,6,0,L|186:235,1,110,6|8,0:0|0:0,0:0:0:0:
195,222,59478,2,0,L|111:322,1,110,6|8,0:0|0:0,0:0:0:0:
120,196,59947,5,6,0:0:0:0:
212,136,60182,5,8,0:0:0:0:
124,204,60416,6,0,L|216:132,1,110,6|8,0:0|0:0,0:0:0:0:
276,224,60885,1,0,0:0:0:0:
328,204,61119,1,10,0:0:0:0:
193,185,61353,5,0,0:0:0:0:
108,108,61588,1,0,0:0:0:0:
140,80,61822,1,0,0:0:0:0:
256,88,62057,5,8,0:0:0:0:
193,187,62291,1,0,0:0:0:0:
244,164,62525,1,8,0:0:0:0:
204,128,62760,1,0,0:0:0:0:
256,148,62994,2,12,L|348:144,2,55,8|0|6,0:0|0:0|0:0,0:0:0:0:
106,130,63463,5,8,0:0:0:0:
152,156,63697,1,4,0:0:0:0:
68,46,63932,5,12,0:0:0:0:
192,84,64166,1,0,0:0:0:0:
264,196,64400,2,8,L|148:272,1,110
244,144,64869,1,10,0:0:0:0:
356,212,65103,2,2,L|228:304,1,110,2|10,0:0|0:0,0:0:0:0:
160,200,65572,5,0,0:0:0:0:
64,292,65807,6,0,L|196:292,2,110,8|0|12,0:0|0:0|0:0,0:0:0:0:
92,164,66510,5,6,0:0:0:0:
224,152,66744,1,8,0:0:0:0:
352,180,66978,1,6,0:0:0:0:
324,52,67213,5,8,0:0:0:0:
196,88,67447,2,8,L|288:152,1,110,12|0,0:0|0:0,0:0:0:0:
156,172,67916,5,0,0:0:0:0:
264,248,68150,1,8,0:0:0:0:
236,120,68385,6,0,L|132:172,2,110,4|8|2,0:0|0:0|0:0,0:0:0:0:
148,220,69088,1,8,0:0:0:0:
256,168,69322,1,0,0:0:0:0:
304,292,69557,6,0,L|416:316,1,110
424,184,70025,1,8,0:0:0:0:
316,104,70260,1,0,0:0:0:0:
184,120,70494,6,0,L|255:218,1,110,8|0,0:0|0:0,0:0:0:0:
344,120,70963,1,8,0:0:0:0:
256,216,71197,1,0,0:0:0:0:
388,200,71432,1,8,0:0:0:0:
260,160,71666,6,0,L|272:280,1,110,2|8,0:0|0:0,0:0:0:0:
176,180,72135,1,4,0:0:0:0:
72,260,72369,1,8,0:0:0:0:
409,300,72603,5,0,0:0:0:0:
356,284,72838,1,8,0:0:0:0:
316,172,73072,6,0,L|436:164,3,110,2|8|4|8,0:0|0:0|0:0|0:0,0:0:0:0:
332,244,74010,5,4,0:0:0:0:
284,136,74244,2,0,L|399:127,2,110,8|0|8,0:0|0:0|0:0,0:0:0:0:
192,212,74947,1,6,0:0:0:0:
284,136,75182,1,8,0:0:0:0:
324,248,75416,5,0,0:0:0:0:
204,268,75650,1,8,0:0:0:0:
264,164,75885,2,8,L|185:169,2,55,2|2|0,0:0|0:0|0:0,0:0:0:0:
376,208,76353,1,0,0:0:0:0:
256,196,76588,5,10,0:0:0:0:
196,288,76822,1,0,0:0:0:0:
220,100,77057,5,8,0:0:0:0:
236,220,77291,1,2,0:0:0:0:
124,180,77525,5,8,0:0:0:0:
288,212,77760,5,2,0:0:0:0:
404,278,77994,1,8,0:0:0:0:
296,288,78228,5,6,0:0:0:0:
188,264,78463,1,8,0:0:0:0:
284,216,78697,6,8,P|357:303|370:300,2,110,2|8|8,0:0|0:0|0:0,0:0:0:0:
412,71,79869,5,8,0:0:0:0:
212,168,80103,1,8,0:0:0:0:
164,268,80338,1,0,0:0:0:0:
272,284,80572,6,0,L|272:167,2,110,2|8|2,0:0|0:0|0:0,0:0:0:0:
384,288,81275,5,8,0:0:0:0:
284,244,81510,1,6,0:0:0:0:
348,156,81744,1,8,0:0:0:0:
248,112,81978,1,0,0:0:0:0:
172,188,82213,1,8,0:0:0:0:
252,112,82447,1,0,0:0:0:0:
332,188,82682,6,0,L|246:268,2,110,8|6|8,0:0|0:0|0:0,0:0:0:0:
344,80,83385,5,0,0:0:0:0:
240,120,83619,1,8,0:0:0:0:
168,200,83853,1,0,0:0:0:0:
120,300,84088,1,8,0:0:0:0:
212,240,84322,6,0,B|216:252|167:339,2,110,4|8|2,0:0|0:0|0:0,0:0:0:0:
300,176,85025,1,8,0:0:0:0:
236,116,85260,1,4,0:0:0:0:
164,164,85494,5,8,0:0:0:0:
204,216,85728,1,4,0:0:0:0:
204,284,85963,1,8,0:0:0:0:
276,236,86197,5,2,0:0:0:0:
312,208,86432,1,8,0:0:0:0:
316,164,86666,1,4,0:0:0:0:
230,59,86900,5,8,0:0:0:0:
188,68,87135,1,2,0:0:0:0:
176,112,87369,1,8,0:0:0:0:
290,198,87603,5,4,0:0:0:0:
324,172,87838,5,8,0:0:0:0:
304,132,88072,5,2,0:0:0:0:
324,92,88307,1,8,0:0:0:0:
176,152,88541,5,4,0:0:0:0:
184,196,88775,1,8,0:0:0:0:
180,240,89010,5,2,0:0:0:0:
224,228,89244,2,0,L|344:248,2,110,8|4|8,0:0|0:0|0:0,0:0:0:0:
212,128,89947,1,8,0:0:0:0:
