osu file format v6

[General]
AudioFilename: 07_fire_fire!!.mp3
AudioLeadIn: 0
PreviewTime: -1
Countdown: 0
SampleSet: Normal
StackLeniency: 0.7
Mode: 0
LetterboxInBreaks: 1

[Editor]
DistanceSpacing: 0.800000011920929
BeatDivisor: 2
GridSize: 16

[Metadata]
Title:Fire Fire!!
Artist:Masaya Matsuura
Creator:GolemdX
Version:Lightly Singed
Source:Um Jammer Lammy
Tags:fire um jammer lammy parappa rapper milkcan

[Difficulty]
HPDrainRate:2
CircleSize:3
OverallDifficulty:2
SliderMultiplier:1.4
SliderTickRate:1

[Events]
//Background and Video events
Video,0,"Um_Jammer_Lammy_Fire__Fire___OST__-Lammy_s_Version.flv"
//Break Periods
2,175193,182732
//Storyboard Layer 0 (Background)
//Storyboard Layer 1 (Fail)
//Storyboard Layer 2 (Pass)
//Storyboard Layer 3 (Foreground)
//Storyboard Sound Samples
//Background Colour Transformations
3,100,163,162,255

[TimingPoints]
3122.2265625,599.9,4,1,0,100,1,0

[HitObjects]
176,128,12720,1,0
336,128,13620,1,0
192,256,15120,5,0
336,256,16020,1,0
192,192,17519,5,0
320,128,18419,2,0,L|320:320,1,140,0|0
320,192,19919,5,0
192,128,20819,2,0,L|192:288,1,140,0|0
176,160,22319,6,0,L|176:256,1,70
336,224,23218,2,0,L|336:128,1,70
256,192,24118,1,0
176,224,24718,6,0,L|176:128,1,70
336,160,25617,2,0,L|336:256,1,70
256,192,26517,1,0
96,80,27118,6,0,L|96:304|240:304,1,350
416,304,29517,6,0,L|416:80|272:80,1,350
128,320,31917,5,0
192,320,32517,1,0
256,320,33117,2,0,L|400:320|400:176,1,280
400,128,34616,2,0,L|400:48,2,70
384,320,36716,5,0
320,320,37316,1,0
256,320,37916,2,0,L|112:320|112:176,1,280
112,128,39415,2,0,L|112:48,2,70
128,320,41515,5,0
192,320,42115,1,0
256,320,42715,2,0,L|400:320|400:176,1,280
400,128,44214,2,0,L|400:48,2,70
384,320,46314,5,0
320,320,46914,1,0
256,320,47514,2,0,L|112:320|112:176,1,280
112,128,49013,2,0,L|112:48,2,70
256,224,52913,6,0,L|256:112,8,70
256,160,57713,6,0,L|256:272,8,70
112,144,62512,6,0,B|224:240|336:144,1,245
416,128,64012,1,0
400,208,64312,2,0,B|352:256|288:272,1,105
384,144,67311,6,0,B|288:240|176:112,1,210
112,128,68811,1,0
128,192,69111,2,0,L|192:256,1,70
96,80,70311,6,0,L|96:336,1,210
160,288,71810,1,0
224,288,72110,1,0
416,304,72710,6,0,L|416:48,1,210
352,96,74209,1,0
288,96,74509,1,0
96,80,75110,6,0,L|96:336,1,210
160,288,76609,1,0
224,288,76909,1,0
416,304,77509,6,0,L|416:32,1,245
352,64,79008,1,0
288,64,79308,1,0
96,80,79909,6,0,L|96:336,1,210
160,288,81408,1,0
224,288,81708,1,0
416,304,82308,6,0,L|416:48,1,210
352,96,83508,1,0
288,96,83808,2,0,L|224:96,1,35
96,80,84708,6,0,L|96:336,1,210
160,288,86207,1,0
224,288,86507,1,0
416,304,87107,6,0,L|416:48,1,210
352,96,88308,1,0
288,96,88607,2,0,L|224:96,1,35
48,80,89507,6,0,L|48:288|480:288,1,630
304,192,93407,1,0
208,192,93707,1,0
464,304,94307,6,0,L|464:96|32:96,1,630
208,192,98207,1,0
304,192,98507,1,0
112,64,99106,6,0,C|256:336|416:16,1,630
395,60,102105,1,0
395,60,102405,1,0
395,60,102705,1,0
395,60,103005,1,0
368,128,103905,6,0,C|256:336|128:112,1,490
134,124,106305,1,0
134,124,106604,1,0
132,124,106904,1,0
132,124,107204,1,0
132,124,107504,1,0
132,124,107804,1,0
384,320,108704,5,0
320,320,109304,1,0
256,320,109904,2,0,L|112:320|112:176,1,280
112,128,111403,2,0,L|112:48,2,70
128,320,113503,5,0
192,320,114103,1,0
256,320,114703,2,0,L|400:320|400:176,1,280
400,128,116202,2,0,L|400:48,2,70
384,320,118302,5,0
320,320,118902,1,0
256,320,119502,2,0,L|112:320|112:176,1,280
112,128,121001,2,0,L|112:48,2,70
128,320,123101,5,0
192,320,123701,1,0
256,320,124301,2,0,L|400:320|400:176,1,280
400,128,125800,2,0,L|400:48,2,70
256,224,129700,6,0,L|256:112,8,70
256,160,134500,6,0,L|256:272,8,70
400,144,139299,6,0,B|288:240|176:144,1,245
96,128,140799,1,0
112,208,141099,2,0,B|160:256|224:272,1,105
128,144,144098,6,0,B|224:240|336:112,1,210
400,128,145598,1,0
384,192,145898,2,0,L|320:256,1,70
416,80,147098,6,0,L|416:336,1,210
352,288,148597,1,0
288,288,148897,1,0
96,304,149497,6,0,L|96:48,1,210
160,96,150996,1,0
224,96,151296,1,0
416,80,151897,6,0,L|416:336,1,210
352,288,153396,1,0
288,288,153696,1,0
96,304,154296,6,0,L|96:32,1,245
160,64,155795,1,0
224,64,156095,1,0
416,80,156696,6,0,L|416:336,1,210
352,288,158195,1,0
288,288,158495,1,0
96,304,159095,6,0,L|96:48,1,210
160,96,160295,1,0
224,96,160595,2,0,L|288:96,1,35
416,80,161495,6,0,L|416:336,1,210
352,288,162994,1,0
288,288,163294,1,0
96,304,163894,6,0,L|96:48,1,210
160,96,165095,1,0
224,96,165394,2,0,L|288:96,1,35
336,128,166295,5,0
176,128,167195,1,0
320,256,168695,5,0
176,256,169595,1,0
320,192,171094,5,0
192,128,171994,2,0,L|192:320,1,140,0|0
192,192,173494,5,0
320,128,174394,2,0,L|320:288,1,140,0|0
256,192,184292,12,0,186091
