osu file format v5

[General]
AudioFilename: Scrap Brain Zone (Sonic The Hedgehog).mp3
AudioLeadIn: 0
PreviewTime: -1
Countdown: 1
SampleSet: Soft
StackLeniency: 0.7
Mode: 0

[Metadata]
Title:Scrap Brain Zone
Artist:Masato Nakamura
Creator:Silvuh
Version:Act 2

[Difficulty]
HPDrainRate:4
CircleSize:5
OverallDifficulty:5
SliderMultiplier:1.4
SliderTickRate:1

[Events]
//Background and Video events
0,0,"SBZBG.png"
//Break Periods
2,36294,39020
//Storyboard Layer 0 (Background)
//Storyboard Layer 1 (Failing)
//Storyboard Layer 2 (Passing)
//Storyboard Layer 3 (Foreground)
//Storyboard Sound Samples
//Background Colour Transformations
3,100,163,162,255

[TimingPoints]
4200,500.6332,4,2,1,100

[Colours]
Combo1 : 151,185,185
Combo2 : 85,117,117
Combo3 : 151,185,185
Combo4 : 173,218,218

[HitObjects]
32,194,4200,2,2,B|320:193,1,280
368,194,5451,1,0
368,249,5701,1,2
312,251,5952,1,0
312,307,6202,2,6,B|135:354|35:198|77:57|232:56,1,490
283,57,8205,6,2,B|283:354,1,280
339,340,9456,1,0
341,284,9706,1,2
396,285,9957,1,0
394,228,10207,2,6,B|265:39|12:165|76:354,1,490
126,337,12210,6,2,B|411:337,1,280
405,281,13461,1,0
349,279,13712,1,2
349,223,13962,1,0
292,224,14212,2,2,B|170:328|86:273,1,210
69,235,15213,2,2,B|191:131|275:186,1,210
315,178,16215,6,2,B|315:235|315:235|354:235|411:152|355:103,1,210
364,58,17216,2,6,B|221:31|82:67|82:67|216:122|88:315|88:315|304:315,1,770
288,258,20220,6,2,B|33:95,1,280
55,51,21471,1,0
105,75,21722,1,2
155,51,21972,1,0
156,107,22222,2,6,B|85:315|401:343|431:91,1,490
431,51,24225,6,2,B|134:51,1,280
152,106,25476,1,0
194,142,25727,1,2
238,108,25977,1,0
294,110,26227,2,6,B|475:112|493:248|368:359|188:345,1,490
142,347,28230,6,2,B|142:62,1,280
198,68,29481,1,0
222,118,29732,1,2
277,118,29982,1,0
277,174,30232,2,2,B|153:219|207:357,1,210
257,346,31234,2,2,B|441:358|417:231,1,210
418,203,32235,2,2,B|381:203|381:203|361:249|287:225|276:171|312:102,1,210
325,74,33236,2,6,B|161:42|74:163|74:163|149:292|304:321|304:321|422:215|345:68,1,840
64,192,40245,6,2,B|352:192,1,280
347,136,41497,1,0
393,167,41747,1,2
440,136,41997,1,0
438,79,42248,6,0,B|350:79,1,70
337,32,42748,1,2
289,61,42999,2,0,B|288:154,1,70
287,187,43499,5,2
242,153,43750,1,2
239,208,44000,2,6,B|211:346|37:352|53:136,1,350
108,152,45502,5,0
109,96,45752,1,0
164,96,46002,2,0,B|326:97,1,140
338,52,46753,1,2
367,99,47004,2,2,B|367:254,1,140
362,295,47755,2,6,B|273:295,1,70
235,293,48255,6,2,B|235:5,1,280
290,13,49507,1,0
293,68,49757,1,2
348,69,50007,1,0
349,125,50258,6,0,B|349:213,1,70
404,199,50758,1,2
404,254,51009,2,0,B|311:253,1,70
299,209,51509,5,2
262,166,51760,1,2
228,210,52010,2,6,B|200:348|26:354|42:138,1,350
97,149,53512,5,0
102,93,53762,1,0
157,94,54013,2,6,B|429:22|506:179|456:335|289:345,1,560
255,344,56265,6,2,B|47:143,1,280
85,103,57517,1,0
130,136,57767,1,2
132,80,58018,1,0
171,40,58268,6,0,B|248:40,1,70
289,11,58769,1,2
333,44,59019,2,0,B|332:137,1,70
331,170,59519,5,2
283,140,59770,1,2
281,195,60020,2,6,B|191:95|87:151|53:335,1,350
110,330,61522,5,0
127,276,61772,1,0
182,276,62023,2,0,B|344:277,1,140
323,220,62774,1,2
378,223,63024,2,2,B|378:378,1,140
321,363,63775,2,6,B|232:363,1,70
194,361,64275,6,2,B|315:86,1,280
309,48,65527,1,0
358,74,65777,1,2
358,18,66028,1,0
414,17,66278,6,0,B|414:105,1,70
463,61,66779,1,2
464,116,67029,2,0,B|464:199,1,70
461,242,67530,5,2
414,210,67780,1,2
367,240,68030,2,6,B|281:143|157:231|50:303,1,350
52,243,69532,5,0
52,187,69782,1,0
52,131,70033,2,6,B|196:78|331:112|304:204|258:273,1,350
158,256,71785,1,6
256,192,72286,12,0,76291
