osu file format v5

[General]
AudioFilename: Scrap Brain Zone (Sonic The Hedgehog).mp3
AudioLeadIn: 0
PreviewTime: -1
Countdown: 1
SampleSet: Soft
StackLeniency: 0.7
Mode: 0

[Metadata]
Title:Scrap Brain Zone
Artist:Masato Nakamura
Creator:Silvuh
Version:Act 1

[Difficulty]
HPDrainRate:4
CircleSize:3
OverallDifficulty:4
SliderMultiplier:1.4
SliderTickRate:1

[Events]
//Background and Video events
0,0,"SBZBG.png"
//Break Periods
2,36294,39020
//Storyboard Layer 0 (Background)
//Storyboard Layer 1 (Failing)
//Storyboard Layer 2 (Passing)
//Storyboard Layer 3 (Foreground)
//Storyboard Sound Samples
//Background Colour Transformations
3,100,163,162,255

[TimingPoints]
4200,500.6332,4,2,1,100

[Colours]
Combo1 : 151,185,185
Combo2 : 85,117,117
Combo3 : 151,185,185
Combo4 : 173,218,218

[HitObjects]
32,194,4200,2,2,B|336:194,1,280
451,200,5701,1,0
446,340,6202,2,6,B|231:413|243:42,1,420
102,68,8205,6,2,B|103:364,1,280
242,349,9706,1,0
382,349,10207,2,6,B|494:81|130:223,1,420
138,357,12210,6,2,B|427:357,1,280
426,217,13712,1,0
285,219,14212,2,2,B|163:323,1,140
38,308,15213,2,2,B|160:204,1,140
284,220,16215,6,2,B|284:277|284:277|353:268|339:197,1,140
338,86,17216,2,6,B|48:86|48:86|48:368|48:368|200:368|200:368|200:367,1,700
316,368,20220,6,2,B|489:117|489:116,1,280
334,139,21722,1,0
193,139,22222,2,6,B|125:306|478:375,1,420
477,233,24225,6,2,B|284:-10,1,280
163,16,25727,1,0
50,12,26227,2,6,B|53:205|342:281,1,420
445,286,28230,6,2,B|443:-4,1,280
303,4,29732,1,0
162,4,30232,2,2,B|40:108,1,140
60,234,31234,2,2,B|182:130,1,140
285,205,32235,2,2,B|390:205|390:109,1,140
277,58,33236,2,6,B|118:6|57:198|57:198|153:322|348:264|348:264|388:156|310:38,1,840
64,192,40245,6,2,B|352:192,1,280
80,98,42248,1,0
289,95,42999,1,2
68,267,44000,2,6,B|109:112|193:72|344:124,1,350
324,328,46002,1,0
61,229,47004,1,2
59,18,47755,1,6
199,23,48255,6,2,B|199:311,1,280
478,309,50258,1,0
432,104,51009,1,2
151,104,52010,2,2,B|333:71|364:296|182:282,1,350
5,346,54013,2,6,B|288:285|194:90|397:78,1,490
385,218,56265,6,2,B|78:218,1,280
368,123,58268,1,0
366,332,59019,1,2
288,63,60020,2,6,B|214:-56|60:-59|34:143,1,350
222,213,62023,1,0
501,214,63024,1,2
497,3,63775,1,6
356,4,64275,6,2,B|356:292,1,280
76,287,66278,1,0
82,77,67029,1,2
362,77,68030,2,2,B|450:232|313:272|179:295,1,350
49,136,70033,2,2,B|162:-41|384:32,1,350
349,162,71785,5,6
256,192,72286,12,0,76291
