osu file format v7

[General]
AudioFilename: ShowingHeart.mp3
AudioLeadIn: 0
PreviewTime: 14053
Countdown: 1
SampleSet: Soft
StackLeniency: 0.7
Mode: 0
LetterboxInBreaks: 1

[Editor]
Bookmarks: 14053,27899,41745,55591,69437,83283,97130,110976,124822,138668
DistanceSpacing: 1
BeatDivisor: 4
GridSize: 8

[Metadata]
Title:Showing Heart "Dance of the Cornered Rat"
Artist:Masashi Hamauzu
Creator:lesjuh
Version:Normal
Source:Sigma Harmonics
Tags:Square Enix Nintendo DS

[Difficulty]
HPDrainRate:3
CircleSize:4
OverallDifficulty:4
SliderMultiplier:1
SliderTickRate:1

[Events]
//Background and Video events
0,0,"sigmaharmonics.jpg"
//Break Periods
2,55791,68117
//Storyboard Layer 0 (Background)
//Storyboard Layer 1 (Fail)
//Storyboard Layer 2 (Pass)
//Storyboard Layer 3 (Foreground)
//Storyboard Sound Samples
//Background Colour Transformations
3,100,0,0,0

[TimingPoints]
207,288.461538461538,3,2,0,80,1,0
124678,-100,4,1,0,50,0,0
138812,-100,4,2,0,0,0,0

[HitObjects]
232,24,14053,2,0,B|352:56|304:184,1,200,4|2
208,200,14918,2,0,B|88:232|136:360,1,200,4|2
232,352,15783,6,0,B|336:352,2,100,4|2|2
232,352,16649,1,4
296,216,17081,2,0,B|400:216,1,100,2|2
432,184,17514,6,0,B|480:64|355:25,1,200,4|2
288,96,18380,2,0,B|336:216|211:254,1,200,4|2
136,192,19245,6,0,B|32:192,2,100,4|2|2
136,192,20111,1,4
208,320,20543,2,0,B|312:320,1,100,2|2
344,352,20976,6,0,B|392:296|472:272,2,150,4|2|4
288,272,22130,1,2
344,192,22418,1,2
344,192,22706,2,0,B|368:120|376:40,2,150,4|2|4
256,152,23860,2,0,B|200:160|152:184,1,100,2|2
112,264,24437,6,2,B|248:232|264:352|408:312,2,300,4|4|4
40,192,26456,1,2
40,192,26601,2,0,B|88:128|152:88,1,150,0|4
240,128,27322,1,2
296,48,27610,2,0,B|352:40,1,50
384,72,27899,5,2
448,152,28187,2,0,B|400:176,1,50,0|2
352,264,28620,2,0,B|408:288,1,50,0|4
328,352,29053,1,2
240,312,29341,1,0
240,312,29485,1,0
240,312,29630,5,2
144,352,29918,2,0,B|96:336,1,50,0|2
40,248,30351,2,0,B|88:224,1,50,2|4
144,144,30783,1,2
144,144,31072,1,0
232,104,31360,5,2
272,192,31649,2,0,B|328:200,1,50,0|2
408,152,32081,2,0,B|456:136,1,50,2|4
496,224,32514,1,2
448,312,32803,1,0
448,312,32947,1,0
448,312,33091,5,2
360,360,33380,2,0,B|304:344,1,50,0|2
240,280,33812,2,0,B|192:296,1,50,2|4
112,360,34245,1,2
112,360,34533,1,0
48,280,34822,6,0,B|184:208|16:96|160:24,1,300,4|4
208,112,35976,1,2
288,56,36264,1,2
288,56,36553,6,0,B|368:48|440:72,1,150,4|2
472,160,37274,1,0
472,160,37418,2,0,B|416:168|376:192,1,100,4|2
320,272,37995,1,0
224,304,38283,6,0,B|104:288|80:136|184:80,2,300,4|4|4
320,272,40303,2,0,B|312:216,1,50,2|0
376,144,40735,1,0
376,144,40880,2,0,B|384:88,2,50,2|0|2
216,24,41745,6,0,B|232:232|24:152,1,300,4|2
0,248,42899,1,0
72,320,43187,1,2
72,320,43476,6,0,B|216:272|232:376|368:320,1,300,4|2
464,344,44630,1,0
480,248,44918,1,2
384,216,45206,6,0,B|360:144|384:64,2,150,4|2|4
320,296,46360,1,2
232,248,46649,1,0
232,248,46793,1,0
232,248,46937,6,0,B|144:256|128:344,1,150,4|2
48,288,47658,1,0
48,288,47803,2,0,B|40:240|16:192,2,100,4|2|2
112,208,48668,6,0,B|128:16|328:88,1,300,4|2
368,176,49822,1,0
456,128,50110,1,2
456,128,50399,6,0,B|480:200|472:280,2,150,4|2|2
368,176,51553,1,0
272,160,51841,1,2
184,200,52130,6,0,B|128:192|80:216,1,100,4|0
86,213,52562,1,2
144,296,52851,1,0
144,296,52995,2,0,B|200:304|248:280,2,100,4|2|2
64,352,53860,5,0
8,216,54293,1,2
64,136,54581,1,2
64,136,54725,2,0,B|120:144,2,50,0|0|2
16,48,55303,5,2
112,24,55591,1,4
16,192,69437,6,0,B|48:312|176:264,1,200,4|2
208,176,70302,2,0,B|240:56|368:104,1,200,4|2
400,192,71167,6,0,B|504:168,2,100,4|2|2
400,192,72033,1,4
336,328,72465,2,0,B|232:312,1,100,2|2
192,336,72898,6,0,B|240:216|115:177,1,200,4|2
32,216,73764,2,0,B|-16:96|109:58,1,200,4|2
192,104,74629,6,0,B|296:104,2,100,4|2|2
192,104,75495,1,4
288,224,75927,2,0,B|392:224,1,100,2|2
424,192,76360,6,0,B|464:256|472:336,2,150,4|2|4
336,152,77514,1,2
240,160,77802,1,2
240,160,78091,6,0,B|200:96|192:16,2,150,4|2|4
296,240,79244,2,0,B|288:296|264:344,1,100,2|2
168,360,79821,6,2,B|-8:312|40:128,2,300,4|4|4
264,336,81840,1,2
264,336,81985,2,0,B|312:272|376:232,1,150,0|4
464,280,82706,1,2
504,192,82994,2,0,B|512:136,1,50
480,104,83283,5,2
400,40,83571,2,0,B|352:64,1,50,0|2
296,144,84004,2,0,B|240:120,1,50,0|4
176,56,84437,1,2
88,96,84725,1,0
88,96,84869,1,0
88,96,85014,5,2
32,176,85302,2,0,B|48:224,1,50,0|2
120,296,85735,2,0,B|144:248,1,50,2|4
240,240,86167,1,2
240,240,86456,1,0
288,328,86744,5,2
384,344,87033,2,0,B|440:320,1,50,0|2
488,240,87465,2,0,B|432:224,1,50,2|4
368,152,87898,1,2
416,64,88187,1,0
416,64,88331,1,0
416,64,88475,5,2
328,16,88764,2,0,B|280:32,1,50,0|2
232,120,89196,2,0,B|176:104,1,50,2|4
104,48,89629,1,2
24,112,89917,1,2
48,208,90206,6,0,B|120:344|232:176|304:320,1,300,4|4
392,352,91360,1,2
464,280,91648,1,2
464,280,91937,6,0,B|472:200|448:128,1,150,4|2
360,88,92658,1,0
360,88,92802,2,0,B|304:96|264:120,1,100,4|2
208,200,93379,1,0
136,136,93667,6,0,B|16:152|-8:304|96:360,2,300,4|4|4
208,200,95687,2,0,B|264:192,1,50,2|0
312,112,96119,1,0
312,112,96264,2,0,B|368:128,2,50,2|0|2
472,184,97129,6,0,B|488:392|288:336,1,300,4|2
200,304,98283,1,0
112,344,98571,1,2
112,344,98860,6,0,B|64:200|168:184|112:48,1,300,4|2
208,16,100014,1,0
248,104,100302,1,2
344,136,100590,6,0,B|416:112|496:136,2,150,4|2|4
272,200,101744,1,2
224,288,102033,1,0
224,288,102177,1,0
224,288,102322,6,0,B|152:312|72:288,1,150,4|2
40,200,103042,1,0
40,200,103187,2,0,B|32:152|8:104,2,100,4|2|2
128,144,104052,6,0,B|256:8|392:152,1,300,4|2
464,216,105206,1,0
432,312,105494,1,2
432,312,105783,6,0,B|360:336|280:328,2,150,4|2|2
360,240,106937,1,0
264,200,107225,1,2
168,240,107514,6,0,B|112:248|64:224,1,100,4|0
70,227,107946,1,2
104,136,108235,1,0
104,136,108379,2,0,B|48:128|0:152,2,100,4|2|2
176,72,109244,5,0
288,176,109677,1,2
376,120,109965,1,2
376,120,110109,2,0,B|368:64,2,50,0|0|2
448,184,110687,5,2
408,272,110976,1,4
