osu file format v7

[General]
AudioFilename: ShowingHeart.mp3
AudioLeadIn: 0
PreviewTime: 14053
Countdown: 0
SampleSet: Soft
StackLeniency: 0.7
Mode: 0
LetterboxInBreaks: 1

[Editor]
Bookmarks: 14053,27899,41745,55591,69437,83283,97130,110976,124822,138668
DistanceSpacing: 1.20000004768372
BeatDivisor: 4
GridSize: 8

[Metadata]
Title:Showing Heart "Dance of the Cornered Rat"
Artist:Masashi Hamauzu
Creator:lesjuh
Version:Hard
Source:Sigma Harmonics
Tags:Square Enix Nintendo DS

[Difficulty]
HPDrainRate:7
CircleSize:4
OverallDifficulty:7
SliderMultiplier:1.4
SliderTickRate:1

[Events]
//Background and Video events
0,0,"sigmaharmonics.jpg"
//Break Periods
2,55791,68537
//Storyboard Layer 0 (Background)
//Storyboard Layer 1 (Fail)
//Storyboard Layer 2 (Pass)
//Storyboard Layer 3 (Foreground)
//Storyboard Sound Samples
//Background Colour Transformations
3,100,0,0,0

[TimingPoints]
207,288.461538461538,3,2,0,80,1,0
124678,-100,4,1,0,50,0,0
138812,-100,4,2,0,30,0,0

[HitObjects]
56,56,14053,2,0,B|32:120|24:200,1,140,4|0
128,248,14485,2,0,B|152:184|160:104,1,140,2|0
159,111,14918,1,4
159,111,15206,5,2
240,80,15351,1,0
240,80,15495,1,2
288,152,15639,1,0
368,120,15783,6,0,B|440:112|512:128,1,140,4|0
456,232,16216,2,0,B|384:240|312:224,1,140,2|0
316,225,16649,1,4
200,344,16937,5,2
48,280,17226,2,0,B|16:264,2,35,2|0|0
120,240,17514,6,0,B|144:176|136:96,1,140,4|0
72,48,17947,1,2
72,48,18235,5,0
72,48,18380,2,0,B|152:56|216:48,2,140,4|2|2
8,104,19101,1,0
32,184,19245,1,4
208,184,19533,6,0,B|168:192|136:200,1,70,0|2
304,208,19966,2,0,B|344:200|376:192,1,70,0|4
488,64,20399,1,2
320,48,20687,2,0,B|280:32,2,35,2|0|0
360,120,20976,6,0,B|288:208|336:328,2,210,4|2|4
320,48,21985,1,0
248,88,22130,2,0,B|168:80|104:96,1,140,2|2
48,152,22562,1,0
48,152,22706,1,4
144,288,22995,5,0
64,312,23139,1,2
200,216,23428,5,0
280,240,23572,1,4
432,160,23860,1,2
480,232,24005,1,0
448,312,24149,2,0,B|464:344,2,35,2|0|0
368,328,24437,6,0,B|256:296|152:328,1,210,4|2
160,325,25158,1,0
80,304,25303,6,0,B|64:240|24:168,2,140,4|2|2
144,248,26024,1,0
144,248,26168,1,4
304,192,26456,1,0
304,192,26600,1,2
472,216,26889,5,0
472,216,27033,2,0,B|496:144,2,70,4|0|2
56,48,27899,5,2
96,120,28043,1,0
24,168,28187,1,0
64,240,28331,2,0,B|136:248|216:224,1,140,2|0
288,144,28764,6,0,B|360:136|440:160,1,140,4|2
504,192,29197,1,0
440,248,29341,2,0,B|432:288|440:328,1,70,2|0
368,368,29630,5,2
296,320,29774,1,0
216,352,29918,1,0
144,304,30062,2,0,B|64:296|-8:304,1,140,2|0
4,302,30495,5,4
64,152,30783,1,2
144,168,30928,1,0
192,104,31072,2,0,B|184:64,2,35,2|0|0
256,152,31360,5,2
328,112,31505,1,0
368,184,31649,1,0
296,224,31793,2,0,B|296:296|312:368,1,140,2|0
448,288,32226,6,4,B|456:216|440:144,1,140,4|2
400,72,32658,1,0
400,72,32803,1,2
328,112,32947,1,0
256,72,33091,6,2,B|184:56|112:64,1,140,2|0
40,104,33524,1,2
24,272,33812,1,0
88,328,33956,2,2,B|159:343|227:336,2,140,4|2|2
168,184,34822,5,2
304,288,35110,1,0
384,264,35255,1,2
480,128,35543,1,0
400,104,35688,1,4
240,56,35976,6,0,B|176:88|96:96,2,140,2|2|2
312,104,36697,1,0
312,104,36841,1,0
288,184,36985,1,2
192,320,37274,1,0
168,240,37418,1,4
320,312,37706,6,0,B|384:288|464:280,2,140,2|2|4
256,368,38428,2,0,B|176:352,2,70,0|0|2
344,224,39005,1,0
320,144,39149,1,4
176,56,39437,2,0,B|152:120|112:184,1,140,2|2
113,181,39870,1,0
168,240,40014,6,0,B|264:216|280:288|376:264,2,210,4|2|2
120,304,41024,1,0
120,304,41168,1,0
280,352,41456,6,0,B|312:336,2,35,2|0|0
208,304,41745,2,0,B|248:200|208:96,1,210,4|2
48,40,42466,1,0
48,40,42610,2,0,B|32:112|48:184,1,140,2|2
120,224,43043,1,0
168,160,43187,1,2
168,160,43331,1,0
240,208,43476,6,0,B|344:272|440:208,1,210,4|2
344,352,44197,1,0
344,352,44341,2,0,B|272:344|200:360,2,140,2|2|2
472,240,45206,6,0,B|464:168|472:96,1,140,4|0
408,48,45639,1,2
176,256,45928,1,0
240,208,46072,6,0,B|248:136|240:64,2,140,4|2|2
256,288,46793,1,0
328,328,46937,6,0,B|384:240|496:200,1,210,4|2
408,56,47658,1,0
344,112,47803,6,0,B|288:64|216:40,1,140,4|2
144,56,48235,1,0
152,136,48380,2,0,B|144:176,2,35,2|0|0
72,104,48668,6,0,B|40:200|104:216|64:312,2,210,4|2|2
216,192,49822,1,0
288,232,49966,1,0
360,184,50110,2,0,B|400:192|432:208,1,70,2|0
464,280,50399,6,0,B|392:368|272:336,2,210,4|2|2
488,112,51553,1,0
344,24,51841,1,2
184,72,52130,6,0,B|112:72|40:88,1,140,4|0
144,192,52562,2,0,B|208:192|288:176,1,140,2|0
336,112,52995,6,0,B|328:192|344:256,1,140,4|2
400,312,53428,1,0
400,312,53572,1,2
472,264,53716,1,0
432,192,53860,6,0,B|472:176|504:168,2,70,2|0|0
432,192,54293,1,2
304,88,54581,6,0,B|264:72|232:64,1,70,2|0
152,80,54870,1,0
72,56,55014,1,2
24,128,55158,1,0
72,192,55303,2,0,B|64:232,2,35,2|0|0
152,168,55591,1,4
352,112,69437,6,0,B|359:184|383:248,1,140,4|0
488,192,69870,2,0,B|480:119|456:55,1,140,2|0
456,55,70303,1,4
456,55,70591,5,2
376,32,70735,1,0
376,32,70879,1,2
352,112,71023,1,0
272,80,71167,6,0,B|200:72|128:88,1,140,4|0
88,200,71600,2,0,B|160:208|232:192,1,140,2|0
228,193,72033,1,4
360,296,72321,5,2
200,360,72610,2,0,B|160:352,2,35,2|0|0
256,296,72898,6,0,B|224:232|232:152,1,140,4|0
288,96,73331,1,2
288,96,73619,5,0
288,96,73764,2,0,B|208:104|144:96,2,140,4|2|2
352,40,74485,1,0
424,80,74629,1,4
384,240,74917,6,0,B|344:248|312:256,1,70,0|2
160,328,75350,2,0,B|200:336|232:344,1,70,0|4
168,184,75783,1,2
56,56,76071,2,0,B|16:40,2,35,2|0|0
136,32,76360,6,0,B|64:112|96:232,2,210,4|2|4
216,64,77369,1,0
296,32,77514,2,0,B|368:24|440:32,1,140,2|2
512,64,77946,1,0
512,64,78090,1,4
480,232,78379,5,0
400,256,78523,1,2
280,136,78812,5,0
360,152,78956,1,4
256,288,79244,1,2
176,264,79389,1,0
104,304,79533,2,0,B|64:296,2,35,2|0|0
176,264,79821,6,0,B|184:136|56:120,1,210,4|2
58,120,80543,1,0
112,56,80687,6,0,B|184:64|256:56,2,140,4|2|2
40,16,81408,1,0
40,16,81552,1,4
152,144,81840,1,0
152,144,81984,1,2
320,168,82273,5,0
320,168,82417,2,0,B|392:144,2,70,4|0|2
456,344,83283,5,2
384,304,83427,1,0
328,360,83571,1,0
256,320,83715,2,0,B|184:312|112:336,1,140,2|0
48,232,84148,6,0,B|120:240|192:216,1,140,4|2
256,168,84581,1,0
192,120,84725,2,0,B|184:80|192:40,1,70,2|0
264,8,85014,5,2
336,56,85158,1,0
400,0,85302,1,0
472,48,85446,2,4,B|480:128|472:192,1,140,2|0
472,187,85880,5,4
344,296,86168,1,2
264,272,86312,1,0
192,320,86456,2,0,B|200:360,2,35,2|0|0
112,296,86744,5,2
48,352,86889,1,0
8,280,87033,1,0
72,224,87177,2,0,B|64:152|48:80,1,140,2|0
152,24,87610,6,0,B|160:96|176:168,1,140,4|2
256,192,88042,1,0
256,192,88187,1,2
288,112,88331,1,0
368,144,88475,6,2,B|440:128|512:136,1,140,2|0
507,135,88908,1,2
432,288,89196,1,0
432,288,89340,2,2,B|361:303|293:296,2,140,4|2|2
360,136,90206,5,2
216,48,90494,1,0
136,72,90639,1,2
48,216,90927,1,0
128,240,91072,1,4
248,360,91360,6,0,B|312:336|392:328,2,140,2|2|2
200,288,92081,1,0
200,288,92225,1,0
240,216,92369,1,2
408,224,92658,1,0
336,184,92802,1,4
232,56,93090,6,0,B|160:40|88:56,2,140,2|2|4
304,104,93812,2,0,B|376:80,2,70,0|0|2
192,224,94389,1,0
224,304,94533,1,4
384,344,94822,2,0,B|422:282|446:218,1,140,2|2
446,218,95255,1,0
384,160,95399,6,0,B|288:136|272:208|176:184,2,210,4|2|2
432,88,96408,1,0
432,88,96552,1,0
280,16,96840,6,0,B|248:32,2,35,2|0|0
344,72,97129,2,0,B|272:160|320:272,1,210,4|2
472,336,97850,1,0
472,336,97994,2,0,B|488:264|472:192,1,140,2|2
400,152,98427,1,0
352,224,98571,1,2
352,224,98715,1,0
280,184,98860,6,0,B|176:136|72:184,1,210,4|2
160,40,99581,1,0
160,40,99725,2,0,B|232:48|304:32,2,140,2|2|2
16,120,100590,6,0,B|24:192|16:264,1,140,4|0
72,320,101023,1,2
336,128,101312,1,0
272,176,101456,6,0,B|264:248|272:320,2,140,4|2|2
216,112,102177,1,0
264,40,102322,6,0,B|368:16|376:80|472:56,1,210,4|2
504,224,103042,1,0
504,224,103187,6,0,B|456:272|424:344,1,140,4|2
344,352,103619,1,0
264,328,103764,2,0,B|272:280,2,35,2|0|0
184,344,104052,6,0,B|160:256|208:232|176:128,2,210,4|2|2
184,344,105206,1,0
144,272,105350,1,0
200,208,105494,2,0,B|240:200|272:184,1,70,2|0
312,120,105783,6,0,B|384:40|512:64,2,210,4|2|2
384,272,106937,1,0
224,328,107225,1,2
176,168,107514,6,0,B|104:168|32:184,1,140,4|0
136,288,107946,2,0,B|200:288|280:272,1,140,2|0
328,208,108379,6,0,B|320:288|336:352,1,140,4|2
416,368,108812,1,0
416,368,108956,1,2
464,304,109100,1,0
440,224,109244,6,0,B|448:184|464:152,2,70,2|0|0
440,224,109678,1,2
296,304,109965,6,0,B|269:297|229:281,1,70,2|0
192,208,110254,1,0
240,144,110398,1,2
192,80,110542,1,0
112,96,110687,2,0,B|72:80,2,35,2|0|0
112,184,110976,6,2,B|304:80|328:304|512:184,2,420,6|2|2
32,304,112995,2,0,B|56:336|80:360,1,70,0|2
208,304,113428,1,2
208,304,113572,2,0,B|280:296|352:312,1,140,0|2
347,310,114149,1,0
464,240,114437,6,0,B|544:128|448:0|256:48|288:200,1,420,4|2
286,190,115591,1,2
208,304,115880,2,0,B|160:296|128:304,2,70,0|0|2
144,184,116456,1,0
144,184,116601,1,2
232,72,116889,1,2
232,72,117033,2,0,B|152:16|16:56|0:160,1,280
48,280,117899,6,0,B|144:240|152:352|248:312,2,210,4|2|2
144,184,119053,1,2
280,224,119341,1,0
280,224,119485,2,0,B|320:208|352:184,1,70,0|2
480,232,119918,2,0,B|440:248|408:272,1,70,0|2
312,352,120351,1,2
312,352,120495,2,0,B|240:328|168:344,2,140,0|2|0
448,336,121360,6,2,B|512:192|504:0|312:0|264:400|248:400|208:0|8:0|0:192|72:344,1,840,4|2
256,240,123524,6,0,B|328:248,2,70,2|0|0
200,288,123956,1,2
200,288,124245,1,2
120,64,124822,5,4
256,40,125110,1,0
256,40,125255,1,0
392,64,125543,1,0
392,64,125687,2,0,B|408:136|400:208,2,140
296,168,126553,5,4
352,296,126841,1,0
352,296,126985,1,0
224,360,127274,1,0
224,360,127418,2,0,B|152:344|80:352,2,140
160,232,128283,5,4
24,256,128572,1,0
24,256,128716,1,0
40,120,129005,1,0
40,120,129149,2,0,B|72:96|96:72,1,70
136,16,129437,2,0,B|208:8|280:24,1,140
336,152,130014,5,4
464,88,130303,1,0
464,88,130447,1,0
496,224,130735,1,0
496,224,130880,2,0,B|472:264|464:296,1,70
424,344,131168,2,0,B|352:368|280:360,1,140
176,256,131745,6,0,B|144:144|24:128,2,210,4|0|0
232,296,132755,2,0,B|304:280,1,70
300,280,133187,1,0
336,144,133476,6,0,B|368:32|488:16,2,210,4|0|0
280,184,134486,2,0,B|208:168,1,70
211,168,134918,1,0
136,48,135206,5,4
24,176,135495,1,0
24,176,135639,1,0
96,328,135928,1,0
96,328,136072,2,0,B|168:320|240:344,1,140
312,304,136505,2,0,B|384:296,2,70
272,232,136937,5,4
384,112,137226,1,0
384,112,137370,1,0
240,24,137658,1,0
240,24,137803,2,0,B|184:176|8:120,1,280
112,32,138668,1,4
