osu file format v7

[General]
AudioFilename: ShowingHeart.mp3
AudioLeadIn: 0
PreviewTime: 14053
Countdown: 1
SampleSet: Soft
StackLeniency: 0.7
Mode: 0
LetterboxInBreaks: 1

[Editor]
Bookmarks: 14053,27899,41745,55591,69437,83283,97130,110976,124822,138668
DistanceSpacing: 1.20000004768372
BeatDivisor: 4
GridSize: 8

[Metadata]
Title:Showing Heart "Dance of the Cornered Rat"
Artist:Masashi Hamauzu
Creator:lesjuh
Version:Easy
Source:Sigma Harmonics
Tags:Square Enix Nintendo DS

[Difficulty]
HPDrainRate:2
CircleSize:3
OverallDifficulty:2
SliderMultiplier:0.6
SliderTickRate:1

[Events]
//Background and Video events
0,0,"sigmaharmonics.jpg"
//Break Periods
2,55791,67877
//Storyboard Layer 0 (Background)
//Storyboard Layer 1 (Fail)
//Storyboard Layer 2 (Pass)
//Storyboard Layer 3 (Foreground)
//Storyboard Sound Samples
//Background Colour Transformations
3,100,0,0,0

[TimingPoints]
207,288.461538461538,3,2,0,80,1,0
124678,-100,4,1,0,50,0,0
138812,-100,4,2,0,0,0,0

[HitObjects]
184,56,14053,2,0,B|96:96|64:192,2,180,4|4|4
256,80,16072,1,2
328,56,16360,1,2
400,80,16649,1,4
328,224,17514,6,0,B|416:264|448:360,2,180,4|4|4
256,248,19533,1,2
184,224,19821,1,2
112,248,20110,1,4
40,96,20976,6,0,B|120:56|224:88,1,180,4|4
296,200,22418,5,2
296,200,22706,2,0,B|376:240|480:208,1,180,4|4
432,64,24437,6,0,B|264:128|248:16|72:80,2,360,4|4|2
488,160,28331,1,2
424,248,28764,6,0,B|432:312,2,60,4|2|2
368,208,29630,5,2
264,192,30062,1,2
200,280,30495,2,0,B|208:344,2,60,4|2|2
144,240,31360,5,2
48,192,31793,1,2
80,88,32226,2,0,B|72:24,2,60,4|2|2
136,128,33091,5,2
216,56,33524,1,2
312,96,33956,2,0,B|376:96,1,60,4|2
480,192,34822,6,0,B|472:288|424:368,1,180,4|4
320,264,36264,5,2
320,264,36553,2,0,B|312:168|264:88,1,180,4|4
72,192,38283,6,0,B|80:288|128:368,2,180,4|4|4
120,96,40447,1,2
216,144,40880,2,0,B|280:144,1,60,2|0
384,40,41745,6,0,B|480:80|464:192,1,180,4|2
400,208,42899,1,0
360,264,43187,5,2
360,264,43476,2,0,B|280:248|272:312|184:296,1,180,4|2
136,248,44630,1,0
96,112,45206,6,0,B|184:88|280:112,2,180,4|4|4
64,216,47370,1,2
160,272,47803,6,0,B|248:296|344:272,1,180,4|4
440,320,49101,1,2
496,224,49533,5,2
480,152,49822,1,0
464,80,50110,5,2
464,80,50399,2,0,B|416:72|368:80,1,90,4|2
296,160,51264,5,2
224,144,51553,1,0
152,128,51841,5,2
152,128,52130,2,0,B|96:216|176:296,2,180,4|4|2
240,64,54293,1,2
344,72,54726,6,0,B|360:112|368:136,2,60,0|2|2
392,24,55591,1,4
328,56,69437,6,0,B|416:96|448:192,2,180,4|4|4
256,80,71456,1,2
184,56,71744,1,2
112,80,72033,1,4
184,224,72898,6,0,B|96:264|64:360,2,180,4|4|4
256,248,74917,1,2
328,224,75205,1,2
400,248,75494,1,4
464,48,76360,6,0,B|368:64|312:144,1,180,4|4
200,232,77802,5,2
200,232,78091,2,0,B|104:216|48:136,1,180,4|4
256,40,79822,6,0,B|472:88|392:320,2,360,4|4|2
152,72,83715,1,2
112,176,84148,6,0,B|48:160,2,60,4|2|2
152,232,85014,5,2
256,192,85446,1,2
352,232,85879,2,0,B|344:296,2,60,4|2|2
408,192,86744,5,2
504,144,87177,1,2
456,48,87610,2,0,B|512:24,2,60,4|2|2
392,24,88475,5,2
320,104,88908,1,2
224,64,89340,2,0,B|160:64,1,60,4|2
40,176,90206,6,0,B|48:272|96:352,1,180,4|4
216,272,91648,5,2
216,272,91937,2,0,B|224:176|272:96,1,180,4|4
464,200,93667,6,0,B|456:296|408:376,2,180,4|4|4
400,112,95831,1,2
304,168,96264,2,0,B|240:168,1,60,2|0
120,40,97129,6,0,B|24:80|40:192,1,180,4|2
104,216,98283,1,0
152,272,98571,5,2
152,272,98860,2,0,B|232:256|240:320|328:304,1,180,4|2
384,272,100014,1,0
416,56,100590,6,0,B|328:32|232:56,2,180,4|4|4
432,160,102754,1,2
336,208,103187,6,0,B|248:232|152:208,1,180,4|4
72,280,104485,1,2
32,184,104917,5,2
48,112,105206,1,0
64,40,105494,5,2
64,40,105783,2,0,B|112:32|160:40,1,90,4|2
256,144,106648,5,2
328,128,106937,1,0
400,112,107225,5,2
400,112,107514,2,0,B|456:200|376:280,2,180,4|4|2
312,48,109677,1,2
208,88,110110,6,0,B|192:48|184:24,2,60,0|2|2
184,152,110975,1,4
