osu file format v5

[General]
AudioFilename: FFXIII_Battle_Theme.mp3
AudioLeadIn: 0
PreviewTime: -1
Countdown: 1
SampleSet: Soft
StackLeniency: 0.7
Mode: 0
LetterboxInBreaks: 1
EditorBookmarks: 28190,70457,71006,92596
EditorDistanceSpacing: 0.800000011920929

[Metadata]
Title:FFXIII Battle Theme
Artist:Masashi Hamauzu
Creator:Mifune24
Version:Insane
Source:
Tags:

[Difficulty]
HPDrainRate:7
CircleSize:5
OverallDifficulty:8
SliderMultiplier:2.6
SliderTickRate:2

[Events]
//Background and Video events
0,0,"ffxiii-battles-4.jpg"
//Break Periods
2,89869,91846
//Storyboard Layer 0 (Background)
//Storyboard Layer 1 (Fail)
//Storyboard Layer 2 (Pass)
//Storyboard Layer 3 (Foreground)
//Storyboard Sound Samples
//Background Colour Transformations
3,100,163,162,255

[TimingPoints]
4770.47833323895,365.942912905587,4,2,0,100,1,0

[HitObjects]
97,77,10625,6,0,B|241:72|358:222|353:336,2,390
19,270,12089,1,2
112,224,12272,1,2
110,327,12455,1,2
201,277,12638,1,2
294,322,12821,1,2
297,218,13004,1,2
384,273,13187,1,2
391,65,13553,6,0,B|259:21|96:71|57:192,2,390
381,272,15016,1,2
309,347,15199,1,2
227,281,15382,1,2
303,210,15565,1,2
230,135,15748,1,2
155,207,15931,1,2
79,135,16114,1,2
61,342,16480,6,0,B|202:360|335:268|380:173|384:147,2,390
45,133,17944,1,2
129,72,18127,1,2
137,175,18310,1,2
224,118,18493,1,2
315,166,18676,1,2
230,225,18859,1,2
326,263,19042,1,2
362,58,19408,6,0,B|464:128|487:259|392:345|303:359,2,390
165,125,20871,1,2
93,200,21054,1,2
132,296,21237,1,2
203,220,21420,1,2
278,147,21603,1,2
308,246,21786,1,2
242,326,21969,1,2
256,32,22335,5,0
360,33,22518,1,0
463,35,22701,2,0,B|490:161|344:149|478:296,1,260
258,331,23433,1,2
101,194,23799,1,2
254,54,24165,1,2
404,197,24531,5,0
331,122,24714,1,0
254,54,24897,2,0,B|229:130|292:199|250:274|144:271,1,260
70,270,25446,1,0
124,358,25629,1,0
228,356,25812,1,0
331,352,25995,1,0
420,299,26178,1,0
328,249,26361,1,0
418,197,26544,1,0
326,146,26727,5,2
251,218,26910,1,2
181,294,27092,2,2,B|86:314|53:263|123:181|72:104,1,260
30,17,27641,1,2
120,68,27824,1,2
212,19,28007,1,2
301,71,28190,1,2
391,18,28373,1,2
477,76,28556,1,2
392,131,28739,1,2
479,186,28922,1,2
394,246,29105,1,2
478,306,29288,1,2
305,271,29471,6,0,B|236:301|179:268,1,130
178,83,29837,6,0,B|246:41|319:94,1,130
119,235,30203,6,0,B|73:178|124:108,1,130
343,124,30569,6,0,B|400:187|333:261,1,130
178,269,30935,6,0,B|240:314|308:269,1,130
300,88,31301,6,0,B|230:48|157:91,1,130
119,238,31667,6,0,B|72:182|121:114,1,130
344,125,32033,6,0,B|394:181|330:271,2,130
239,128,32582,5,2
289,224,32765,1,2
239,315,32948,1,2
447,317,33314,1,2
444,109,33679,1,2
256,32,34045,5,4
448,192,34411,1,0
448,192,34594,1,0
256,352,34960,1,0
256,352,35143,1,0
64,192,35509,1,0
64,192,35692,1,0
448,192,36058,1,0
448,192,36241,1,0
256,32,36607,1,4
416,320,36973,5,0
96,320,37339,1,0
96,320,37522,1,0
96,64,37888,1,0
96,64,38071,1,0
416,64,38437,1,0
416,64,38620,1,0
416,320,38986,1,0
416,320,39169,1,0
96,320,39535,1,4
416,64,39900,5,2
416,320,40266,1,2
352,320,40449,1,2
96,320,40815,1,2
96,256,40998,1,2
96,64,41364,1,2
160,64,41547,1,2
416,64,41913,1,2
416,128,42096,1,2
416,320,42462,1,4
256,352,42828,5,2
448,192,43194,1,2
384,192,43377,1,2
256,32,43743,1,2
256,96,43926,1,2
64,192,44292,1,2
128,192,44475,1,2
256,352,44841,1,2
256,288,45024,1,2
448,192,45390,1,4
320,32,45756,5,0
256,96,45939,1,0
192,32,46122,1,0
128,96,46304,1,0
192,160,46487,1,0
192,160,46853,2,0,B|384:352,2,260
384,64,47951,5,0
448,128,48134,1,0
384,192,48317,1,0
448,256,48500,1,0
384,320,48683,1,0
384,320,49049,2,0,B|96:320,2,260
192,288,50147,5,0
128,224,50330,1,0
64,288,50513,1,0
0,224,50696,1,0
64,160,50879,1,0
64,160,51245,2,0,B|320:64,1,260
448,192,51977,5,2
493,285,52160,1,2
388,283,52343,1,2
96,288,52708,1,2
11,227,52891,1,2
99,171,53074,1,2
381,123,53440,1,2
477,84,53623,1,2
385,34,53806,1,2
106,32,54172,1,2
8,68,54355,1,2
105,104,54538,1,2
256,192,54904,12,0,57100
43,33,57466,6,2,B|37:105|110:158|184:65|243:167,1,260
313,353,58198,1,2
417,353,58381,1,2
486,156,58747,2,0,B|371:82|327:261|268:287|195:269|154:190,1,390
35,29,59661,1,2
36,237,60027,1,2
220,332,60393,6,0,B|281:259|385:296|444:306|453:181,1,260
464,23,61125,1,2
359,21,61308,1,2
151,29,61674,2,0,B|71:27|15:78|37:154|173:138|252:131|283:204|172:262,1,390
22,367,62589,1,2
230,367,62955,1,2
438,365,63321,6,2,B|434:288|514:269|490:181|396:147,1,260
191,146,64053,1,2
86,146,64236,1,2
31,346,64602,2,0,B|46:245|100:222|158:301|168:383|229:383|270:305|267:218,1,390
263,12,65517,2,0,B|253:96|306:145|392:58|387:222,1,260
384,352,66248,5,0
160,352,66614,1,0
32,192,66980,1,0
160,32,67346,1,0
160,32,67529,1,0
352,32,67895,1,0
480,192,68261,1,0
352,352,68627,1,2
352,352,68810,1,2
480,192,69176,5,0
352,32,69542,1,0
128,32,69908,1,0
128,32,70091,1,0
0,192,70457,2,0,B|0:288|96:352|160:192|224:128|320:256,1,390
480,320,71372,1,0
480,96,71738,1,2
416,32,71921,1,2
352,96,72103,2,0,B|288:64|256:160|96:96,1,260
32,288,72835,1,2
96,224,73018,1,2
160,288,73201,2,2,B|256:352|416:320|480:160|384:32|256:32,1,520
64,32,74299,1,0
64,32,74482,1,0
64,32,74665,1,0
244,206,75031,6,0,B|278:122|374:144|398:244|309:324|204:345|112:269|108:168|221:84|316:105,1,520
256,352,76312,5,2
448,192,76678,1,2
448,192,76861,1,2
64,192,77227,1,2
256,32,77593,1,2
271,195,77959,6,0,B|237:279|141:257|117:157|206:77|311:56|403:132|407:233|294:317|199:296,1,520
256,32,79239,5,2
448,192,79605,1,2
448,192,79788,1,2
64,192,80154,1,2
256,352,80520,1,2
374,37,80886,6,0,B|318:88|215:28|108:63,1,260
125,267,81618,2,0,B|181:318|284:258|391:293,1,260
374,37,82350,2,0,B|318:88|215:28|108:63,1,260
125,267,83082,2,0,B|181:318|284:258|391:293,1,260
480,288,83631,1,0
480,192,83814,6,2,B|480:32,1,130
384,32,84180,2,2,B|384:192,1,130
288,192,84546,2,2,B|288:32,1,130
192,32,84911,2,2,B|192:192,1,130
96,192,85277,2,2,B|96:32,1,130
0,32,85643,2,2,B|0:192,1,130
0,256,86009,2,2,B|160:320,1,130
224,320,86375,2,2,B|352:288,1,130
256,192,86741,12,0,89669
203,261,92596,6,2,B|268:313|352:245,1,130
323,160,92962,1,2
427,160,93145,1,2
321,63,93328,6,2,B|259:10|162:87,1,130,0|0
149,152,93694,1,2
45,153,93877,1,2
253,165,94060,6,2,B|301:226|240:309,1,130
189,367,94426,1,2
122,286,94609,1,2
325,283,94792,6,2,B|385:320|454:279,1,130
505,194,95158,1,2
405,192,95341,1,2
254,360,95524,6,2,B|294:290|221:191,1,130
189,149,95890,1,2
293,149,96073,1,2
185,269,96256,6,2,B|121:303|50:265,1,130
17,174,96622,1,2
81,92,96805,1,2
293,147,96988,6,2,B|365:90|450:179,1,130
444,246,97354,1,2
378,326,97537,1,2
254,217,97719,6,2,B|205:153|262:80,1,130
319,17,98085,1,4
386,95,98268,1,4
456,18,98451,1,4
