osu file format v5

[General]
AudioFilename: FFXIII_Battle_Theme.mp3
AudioLeadIn: 0
PreviewTime: -1
Countdown: 1
SampleSet: Soft
StackLeniency: 0.7
Mode: 0
LetterboxInBreaks: 1
EditorBookmarks: 28190
EditorDistanceSpacing: 0.800000011920929

[Metadata]
Title:FFXIII Battle Theme
Artist:Masashi Hamauzu
Creator:Mifune24
Version:Hard
Source:
Tags:

[Difficulty]
HPDrainRate:6
CircleSize:5
OverallDifficulty:7
SliderMultiplier:2
SliderTickRate:2

[Events]
//Background and Video events
0,0,"ffxiii.jpg"
//Break Periods
2,89869,91696
//Storyboard Layer 0 (Background)
//Storyboard Layer 1 (Fail)
//Storyboard Layer 2 (Pass)
//Storyboard Layer 3 (Foreground)
//Storyboard Sound Samples
//Background Colour Transformations
3,100,163,162,255

[TimingPoints]
4770.47833323895,365.942912905587,4,2,0,100,1,0

[HitObjects]
64,96,10625,6,0,B|64:256|288:288,2,300
224,96,12089,1,2
384,160,12455,1,2
224,192,12821,1,2
384,256,13187,1,2
224,320,13553,6,0,B|96:320|0:192|0:128,2,300
224,160,15016,1,2
384,96,15382,1,2
224,32,15748,1,2
64,96,16114,1,2
224,160,16480,6,0,B|352:160|448:320|448:352,2,300
64,160,17944,1,2
192,256,18310,1,2
320,160,18676,1,2
192,64,19042,1,2
320,160,19408,6,0,B|256:256|384:352|480:320|512:320,2,300
160,96,20871,1,2
32,192,21237,1,2
96,320,21603,1,2
224,256,21969,1,2
352,256,22335,5,0
384,192,22518,1,0
320,192,22701,2,0,B|96:192,1,200
96,32,23433,1,0
256,32,23799,1,0
416,32,24165,1,0
256,32,24531,5,2
320,32,24714,1,2
288,96,24897,2,2,B|416:288,1,200
256,352,25629,1,2
256,192,25995,1,2
96,192,26361,1,2
256,192,26727,5,2
288,128,26910,1,2
320,192,27092,2,2,B|448:352,1,200
288,352,27824,1,2
128,352,28190,2,0,B|32:352|0:224|32:192,2,200
128,192,29288,2,0,B|224:192|256:320|224:352,2,200
64,32,30386,5,2
96,96,30569,1,2
128,32,30752,1,2
384,96,31118,1,2
416,32,31301,1,2
448,96,31484,1,2
448,288,31850,5,2
416,352,32033,1,2
384,288,32216,1,2
128,352,32582,1,2
96,288,32765,1,2
64,352,32948,1,2
256,320,33314,5,2
256,160,33679,1,2
384,288,34045,5,4
448,96,34411,1,0
384,64,34594,1,0
192,64,34960,1,0
128,96,35143,1,0
32,256,35509,1,0
64,320,35692,1,0
256,320,36058,1,0
320,320,36241,1,0
448,192,36607,1,4
320,320,36973,5,0
224,128,37339,1,0
160,160,37522,1,0
32,320,37888,1,0
0,256,38071,1,0
128,96,38437,1,0
192,64,38620,1,0
352,160,38986,1,0
416,192,39169,1,0
256,288,39535,1,4
416,192,39900,5,2
256,64,40266,1,2
224,128,40449,1,2
128,256,40815,1,2
160,320,40998,1,2
352,288,41364,1,2
416,256,41547,1,2
256,160,41913,1,0
192,192,42096,2,4,B|128:160|96:96|192:32,1,200
288,288,42828,5,2
448,224,43194,1,2
416,160,43377,1,2
224,160,43743,1,2
192,224,43926,1,2
32,96,44292,1,2
96,64,44475,1,2
288,64,44841,1,2
352,96,45024,2,4,B|384:160|320:256|256:256,1,200
480,96,45756,6,0,B|480:320,3,200
384,160,47219,1,0
384,224,47402,1,0
384,288,47585,1,0
224,224,47951,1,0
64,288,48317,2,0,B|64:64,3,200
224,32,49781,5,2
384,32,50147,1,2
384,96,50330,1,2
384,160,50513,1,2
384,320,50879,1,2
256,224,51245,1,2
128,320,51611,1,2
256,224,51977,5,0
256,160,52160,1,0
256,96,52343,1,0
416,160,52708,1,0
256,160,53074,1,0
192,160,53257,1,0
128,160,53440,1,0
126,320,53806,2,2,B|219:378|340:311,2,200
256,192,54904,12,0,57100
200,279,57466,6,4,B|199:347|256:381|307:348|308:272,1,200
320,128,58198,1,0
256,128,58381,1,0
96,128,58747,2,4,B|64:192|96:320|256:352,1,300
352,352,59661,1,2
448,224,60027,1,2
288,224,60393,6,4,B|192:224|167:129|320:128,1,200
448,128,61125,1,2
384,128,61308,1,2
352,288,61674,2,4,B|352:363|284:405|212:396|150:360|155:272,1,300
128,128,62589,1,2
288,192,62955,1,2
448,128,63321,6,0,B|509:220|426:333,1,200
288,320,64053,1,0
224,320,64236,1,0
64,320,64602,2,0,B|64:160|224:128|288:160,1,300
416,160,65517,2,0,B|416:288|288:288,1,200
96,224,66248,1,2
32,64,66614,1,2
192,64,66980,1,2
256,224,67346,1,2
320,224,67529,2,2,B|448:224|480:96,2,200
384,320,69176,5,0
256,192,69542,1,0
128,320,69908,1,2
192,320,70091,1,2
192,160,70457,2,0,B|192:32|320:32|387:78|359:196,1,300
363,321,71372,1,2
192,320,71738,1,2
128,320,71921,1,2
64,320,72103,2,2,B|64:160|224:192,1,200
320,192,72835,1,2
384,192,73018,1,2
448,192,73201,2,4,B|448:32|224:32|96:64,1,400
257,174,75031,6,0,B|265:114|343:115|388:182|367:258|280:294|211:294|179:218|173:184|200:128,1,400
256,32,76495,5,2
448,192,76861,1,2
256,352,77227,1,2
64,192,77593,1,2
257,210,77959,6,0,B|265:270|343:269|388:202|367:126|280:90|211:90|179:166|173:200|200:256,1,400
256,64,79422,5,0
128,288,79788,1,0
384,288,80154,1,0
160,64,80520,6,0,B|218:111|292:62|334:43|375:95,1,200
352,256,81252,2,0,B|285:305|217:229|142:266,1,200
160,64,81984,2,0,B|218:111|292:62|334:43|375:95,1,200
353,256,82716,2,0,B|286:305|218:229|143:266,1,200
32,160,83448,5,2
96,160,83631,1,2
160,160,83814,2,0,B|223:163|283:127|317:157|358:174,6,200
256,192,86741,12,4,89669
288,320,92596,5,0
352,320,92779,1,0
320,256,92962,2,0,B|160:96,1,200
64,0,93694,1,2
32,256,94060,5,0
64,320,94243,1,0
96,256,94426,2,0,B|288:96,1,200
480,320,95158,5,2
416,160,95524,1,2
384,224,95707,1,2
352,160,95890,2,2,B|192:32,1,200
32,256,96622,5,2
128,128,96988,1,2
160,192,97171,1,2
192,128,97354,2,2,B|352:288,1,200
384,64,98085,5,4
256,64,98268,1,4
128,64,98451,1,4
