osu file format v12

[General]
AudioFilename: FF XIII - Blinded by Light.mp3
AudioLeadIn: 0
PreviewTime: 35779
Countdown: 0
SampleSet: Normal
StackLeniency: 0.7
Mode: 1
LetterboxInBreaks: 0
WidescreenStoryboard: 0

[Editor]
Bookmarks: 37944,38065,47925
DistanceSpacing: 1.1
BeatDivisor: 4
GridSize: 8

[Metadata]
Title:Blinded By Light
TitleUnicode:Blinded By Light
Artist:Masashi Hamauzu
ArtistUnicode:Masashi Hamauzu
Creator:Totoro le Pacha
Version:Muzukashii
Source:Final Fantasy XIII
Tags:ff13 final fantasy 13 XIII battle theme lightning sazh vanille hope
BeatmapID:277064
BeatmapSetID:99182

[Difficulty]
HPDrainRate:4
CircleSize:3
OverallDifficulty:5
ApproachRate:5
SliderMultiplier:1.4
SliderTickRate:1

[Events]
//Background and Video events
0,0,"final-fantasy-xiii-20100212091351264.jpg",0,0
//Break Periods
//Storyboard Layer 0 (Background)
//Storyboard Layer 1 (Fail)
//Storyboard Layer 2 (Pass)
//Storyboard Layer 3 (Foreground)
//Storyboard Sound Samples
//Background Colour Transformations
3,100,163,162,255

[TimingPoints]
657.234395946448,365.853658536585,4,1,0,40,1,0
12364,-100,4,1,0,50,0,0
35779,-100,4,1,0,60,0,1
53340,-100,4,1,0,50,0,0
53431,-133.333333333333,4,1,0,50,0,0
67974,-100,4,1,0,50,0,0

[HitObjects]
256,192,657,1,4,0:0:0:0:
256,192,1206,1,0,0:0:0:0:
256,192,1754,1,8,0:0:0:0:
256,192,2303,1,0,0:0:0:0:
256,192,2852,1,0,0:0:0:0:
256,192,3035,1,8,0:0:0:0:
256,192,3218,1,0,0:0:0:0:
256,192,3584,1,4,0:0:0:0:
256,192,4132,1,0,0:0:0:0:
256,192,4681,1,8,0:0:0:0:
256,192,5230,1,0,0:0:0:0:
256,192,5596,1,0,0:0:0:0:
256,192,5779,1,0,0:0:0:0:
256,192,5962,1,0,0:0:0:0:
256,192,6145,1,8,0:0:0:0:
256,192,6510,1,4,0:0:0:0:
256,192,6876,1,0,0:0:0:0:
256,192,7059,1,0,0:0:0:0:
256,192,7425,1,0,0:0:0:0:
256,192,7608,1,8,0:0:0:0:
256,192,7974,1,8,0:0:0:0:
256,192,8157,1,0,0:0:0:0:
256,192,8523,1,0,0:0:0:0:
256,192,8614,1,0,0:0:0:0:
256,192,8706,1,0,0:0:0:0:
256,192,8888,1,0,0:0:0:0:
256,192,9071,1,8,0:0:0:0:
256,192,9437,1,4,0:0:0:0:
256,192,9986,1,0,0:0:0:0:
256,192,10352,1,0,0:0:0:0:
256,192,10535,1,8,0:0:0:0:
256,192,11084,1,0,0:0:0:0:
256,192,11449,1,0,0:0:0:0:
256,192,11632,1,0,0:0:0:0:
256,192,11998,1,8,0:0:0:0:
256,192,12364,1,4,0:0:0:0:
256,192,12913,1,0,0:0:0:0:
256,192,13462,1,0,0:0:0:0:
256,192,14010,1,0,0:0:0:0:
256,192,14559,1,0,0:0:0:0:
256,192,14925,1,8,0:0:0:0:
256,192,15291,1,0,0:0:0:0:
256,192,15657,1,0,0:0:0:0:
256,192,15840,1,0,0:0:0:0:
256,192,16206,1,0,0:0:0:0:
256,192,16388,1,0,0:0:0:0:
256,192,16754,1,0,0:0:0:0:
256,192,16937,1,0,0:0:0:0:
256,192,17303,1,0,0:0:0:0:
256,192,17486,1,0,0:0:0:0:
256,192,17852,1,8,0:0:0:0:
256,192,18218,1,0,0:0:0:0:
256,192,18584,1,0,0:0:0:0:
256,192,18766,1,0,0:0:0:0:
256,192,19132,1,0,0:0:0:0:
256,192,19315,1,0,0:0:0:0:
256,192,19681,1,0,0:0:0:0:
256,192,19864,1,0,0:0:0:0:
256,192,20230,1,0,0:0:0:0:
256,192,20413,1,0,0:0:0:0:
256,192,20779,1,8,0:0:0:0:
256,192,21145,1,0,0:0:0:0:
256,192,21510,1,0,0:0:0:0:
256,192,21693,1,0,0:0:0:0:
256,192,22059,1,0,0:0:0:0:
256,192,22242,1,2,0:0:0:0:
256,192,22608,1,2,0:0:0:0:
256,192,22791,1,0,0:0:0:0:
256,192,23157,1,0,0:0:0:0:
256,192,23340,1,0,0:0:0:0:
256,192,23523,1,0,0:0:0:0:
256,192,23706,1,2,0:0:0:0:
256,192,24071,1,12,0:0:0:0:
256,192,24437,1,0,0:0:0:0:
256,192,24620,1,12,0:0:0:0:
256,192,24986,1,0,0:0:0:0:
256,192,25169,1,12,0:0:0:0:
256,192,25535,1,0,0:0:0:0:
256,192,25718,1,12,0:0:0:0:
256,192,26084,1,0,0:0:0:0:
256,192,26175,1,0,0:0:0:0:
256,192,26266,1,0,0:0:0:0:
256,192,26449,1,0,0:0:0:0:
256,192,26632,1,8,0:0:0:0:
256,192,26998,1,12,0:0:0:0:
256,192,27364,1,0,0:0:0:0:
256,192,27547,1,8,0:0:0:0:
256,192,27913,1,0,0:0:0:0:
256,192,28096,1,8,0:0:0:0:
256,192,28462,1,0,0:0:0:0:
256,192,28645,1,8,0:0:0:0:
256,192,29010,1,0,0:0:0:0:
256,192,29193,1,0,0:0:0:0:
256,192,29376,1,0,0:0:0:0:
256,192,29559,1,8,0:0:0:0:
256,192,29925,1,8,0:0:0:0:
256,192,30291,1,0,0:0:0:0:
256,192,30474,1,0,0:0:0:0:
256,192,30840,1,0,0:0:0:0:
256,192,31023,1,0,0:0:0:0:
256,192,31388,1,0,0:0:0:0:
256,192,31571,1,0,0:0:0:0:
256,192,31937,1,0,0:0:0:0:
256,192,32120,1,0,0:0:0:0:
256,192,32303,1,0,0:0:0:0:
256,192,32486,1,8,0:0:0:0:
256,192,32852,1,0,0:0:0:0:
256,192,33218,1,0,0:0:0:0:
256,192,33401,1,0,0:0:0:0:
256,192,33766,1,0,0:0:0:0:
256,192,33949,1,0,0:0:0:0:
256,192,34315,1,0,0:0:0:0:
256,192,34498,1,0,0:0:0:0:
256,192,35048,1,0,0:0:0:0:
256,192,35139,1,0,0:0:0:0:
256,192,35231,1,0,0:0:0:0:
256,192,35413,1,8,0:0:0:0:
256,192,35596,1,0,0:0:0:0:
256,192,35779,1,12,0:0:0:0:
256,192,36144,1,0,0:0:0:0:
256,192,36510,1,8,0:0:0:0:
256,192,36693,1,0,0:0:0:0:
256,192,36876,1,0,0:0:0:0:
256,192,37059,1,8,0:0:0:0:
256,192,37425,1,0,0:0:0:0:
256,192,37608,1,0,0:0:0:0:
256,192,37791,1,0,0:0:0:0:
256,192,37974,1,8,0:0:0:0:
256,192,38340,1,0,0:0:0:0:
256,192,38706,1,12,0:0:0:0:
256,192,39071,1,0,0:0:0:0:
256,192,39437,1,8,0:0:0:0:
256,192,39620,1,0,0:0:0:0:
256,192,39986,1,0,0:0:0:0:
256,192,40535,1,8,0:0:0:0:
256,192,40901,1,8,0:0:0:0:
256,192,41632,1,8,0:0:0:0:
256,192,41998,1,0,0:0:0:0:
256,192,42181,1,0,0:0:0:0:
256,192,42273,1,0,0:0:0:0:
256,192,42364,1,0,0:0:0:0:
256,192,42547,1,0,0:0:0:0:
256,192,42730,1,8,0:0:0:0:
256,192,42913,1,12,0:0:0:0:
256,192,43462,1,0,0:0:0:0:
256,192,43827,1,8,0:0:0:0:
256,192,44193,1,0,0:0:0:0:
256,192,44559,1,0,0:0:0:0:
256,192,44925,1,8,0:0:0:0:
256,192,45291,1,0,0:0:0:0:
256,192,45474,1,0,0:0:0:0:
256,192,45657,1,8,0:0:0:0:
256,192,45840,1,8,0:0:0:0:
256,192,46206,1,8,0:0:0:0:
256,192,46571,1,8,0:0:0:0:
256,192,46937,1,0,0:0:0:0:
256,192,47029,1,0,0:0:0:0:
256,192,47120,1,0,0:0:0:0:
256,192,47303,1,0,0:0:0:0:
256,192,47486,1,8,0:0:0:0:
256,192,47852,1,0,0:0:0:0:
256,192,48218,1,8,0:0:0:0:
256,192,48401,1,0,0:0:0:0:
256,192,48766,1,8,0:0:0:0:
256,192,49315,1,0,0:0:0:0:
256,192,49681,1,0,0:0:0:0:
256,192,49864,1,0,0:0:0:0:
256,192,50047,1,8,0:0:0:0:
256,192,50230,1,8,0:0:0:0:
256,192,50413,1,8,0:0:0:0:
256,192,50779,1,0,0:0:0:0:
256,192,51145,1,8,0:0:0:0:
256,192,51327,1,0,0:0:0:0:
256,192,51510,1,8,0:0:0:0:
256,192,51693,1,8,0:0:0:0:
256,192,52242,1,0,0:0:0:0:
256,192,52608,1,8,0:0:0:0:
256,192,53157,1,0,0:0:0:0:
256,192,53248,1,0,0:0:0:0:
256,192,53340,1,0,0:0:0:0:
256,192,53706,1,0,0:0:0:0:
256,192,54071,1,8,0:0:0:0:
256,192,54437,1,0,0:0:0:0:
256,192,54620,1,0,0:0:0:0:
256,192,54803,1,0,0:0:0:0:
256,192,54986,1,8,0:0:0:0:
256,192,55352,1,0,0:0:0:0:
256,192,55535,1,8,0:0:0:0:
256,192,55901,1,0,0:0:0:0:
256,192,56084,1,0,0:0:0:0:
294,189,56266,1,0,0:0:0:0:
256,192,56632,1,0,0:0:0:0:
256,192,56998,1,8,0:0:0:0:
256,192,57364,1,0,0:0:0:0:
256,192,57547,1,0,0:0:0:0:
256,192,57730,1,0,0:0:0:0:
256,192,57913,1,8,0:0:0:0:
256,192,58279,1,0,0:0:0:0:
256,192,58462,1,8,0:0:0:0:
256,192,58827,1,0,0:0:0:0:
256,192,59010,1,0,0:0:0:0:
256,192,59193,1,0,0:0:0:0:
256,192,59559,1,0,0:0:0:0:
256,192,59925,1,8,0:0:0:0:
256,192,60657,1,8,0:0:0:0:
256,192,61023,1,0,0:0:0:0:
256,192,61388,1,0,0:0:0:0:
256,192,61754,1,8,0:0:0:0:
256,192,61937,1,8,0:0:0:0:
256,192,62120,1,0,0:0:0:0:
256,192,62486,1,0,0:0:0:0:
256,192,62669,1,0,0:0:0:0:
256,192,62852,1,0,0:0:0:0:
256,192,63035,1,8,0:0:0:0:
256,192,63401,1,0,0:0:0:0:
256,192,63584,1,8,0:0:0:0:
256,192,64315,1,8,0:0:0:0:
256,192,65047,12,0,69071,0:0:0:0:
259,199,69620,1,4,0:0:0:0:
259,199,69986,1,0,0:0:0:0:
259,199,70169,1,0,0:0:0:0:
259,199,70352,1,0,0:0:0:0:
259,199,70535,1,8,0:0:0:0:
259,199,70901,1,4,0:0:0:0:
259,199,71266,1,0,0:0:0:0:
259,199,71449,1,0,0:0:0:0:
259,199,71815,1,0,0:0:0:0:
259,199,71998,1,8,0:0:0:0:
259,199,72364,1,8,0:0:0:0:
259,199,72547,1,0,0:0:0:0:
259,199,72913,1,0,0:0:0:0:
259,199,73096,1,0,0:0:0:0:
259,199,73462,1,8,0:0:0:0:
259,199,73827,1,4,0:0:0:0:
259,199,74376,1,0,0:0:0:0:
259,199,74925,1,8,0:0:0:0:
259,199,75474,1,0,0:0:0:0:
259,199,75840,1,0,0:0:0:0:
259,199,75931,1,0,0:0:0:0:
259,199,76023,1,0,0:0:0:0:
259,199,76206,1,8,0:0:0:0:
259,199,76297,1,8,0:0:0:0:
259,199,76388,1,8,0:0:0:0:
259,199,76571,1,0,0:0:0:0:
259,199,76754,1,4,0:0:0:0:
