osu file format v7

[General]
AudioFilename: Super Robot Wars-Taisen Alpha Gaiden - Yang Long.mp3
AudioLeadIn: 0
PreviewTime: -1
Countdown: 1
SampleSet: Soft
StackLeniency: 0.7
Mode: 0
LetterboxInBreaks: 1

[Editor]
DistanceSpacing: 0.800000011920929
BeatDivisor: 4
GridSize: 32

[Metadata]
Title:Flame of the Chinese Gym Teacher
Artist:Masashi Chizawa
Creator:Tiduas
Version:Normal
Source:Super Robot Taisen Alpha Gaiden
Tags:super robot taisen wars alpha gaiden yang long yan ron granveil banpresto

[Difficulty]
HPDrainRate:5
CircleSize:4
OverallDifficulty:5
SliderMultiplier:0.7
SliderTickRate:1

[Events]
//Background and Video events
0,0,"srw.jpg"
//Break Periods
//Storyboard Layer 0 (Background)
//Storyboard Layer 1 (Fail)
//Storyboard Layer 2 (Pass)
//Storyboard Layer 3 (Foreground)
//Storyboard Sound Samples
//Background Colour Transformations
3,100,255,128,128

[TimingPoints]
200,366.97247706422,4,2,0,100,1,0

[HitObjects]
160,192,11943,1,0
224,192,12310,1,0
288,192,12677,1,0
352,192,13044,1,0
352,128,13411,5,0
288,128,13777,1,0
224,128,14144,1,0
160,128,14511,1,0
96,158,14878,6,0,B|214:249,1,140
305,244,16346,2,0,B|430:152,1,140
288,96,17814,5,0
224,128,18181,1,0
288,160,18548,1,0
224,192,18915,1,0
288,224,19282,5,0
224,256,19649,1,0
288,288,20016,1,0
224,320,20383,1,0
160,320,20750,2,0,B|192:224|192:224|352:160|352:160|271:32|271:32,1,420
160,64,23686,6,0,B|128:160|224:224|160:352,1,280
256,352,25888,1,0
352,352,26622,2,0,B|288:256|384:160|341:63,1,280
256,64,28823,5,0
155,64,29557,2,0,B|123:160|219:224|155:352,1,280,0|0
256,352,31759,1,0
255,271,32493,5,0
256,192,33961,1,0
256,192,34328,1,0
256,192,34695,1,0
96,64,35429,5,0
192,64,35796,2,0,B|192:144,4,70
288,64,37631,5,0
384,64,37998,1,0
383,160,38365,2,0,B|297:160,4,70
384,256,40200,5,0
288,256,40566,1,0
192,256,40933,1,0
256,192,41300,5,0
320,192,41729,1,0
320,96,42768,1,0
256,96,43196,1,0
256,192,44236,12,0,47172
160,96,47906,5,0
192,160,48273,1,0
224,224,48640,1,0
256,288,49007,1,0
288,224,49374,1,0
320,160,49741,1,0
352,96,50108,1,0
256,192,50842,5,0
256,192,51575,1,0
256,192,52309,1,0
192,96,53043,5,0
256,128,53410,1,0
320,96,53777,1,0
384,128,54144,1,0
384,192,54511,1,0
320,224,54878,1,0
256,192,55245,5,0
192,224,55612,1,0
128,192,55979,1,0
128,128,56346,1,0
192,96,56713,1,0
256,128,57080,1,0
320,128,57447,2,0,B|320:160,8,17.5
