osu file format v9

[General]
AudioFilename: 8462deb3c743.mp3
AudioLeadIn: 2504
PreviewTime: 60512
Countdown: 0
SampleSet: Soft
StackLeniency: 0.7
Mode: 0
LetterboxInBreaks: 0

[Editor]
DistanceSpacing: 1
BeatDivisor: 4
GridSize: 8

[Metadata]
Title:Fukkireta
Artist:Masaomi Kida
Creator:Mizu
Version:Hellzireta
Source:Nico Nico Douga
Tags:CapeCanaveral Hellzero IceBeam Durarara!! Dollars Mischievous Function Stpl

[Difficulty]
HPDrainRate:5
CircleSize:4
OverallDifficulty:6
ApproachRate:7
SliderMultiplier:1.6
SliderTickRate:2

[Events]
//Background and Video events
0,0,"BG.jpg"
//Break Periods
2,19712,21812
//Storyboard Layer 0 (Background)
//Storyboard Layer 1 (Fail)
//Storyboard Layer 2 (Pass)
//Storyboard Layer 3 (Foreground)
//Storyboard Sound Samples
//Background Colour Transformations
3,100,163,162,255

[TimingPoints]
312,400,4,2,0,100,1,0
6712,-100,4,1,0,80,0,1
19512,-100,4,1,0,80,0,0
22712,-100,4,2,0,100,0,0
60112,-100,4,2,0,100,0,0
61112,-100,4,1,0,80,0,1
73912,-100,4,1,0,80,0,0
74512,-100,4,2,0,100,0,0
79712,-100,4,2,0,100,0,0

[Colours]
Combo1 : 255,255,255
Combo2 : 253,190,0
Combo3 : 191,191,0

[HitObjects]
216,316,312,2,0,B|256:332|304:312,2,80,2|0|0
220,236,912,2,0,B|191:207,1,40,0|2
292,236,1213,2,0,B|320:207,1,40,0|2
256,156,1512,1,2
256,156,1712,1,2
256,76,1912,6,0,B|308:76,2,40,2|0|0
176,76,2312,2,0,B|146:107|146:159,1,80
146,148,2612,1,2
148,228,2812,1,0
149,228,2912,2,0,B|148:269|177:300,1,80,2|2
256,296,3312,1,2
256,216,3512,5,2
312,160,3712,1,0
256,104,3912,1,0
196,160,4112,2,0,B|140:160,1,40,0|2
48,160,4412,2,0,B|92:160,1,40,0|2
120,232,4712,1,0
120,232,4912,1,2
256,320,5112,5,4
460,192,5412,1,4
256,64,5712,1,4
256,192,6112,5,0
256,192,6312,1,0
256,192,6512,1,0
256,272,6712,6,0,B|256:352,2,80,6|0|0
328,232,7312,2,0,B|384:232,2,40,0|0|8
328,152,7712,2,0,B|327:108|289:72,2,80,0|8|0
256,192,8312,1,2
184,152,8512,2,0,B|184:108|222:72,1,80
256,192,8912,2,0,B|256:248,2,40,0|0|8
112,192,9312,5,0
112,192,9512,1,8
184,232,9712,1,0
256,272,9912,2,0,B|256:328,2,40,2|0|0
328,232,10312,1,0
400,192,10512,1,0
400,192,10612,1,0
400,192,10712,1,8
256,192,10912,6,0,B|256:104,2,80,0|8|0
256,272,11512,1,2
416,272,11912,1,0
416,272,12112,1,2
96,272,12512,1,0
96,272,12712,1,2
256,272,13112,6,0,B|256:312,2,40,6|0|0
256,192,13512,1,0
256,112,13712,2,0,B|256:72,2,40,0|0|8
256,192,14112,2,0,B|232:232|168:248,1,80,0|8
176,160,14512,1,0
112,208,14712,2,0,B|89:168|101:130,1,80,2|0
176,160,15112,1,0
224,96,15312,2,0,B|264:48,2,40,0|0|8
344,96,15712,5,0
368,176,15912,1,8
344,256,16112,1,0
280,304,16312,2,0,B|280:352,2,40,2|0|0
216,256,16712,1,0
280,208,16912,2,0,B|280:168,2,40,0|0|8
152,208,17312,6,0,B|152:112,1,80,0|8
216,80,17712,1,0
280,128,17912,2,0,B|280:208,1,80,2|0
216,256,18312,1,0
152,208,18512,2,0,B|88:192|88:96|168:80,1,160,2|0
208,144,19112,1,2
208,144,19312,1,0
288,144,19512,1,2
48,192,22712,6,0,B|124:232|208:192,1,160
256,136,23312,1,0
256,136,23512,1,0
288,64,23712,2,0,B|328:88|344:152,1,80,8|8
336,208,24112,2,0,B|328:246|288:270,2,80
256,192,24712,1,0
176,208,24912,1,0
96,192,25112,2,0,B|104:154|144:130,2,80,0|8|8
96,272,25712,1,0
176,288,25912,6,0,B|252:328|336:288,1,160
380,228,26512,1,0
304,200,26712,2,0,B|264:124|301:46,1,160
376,80,27312,2,0,B|448:128,1,80
376,168,27712,1,0
440,216,27912,2,0,B|373:260,1,80
296,248,28312,2,0,B|296:64,1,160,2|2
136,88,29112,6,0,B|136:248,1,160
200,296,29712,1,0
256,240,29912,2,0,B|256:152,1,80,0|8
312,104,30312,1,8
384,144,30512,2,0,B|413:171|414:215,1,80
336,224,30912,1,0
286,295,31112,2,0,B|256:267|256:224,1,80
256,144,31512,2,0,B|256:32,2,80,0|8|8
104,192,32312,5,0
104,192,32512,1,0
104,192,32712,1,0
184,192,32912,2,0,B|272:192,2,80,0|0|8
184,112,33512,1,8
264,112,33712,2,0,B|304:111|335:143,1,80,0|2
416,160,34112,2,0,B|433:203|412:236,1,80,0|2
336,256,34512,2,0,B|305:287|264:287,1,80,0|2
192,256,34912,1,8
144,192,35112,1,12
192,128,35312,1,0
240,192,35512,6,0,B|408:192,1,160
456,248,36112,1,0
400,304,36312,2,0,B|240:304,1,160
192,240,36912,1,0
128,192,37112,2,0,B|128:96,1,80
208,64,37512,2,0,B|208:160,1,80
288,200,37912,2,0,B|288:104,2,80,0|8|8
424,116,38712,6,0,B|464:192|427:270,1,160
352,296,39312,1,0
360,216,39512,2,0,B|282:179|206:219,1,160
191,119,40112,2,0,B|135:176,1,80
208,216,40513,1,0
192,312,40712,2,0,B|120:240,1,80
64,216,41112,2,0,B|16:216,2,40,0|0|8
64,136,41512,2,0,B|64:96,2,40,8|0|0
144,136,41912,5,0
144,136,42312,1,0
224,136,42512,1,0
304,136,42712,1,0
304,136,43112,1,0
304,216,43312,1,0
304,296,43512,2,0,B|264:297|234:256,2,80
376,256,44112,2,0,B|416:255|447:287,1,80,0|2
64,104,44712,1,2
64,264,45112,6,0,B|232:264,1,160
256,184,45712,2,0,B|176:184,2,80
256,104,46312,1,0
328,144,46512,1,0
328,224,46712,2,0,B|328:304,1,80,2|0
256,264,47112,2,0,B|216:333,1,80,2|0
176,264,47512,2,0,B|106:304,1,80,2|0
104,224,47912,1,4
216,112,48312,5,8
352,192,48712,1,8
272,56,49112,1,8
296,248,49512,1,8
272,168,49712,2,0,B|272:96,2,40,0|0|8
216,224,50112,2,0,B|216:288,2,40,0|0|8
160,168,50512,1,0
96,216,50712,1,8
32,168,50912,1,0
400,192,51312,6,0,B|464:192,2,40,0|0|8
328,152,51712,1,0
328,232,51912,1,8
248,152,52112,1,0
248,232,52312,1,8
176,192,52512,1,0
96,192,52712,2,0,B|96:144,2,40,8|0|0
96,272,53112,1,8
168,304,53312,1,0
240,272,53512,1,8
240,192,53712,1,0
240,112,53912,2,0,B|240:24,2,80,4|4|0
120,192,54512,6,0,B|72:192,2,40,0|0|8
200,192,54912,1,0
200,192,55112,1,8
200,272,55312,2,0,B|200:320,2,40,0|0|8
280,272,55712,2,0,B|280:208,2,40,0|0|8
360,272,56112,1,0
360,272,56212,1,0
360,272,56312,2,0,B|360:176,1,80,8|0
280,192,56712,1,8
280,112,56912,1,0
280,112,57012,1,0
280,112,57112,2,0,B|280:72,2,40,8|0|0
120,112,57712,5,0
120,112,57812,1,0
120,112,57912,2,0,B|120:176,2,40,8|0|0
184,200,58312,2,0,B|184:304,1,80,8|0
256,112,58712,1,8
256,112,58812,1,0
256,112,58912,2,0,B|256:176,2,40,0|0|8
256,320,59512,5,4
52,192,59812,1,4
256,64,60112,1,4
256,240,60512,5,0
320,192,60712,1,0
256,144,60912,1,0
256,64,61112,2,0,B|200:64,2,40,6|0|0
336,64,61512,1,0
400,112,61712,2,0,B|440:112,2,40,0|0|8
336,160,62112,2,0,B|336:256,1,80,0|8
256,272,62512,2,0,B|256:192,1,80,0|2
176,160,62912,2,0,B|176:256,1,80
104,272,63312,2,0,B|64:272,2,40,0|0|8
96,192,63712,5,0
56,120,63912,1,8
96,48,64112,1,0
168,88,64312,2,0,B|200:56,2,40,2|0|0
240,124,64712,1,0
168,160,64912,2,0,B|200:192,2,40,0|0|8
96,192,65312,6,0,B|96:288,1,80,0|8
160,320,65712,1,0
240,320,65912,1,2
408,192,66312,1,0
328,192,66512,1,2
160,64,66912,1,0
240,64,67112,1,2
88,152,67512,6,0,B|48:152,2,40,6|0|0
152,200,67912,1,0
216,248,68112,2,0,B|256:248,2,40,0|0|8
144,288,68512,2,0,B|48:288,2,80,0|8|0
216,248,69112,1,2
216,248,69212,1,0
216,248,69312,1,0
248,176,69512,2,0,B|288:200|304:263,2,80,0|0|8
64,176,70112,5,0
64,176,70312,1,8
64,176,70512,1,0
120,232,70712,2,0,B|120:304,2,40,2|0|0
176,176,71112,1,0
120,120,71312,2,0,B|120:80,2,40,0|0|8
256,176,71712,5,0
256,256,71912,1,8
336,256,72112,1,0
336,176,72312,2,0,B|360:136|423:120,1,80,2|0
408,208,72712,1,0
480,240,72912,2,0,B|456:280|392:296,1,80,2|0
336,304,73312,2,0,B|296:280|280:216,1,80,0|2
288,241,73912,1,4
128,192,74512,6,0,B|64:192,2,40,0|0|2
208,192,74912,1,0
288,192,75112,1,2
288,192,75212,1,0
288,192,75312,1,0
256,264,75512,2,0,B|216:240|200:176,1,80,2|0
240,128,75912,2,0,B|280:105|344:123,1,80,2|0
368,184,76312,2,0,B|367:230|319:276,1,80,2|0
296,328,76712,1,0
256,192,76912,12,0,77912
256,48,78112,5,0
320,96,78312,1,0
256,144,78512,1,0
192,96,78712,2,0,B|104:96,2,80,2|0|0
256,144,79312,2,0,B|256:320,1,160,2|2
112,216,80112,5,0
184,176,80312,2,0,B|184:256,1,80
256,304,80712,2,0,B|256:144,1,160,2|0
336,128,81312,1,0
392,184,81512,1,0
392,264,81712,1,0
336,320,81912,2,0,B|256:320,1,80,2|0
208,256,82312,2,0,B|208:160,2,80,2|0|0
288,240,82912,1,0
288,240,83112,1,0
368,256,83312,2,0,B|384:192|320:144|256:160,1,160,2|0
208,208,83912,2,0,B|112:208,1,80
72,152,84312,1,2
440,152,84712,1,2
256,112,84912,6,0,B|256:72,2,40
224,184,85312,1,0
256,256,85512,1,0
336,256,85712,1,2
144,184,86112,1,0
64,184,86312,1,2
256,192,86512,12,0,89312
256,192,89512,5,4
