osu file format v5

[General]
AudioFilename: Masanori Akita - Time Hollow.mp3
AudioLeadIn: 0
AudioHash: c043fb41fcde22184ba35233752a1170
PreviewTime: 25372
Countdown: 0
SampleSet: Normal
EditorBookmarks: 10372,20585,25691,46117,66542,86968,97181

[Metadata]
Title:Time Hollow
Artist:Masanori Akita
Creator:Kharl
Version:Easy

[Difficulty]
HPDrainRate:3
CircleSize:4
OverallDifficulty:3
SliderMultiplier:1.6
SliderTickRate:2

[Events]
//Background and Video events
0,0,"timehollowbg.jpg"
1,1824,"Masanori Akita - Time Hollow.avi"
//Break Periods
2,46340,56190
2,64213,65742
//Storyboard Layer 0 (Background)
//Storyboard Layer 1 (Failing)
//Storyboard Layer 2 (Passing)
//Storyboard Layer 3 (Foreground)
//Storyboard Sound Samples
//Background Colour Transformations
3,100,159,158,249

[TimingPoints]
145,638.297872340426,4,1,0,80
20609,638.297872340426,4,2,0,100
66530,638.297872340426,4,1,0,80
97182,638.297872340426,4,2,0,100

[Colours]
Combo1 : 166,0,0
Combo2 : 64,0,128
Combo3 : 1,252,101
Combo4 : 149,95,62 SpinnerApproachCircle :
1,252,101

[HitObjects]
256,192,10357,1,0
352,112,10996,1,0
416,112,11315,1,0
464,224,11953,1,0
400,224,12272,1,4
280,304,13549,6,0,B|280:304|141:343|35:225|88:96,1,320
184,136,16102,5,0
240,104,16421,1,0
336,184,17059,1,0
280,216,17379,1,4
408,248,18655,6,2,B|408:248|288:336|152:312|88:232,1,320
128,144,20609,5,0
368,152,21885,1,0
184,216,23162,5,0
248,40,24438,1,0
272,216,25715,1,4
152,304,26672,6,0,B|152:304|264:328|376:304|448:232|448:200,1,320
248,88,29226,1,2
344,216,30183,1,0
448,168,30821,5,0
392,272,31460,1,0
264,280,32098,1,0
160,216,32736,1,2
40,232,33374,5,0
128,304,34013,1,0
248,328,34651,1,0
368,296,35289,1,0
368,296,35608,1,0
368,296,35928,1,4
408,216,36885,6,0,B|408:216|299:109|145:342|16:200,1,400
168,144,39438,5,0
312,200,40396,1,2
304,320,41034,2,0,B|304:320|160:320|80:192,1,240
248,160,42949,1,2
152,72,43587,5,0
80,176,44226,1,2
176,272,44864,1,0
184,160,45502,5,0
184,160,45821,1,0
184,160,46140,1,4
144,88,57630,6,0,B|144:88|88:200|248:352|408:312,1,400
304,192,60183,5,0
304,192,60502,1,2
256,192,61779,12,2,64013
288,344,67168,1,0
168,288,67806,1,2
128,240,68125,1,2
112,184,68444,1,6
248,72,69721,5,0
304,184,70359,1,2
336,240,70678,1,2
272,240,70998,1,6
96,184,72274,5,0
96,184,72912,2,2,B|96:184|97:69|182:-44|380:-44|514:56|513:303|417:418|195:420|102:325|96:208,1,960
216,272,77381,5,0
168,160,78019,1,2
208,112,78338,1,2
264,104,78657,1,6
312,296,79934,6,4,B|312:296|216:296|136:224,2,160
328,128,82168,5,0
208,176,82806,2,0,B|208:176|210:312|384:336,1,240
432,208,84402,2,2,B|432:208|439:107|336:6|195:6|86:116|88:291|240:352,1,640
352,304,87593,5,4
424,128,88870,1,0
304,128,89508,1,2
240,128,89827,1,0
176,128,90147,1,4
64,272,91423,5,0
192,272,92061,1,2
312,272,92700,1,4
352,88,93976,5,0
296,112,94295,1,0
256,192,94615,12,4,97182
256,264,98139,1,0
104,224,99894,5,2
