osu file format v5

[General]
AudioFilename: heismymaster.MP3
AudioLeadIn: 507
PreviewTime: -1
Countdown: 0
SampleSet: Normal
StackLeniency: 0.7
Mode: 0
LetterboxInBreaks: 1
EditorDistanceSpacing: 1

[Metadata]
Title:TRUST
Artist:Masami Okui
Creator:TheSwordUser
Version:Novice
Source:Kore ga Watashi no Goshujin-sama
Tags:he is my master trust Kore ga Watashi no Goshujin-sama opening

[Difficulty]
HPDrainRate:5
CircleSize:4
OverallDifficulty:5
SliderMultiplier:0.999999999999999
SliderTickRate:1

[Events]
//Background and Video events
0,0,"HIMM.png"
1,0,"cvt_heismymaster.avi"
//Break Periods
2,17918,25411
2,83704,85859
//Storyboard Layer 0 (Background)
//Storyboard Layer 1 (Failing)
//Storyboard Layer 2 (Passing)
//Storyboard Layer 3 (Foreground)
//Storyboard Sound Samples
//Background Colour Transformations
3,100,163,162,255

[TimingPoints]
3504,444.444444444444,4,1,0,50,1,0

[HitObjects]
192,288,3281,1,0
240,288,3504,2,0,B|368:288|384:48,1,300
464,16,5282,5,0
256,16,6170,1,0
48,16,7059,2,0,B|48:272|304:272,1,400,0|0
112,48,10615,5,8
256,192,11504,1,8
400,336,12393,1,8
400,128,13282,1,8
256,128,13948,1,8
256,176,14170,1,12
256,192,14615,12,4,17726
448,64,26615,5,8
240,64,27504,1,8
32,64,28393,1,8
32,304,30170,5,8
224,304,31059,1,8
416,304,31948,2,8,B|544:304|544:208|416:240,1,200
432,32,33726,5,0
304,176,34615,1,0
160,32,35504,1,2
32,176,36393,1,2
112,16,37281,5,2
208,16,37726,1,0
336,288,39059,2,0,B|208:288|48:176,1,300
16,192,40615,5,0
16,144,40837,2,0,B|16:16|144:16,1,200,0|2
336,16,42615,5,2
400,80,43059,1,2
464,144,43504,1,2
400,208,43948,1,2
336,144,44393,2,2,B|336:272|208:272,1,200,2|6
400,96,47948,5,8
192,96,48837,1,8
384,32,49726,1,8
176,32,50615,1,8
0,128,51504,1,8
80,128,51837,2,8,B|80:320|304:320,1,325
480,320,54837,5,0
432,320,55059,2,0,B|240:320|208:128,1,300,0|0
128,192,56837,6,2,B|96:128|128:96,4,99.9999999999999,2|2|2|2|2
224,368,61281,6,0,B|96:368|96:240,1,200
96,48,63059,2,0,B|96:176|224:176,1,200,0|0
416,224,64837,1,0
416,16,65726,1,0
416,96,66059,2,0,B|416:288|192:288,1,325,0|4
416,48,69059,5,0
368,48,69281,2,0,B|224:48|224:224,1,250
224,368,71059,5,8
224,160,71948,1,8
416,160,72837,1,8
416,240,73170,2,8,B|512:240|512:144|480:112|384:112|288:112,1,325,8|12
0,32,76393,5,8
144,176,77281,1,8
272,320,78170,1,8
432,192,79059,1,8
288,192,79726,1,8
240,192,79948,1,12
256,192,80170,12,4,83504
256,144,87059,5,0
256,288,87726,1,0
