osu file format v5

[General]
AudioFilename: heismymaster.MP3
AudioLeadIn: 507
PreviewTime: -1
Countdown: 0
SampleSet: Normal
StackLeniency: 0.7
Mode: 0
LetterboxInBreaks: 1
EditorDistanceSpacing: 1

[Metadata]
Title:TRUST
Artist:Masami Okui
Creator:TheSwordUser
Version:Advanced
Source:Kore ga Watashi no Goshujin-sama
Tags:he is my master trust Kore ga Watashi no Goshujin-sama opening

[Difficulty]
HPDrainRate:8
CircleSize:5
OverallDifficulty:6
SliderMultiplier:1.4
SliderTickRate:1

[Events]
//Background and Video events
0,0,"HIMM.png"
Video,0,"cvt_heismymaster.avi"
//Break Periods
2,17918,25411
2,83704,86009
//Storyboard Layer 0 (Background)
//Storyboard Layer 1 (Fail)
//Storyboard Layer 2 (Pass)
//Storyboard Layer 3 (Foreground)
//Storyboard Sound Samples
//Background Colour Transformations
3,100,163,162,255

[TimingPoints]
3504,444.444444444444,4,1,0,50,1,0

[HitObjects]
64,48,3282,1,0
112,48,3504,2,0,B|272:48|336:160|272:304|160:320,1,420
128,256,5059,5,8
80,208,5281,1,8
176,96,5726,1,8
256,208,6170,1,8
336,96,6615,1,8
416,208,7059,2,8,B|544:208|544:80|544:0|400:0|304:0|320:160|320:256,1,560
256,256,9059,6,0,B|256:128,1,105
320,144,9615,2,0,B|432:144,1,105
416,80,10170,1,0
352,80,10393,1,0
384,16,10615,1,4
176,16,11281,5,0
176,48,11393,1,0
176,80,11504,1,2
176,288,12170,1,0
208,288,12281,1,0
240,288,12393,1,4
432,80,13281,1,0
368,160,13615,1,0
288,224,13948,1,0
256,160,14170,1,4
256,192,14393,12,4,17726
32,64,26393,5,0
96,64,26615,1,0
304,64,27281,1,0
368,64,27504,2,0,B|448:64,1,70
432,128,27948,1,0
432,192,28170,1,0
368,192,28393,1,0
304,192,28615,1,0
272,192,28726,1,0
48,128,30170,5,0
256,128,30837,1,0
320,128,31059,1,0
384,128,31281,1,0
384,192,31504,1,0
384,256,31726,1,0
320,256,31948,1,0
256,256,32170,2,0,B|192:256,1,35,0|0
64,320,33504,5,2
64,256,33726,1,2
64,48,34393,1,2
128,48,34615,1,2
192,48,34837,1,2
192,112,35059,2,2,B|272:112,1,70
320,160,35504,2,2,B|448:256,1,140
432,320,36170,1,2
368,320,36393,1,2
368,176,36837,5,0
224,176,37281,1,0
80,176,37726,1,0
80,240,37948,2,0,B|80:320,1,70
144,320,38393,1,0
208,320,38615,1,0
272,320,38837,1,0
336,352,39059,2,0,B|432:416|512:384|544:272|528:176|432:128,1,420
432,64,40615,5,8
400,80,40726,1,8
368,96,40837,2,8,B|432:144|416:224|320:256|240:144,1,280
96,0,42393,5,2
160,0,42615,1,2
304,0,43059,1,2
304,144,43504,1,2
304,288,43948,1,2
160,288,44393,2,2,B|48:288,1,105
112,192,45059,1,2
112,160,45281,2,2,B|112:64|192:32|256:128|336:48,1,280,2|6
448,96,47948,5,8
352,272,48615,2,8,B|288:272,2,35
240,96,49504,2,8,B|176:96,2,35
32,96,50393,1,8
32,160,50615,2,8,B|256:160,1,210
304,160,51504,1,8
400,160,51837,2,8,B|240:272|176:64|304:-16|336:-16|448:80|448:80|448:96,1,455
448,192,53615,6,8,B|352:192,1,70
96,320,54837,5,0
160,320,55059,2,0,B|304:320|304:112,1,280
96,112,56615,5,0
160,112,56837,2,0,B|208:192|160:256,1,140
32,192,57726,2,0,B|-16:256|48:320,1,140
176,272,58615,2,0,B|320:272|416:208|416:96|304:48|176:48|80:48,1,560
80,112,60615,5,2
144,112,60837,1,0
176,112,60948,1,0
240,112,61170,2,0,B|240:192,1,70
240,288,61726,1,0
304,288,61948,1,0
368,288,62170,2,2,B|368:240,2,35
368,144,62837,1,2
368,80,63059,1,2
80,80,63948,6,0,B|80:128,2,35
224,80,64615,1,0
224,144,64837,1,0
160,176,65059,2,0,B|304:176,1,140
304,112,65726,1,0
304,0,66059,2,0,B|416:112|400:224|304:304|208:288,1,385
160,288,67504,1,0
160,144,67948,2,0,B|240:144,1,70
368,144,68615,1,0
240,224,69059,5,0
240,160,69281,2,0,B|144:128|112:224|160:304|272:320|368:288|400:192,1,420
400,128,70837,5,8
336,128,71059,1,8
192,128,71504,1,10
48,128,71948,1,10
48,272,72393,1,10
192,272,72837,1,10
288,272,73170,2,10,B|208:368|96:320|128:192|160:96|320:64,1,455
336,0,74837,5,2
272,0,75059,1,2
304,64,75281,2,2,B|160:64,1,140
160,128,75948,5,8
160,192,76170,1,8
160,256,76393,1,8
368,256,77059,1,10
400,256,77170,1,10
384,224,77281,1,10
400,16,77948,1,10
368,16,78059,1,10
384,48,78170,1,10
448,320,79059,5,8
352,256,79393,1,8
256,192,79726,1,8
256,128,79948,1,12
256,192,80170,12,4,83504
144,192,87059,5,0
256,192,87393,1,12
368,192,87726,1,4
