osu file format v5

[General]
AudioFilename: rondo-revolution.mp3
AudioLeadIn: 967
PreviewTime: -1
Countdown: 1
SampleSet: Soft
StackLeniency: 0.7
Mode: 0
LetterboxInBreaks: 1

[Editor]
Bookmarks: 1656
DistanceSpacing: 0.899999976158142
BeatDivisor: 4
GridSize: 8

[Metadata]
Title:Rondo-Revolution
Artist:Masami Okui
Creator:avira0922
Version:Easy
Source:Syoujyo Kakumei Utena
Tags:Anime

[Difficulty]
HPDrainRate:3
CircleSize:3
OverallDifficulty:3
SliderMultiplier:1.4
SliderTickRate:2

[Events]
//Background and Video events
0,0,"utena.png"
Video,0,"rondo-revolution.wmv"
//Break Periods
2,22726,27884
2,41711,42884
//Storyboard Layer 0 (Background)
//Storyboard Layer 1 (Fail)
//Storyboard Layer 2 (Pass)
//Storyboard Layer 3 (Foreground)
//Storyboard Sound Samples
//Background Colour Transformations
3,100,147,30,91

[TimingPoints]
1199,468.75,4,2,0,100,1,0
7058,-100,4,1,0,100,0,0
39402,-100,4,1,0,81,0,0
41248,-100,4,1,0,100,0,0
56511,-100,4,2,0,100,0,0
58859,-100,4,1,0,100,0,0
61433,-100,4,1,0,79,0,0
62136,-100,4,1,0,100,0,0
71511,-100,4,2,0,100,0,0
74089,-100,4,1,0,0,0,0
76199,-100,4,1,0,100,0,1

[Colours]
Combo1 : 128,0,255
Combo2 : 255,0,255
Combo3 : 255,255,255
Combo4 : 255,0,128

[HitObjects]
64,64,1667,1,2
64,192,2136,1,0
64,320,2605,2,0,B|224:320,1,140,2|0
328,320,3542,5,2
456,320,4011,1,0
456,192,4480,2,0,B|304:192,1,140,2|0
192,192,5417,6,0,B|120:256|216:336,3,140,2|2|2|2
256,192,7292,12,4,8230
88,224,9167,6,0,B|240:224,3,140,0|8|0|8
280,336,11042,2,0,B|128:336,3,140,0|8|0|8
136,208,12917,5,0
264,208,13386,1,8
392,208,13855,1,4
264,336,14792,6,0,B|104:336,2,140,0|8|0
120,208,16667,5,0
248,208,17136,1,8
248,80,17605,1,0
376,80,18074,1,8
376,208,18542,2,0,B|376:328|376:328|208:328,1,280,0|8
208,200,19949,6,0,B|40:200,2,140,0|0|4
256,80,21355,5,0
256,80,21589,1,0
384,80,22058,2,0,B|384:160,2,70
80,104,29324,5,8
208,104,29792,1,0
336,104,30261,1,8
336,232,30730,2,0,B|336:312,2,70,8|8|8
208,232,31667,5,0
80,232,32136,1,8
80,104,32605,2,0,B|136:56|168:144|224:104,1,140,0|4
336,112,33542,6,0,B|312:192|408:144|376:256,1,140,0|8
296,328,34480,2,0,B|248:256|216:368|152:320,1,140,0|8
176,200,35417,1,0
176,72,35886,1,8
304,72,36355,2,0,B|408:72,2,70,0|0|8
176,72,37292,5,0
176,200,37761,1,8
176,328,38230,1,0
304,328,38699,2,0,B|229:224|392:186|300:63,1,280,0|4
176,64,40105,2,0,B|96:112|32:56,2,140,0|0|4
304,64,41511,1,4
464,320,44324,6,0,B|344:248|192:320,1,280,0|4
120,216,45730,2,0,B|120:144,2,70,8|0|8
248,216,46667,1,0
376,216,47136,1,8
376,88,47605,2,0,B|480:88,2,70,0|8|0
264,144,48542,5,4
152,208,49011,6,0,B|104:272|160:360,2,140,0|8|0
280,208,50417,2,0,B|320:272|280:352,2,140,0|8|0
152,208,51824,1,8
152,80,52292,6,0,B|224:136|288:72,1,140,0|8
408,80,53230,1,0
408,208,53699,1,8
280,208,54167,2,0,B|136:208,1,140,0|8
176,328,55105,2,0,B|32:328,2,140,0|8|4
227,152,56745,6,0,B|168:92|95:186|162:252|255:304|255:304|341:267|412:166|359:83|283:159,1,560,6|4
256,32,59089,5,0
256,216,59792,1,4
152,288,60261,2,0,B|152:192,1,70,0|8
344,216,61199,1,4
472,216,61667,1,0
280,216,62370,1,4
40,16,63542,6,0,B|40:256,2,210,0|0|4
120,112,65417,2,0,B|336:112,1,210,0|4
496,200,66824,5,0
448,320,67292,2,0,B|224:320,1,210,0|4
128,168,68699,1,0
240,112,69167,2,0,B|240:328,1,210,0|4
376,192,70574,1,0
248,192,71042,1,0
248,192,71277,1,0
248,64,71745,6,0,B|357:74|412:160|408:266|357:298|314:318|246:356|158:340|137:278|94:224|114:162,1,560,6|6
256,192,74324,12,4,75964
128,64,76667,5,8
256,64,77136,1,0
256,192,77605,1,8
384,192,78074,1,0
384,320,78542,2,0,B|224:320,2,140,8|0|8
384,64,80417,5,8
384,192,80886,1,0
256,192,81355,1,8
256,320,81824,1,0
128,320,82292,2,0,B|128:224,3,70,0|8|0|12
128,136,83933,6,0,B|200:88|256:160|344:104,1,210,0|4
456,112,85105,2,4,B|488:160|424:200|456:248,1,140
328,248,86042,2,0,B|200:248|200:344|56:344,1,280,0|4
72,216,87449,5,0
200,216,87917,2,0,B|200:120,2,70,0|0|4
328,216,88855,2,0,B|488:216,1,140
464,280,89558,1,4
400,280,89792,2,0,B|352:280,3,35
