osu file format v5

[General]
AudioFilename: Kiss in the Dark.mp3
AudioLeadIn: 1500
PreviewTime: 55230
Countdown: 0
SampleSet: Soft
StackLeniency: 0.7
Mode: 0
LetterboxInBreaks: 1
EditorBookmarks: 7455,23608,38839,55454,81300

[Metadata]
Title:Kiss in the Dark
Artist:Masami Okui
Creator:vytalibus
Version:Kakurine (Easy)
Source:
Tags:Eretzvaju Evil Zone

[Difficulty]
HPDrainRate:6
CircleSize:4
OverallDifficulty:5
SliderMultiplier:0.8
SliderTickRate:1

[Events]
//Background and Video events
0,0,"evilzonemisc038.jpg"
1,-128,"Kiss in the Dark_xvid.avi"
//Break Periods
2,16887,22752
2,77702,80110
2,103551,105959
//Storyboard Layer 0 (Background)
//Storyboard Layer 1 (Failing)
//Storyboard Layer 2 (Passing)
//Storyboard Layer 3 (Foreground)
//Storyboard Sound Samples
//Background Colour Transformations
3,100,163,162,255

[TimingPoints]
70,461.591722121783,4,2,0,100,1,0
16456,-100,4,1,0,80,0,0
23611,-100,4,2,0,100,0,0
38612,-100,4,1,0,80,0,0
55461,-100,4,1,0,80,0,1
79463,-100,4,2,0,100,0,0
88695,-100,4,1,0,80,0,1

[HitObjects]
256,192,7917,1,8
104,136,8840,1,8
256,192,9763,5,8
312,40,10686,1,8
256,192,11609,5,8
408,248,12532,1,8
256,192,13455,5,8
200,344,14379,1,8
256,192,14840,12,4,16687
96,256,24072,6,0,C|272:256,1,160
176,112,25919,2,0,C|272:112,2,80
416,256,27765,6,0,C|240:256,1,160
336,112,29612,2,0,C|240:112,2,80
488,192,31458,6,0,B|448:232|392:152|336:192,1,160
176,192,33304,6,0,B|136:232|80:152|24:192,1,160
256,192,35150,12,4,38382
416,192,39305,5,2
416,272,39766,1,0
336,272,40228,1,2
256,272,40690,1,0
256,192,41151,1,2
256,112,41613,1,0
256,112,41844,1,0
256,112,42074,1,2
96,112,42998,5,2
96,32,43459,1,0
176,32,43921,1,2
256,32,44382,2,2,B|256:360,1,320,2|4
336,352,46690,5,2
256,352,47152,1,0
176,352,47613,1,2
176,272,48075,2,0,B|352:272,1,160,0|4
360,112,49921,5,4
360,112,50268,1,4
360,112,50614,1,4
160,112,51768,5,4
160,112,52115,1,4
160,112,52461,1,4
256,192,52691,12,4,55461
256,192,55922,5,4
256,192,56384,1,4
256,112,56845,5,8
256,112,57076,1,8
256,112,57307,2,0,B|336:112,2,60
256,112,58230,1,4
136,216,59153,6,0,B|136:288,2,60
256,216,60538,1,2
336,216,61000,2,8,B|336:288,4,60
336,136,62846,5,4
256,136,63308,1,4
176,136,63769,1,4
176,216,64231,1,8
256,216,64692,2,0,B|256:288,1,60
256,336,65385,1,0
256,336,65616,1,4
304,184,66539,5,0
360,128,67000,1,0
304,72,67462,1,0
208,184,68385,1,0
152,128,68846,1,0
208,72,69308,1,0
256,192,70231,12,4,72078
256,320,73463,6,2,B|256:224,1,80,2|4
368,192,74617,2,0,B|152:192,1,200,0|4
256,192,76232,12,4,77502
256,136,81310,5,0
176,136,81771,1,2
336,136,82694,1,2
256,272,83618,1,2
256,272,84079,1,4
256,112,85002,6,0,B|256:48,2,60
256,192,86156,1,0
256,192,86387,1,0
256,192,86849,12,4,88695
256,192,89157,5,4
256,192,89618,1,4
176,192,90080,1,8
216,120,90541,2,0,B|283:125|352:141|336:192,1,160,0|4
256,32,92388,5,0
256,112,92849,1,0
256,192,93311,1,0
256,352,94234,1,0
256,272,94695,1,0
256,192,95157,1,0
256,192,96081,12,4,97927
256,288,99312,6,6,B|256:80,1,200,2|4
256,192,101620,12,4,103351
320,104,107159,5,4
256,192,108082,12,2,110390
256,32,110967,6,0,B|256:208,1,160,0|4
