osu file format v5

[General]
AudioFilename: Kiss in the Dark.mp3
AudioLeadIn: 1500
PreviewTime: 55230
Countdown: 0
SampleSet: Soft
StackLeniency: 0.7
Mode: 0
LetterboxInBreaks: 1
EditorBookmarks: 7455,23608,38839,55454,81300
EditorDistanceSpacing: 1

[Metadata]
Title:Kiss in the Dark
Artist:Masami Okui
Creator:vytalibus
Version:Ihadulca (Hard)
Source:
Tags:Eretzvaju Evil Zone

[Difficulty]
HPDrainRate:6
CircleSize:5
OverallDifficulty:7
SliderMultiplier:1.4
SliderTickRate:2

[Events]
//Background and Video events
0,0,"evilzonemisc038.jpg"
1,-128,"Kiss in the Dark_xvid.avi"
//Break Periods
2,16887,22941
2,77702,80410
2,103551,106259
//Storyboard Layer 0 (Background)
//Storyboard Layer 1 (Failing)
//Storyboard Layer 2 (Passing)
//Storyboard Layer 3 (Foreground)
//Storyboard Sound Samples
//Background Colour Transformations
3,100,163,162,255

[TimingPoints]
70,461.591722121783,4,2,0,100,1,0
16456,-100,4,1,0,80,0,0
23611,-100,4,2,0,100,0,0
38612,-100,4,1,0,80,0,0
44267,-200,4,1,0,80,0,0
46459,-100,4,1,0,80,0,0
55461,-100,4,1,0,80,0,1
79463,-100,4,2,0,100,0,0
88695,-100,4,1,0,80,0,1

[HitObjects]
256,56,7455,5,4
392,56,7917,1,8
112,56,8840,1,8
392,336,9763,1,8
112,336,10686,1,8
256,56,11609,5,8
112,192,12532,1,8
392,192,13456,1,8
256,336,14379,1,8
256,192,14840,12,4,16687
48,192,23841,5,0
120,192,24072,2,0,B|120:144|56:136,1,70,2|0
48,136,24418,2,0,B|40:96|104:88,1,70
120,88,24765,1,0
464,192,25919,6,0,B|432:192|416:144,1,70,2|0
424,112,26265,1,0
368,72,26496,1,0
312,32,26726,1,0
176,192,27419,5,0
176,192,27534,1,0
176,192,27650,1,0
176,192,27765,2,0,B|152:232|104:240,1,70,2|0
136,264,28111,2,0,B|70:285|78:309,1,70
80,336,28457,1,0
336,192,29381,5,0
408,192,29611,2,2,B|408:312,2,105
480,192,30535,2,4,B|480:272,1,70
480,296,30881,1,4
480,192,31227,5,0
408,192,31458,2,0,B|352:192|352:160,1,70,2|0
312,160,31804,2,0,B|312:104|280:104,1,70
256,80,32150,1,0
32,192,33073,5,0
104,192,33304,2,0,B|160:192|160:160,1,70,2|0
200,160,33650,2,0,B|200:104|232:104,2,70
256,72,34458,1,4
256,176,34804,1,4
256,280,35150,1,4
256,72,35843,5,0
256,144,36074,1,0
256,248,36420,1,0
256,192,36766,12,4,38382
256,192,38843,5,4
240,328,39305,1,0
184,280,39536,1,0
128,232,39766,2,8,B|216:144,2,105
72,184,40690,2,8,B|160:96,2,105
16,136,41613,1,2
16,136,41728,1,2
16,136,41959,1,2
328,280,42536,5,4
328,136,42998,1,0
400,136,43228,1,0
400,64,43459,1,8
328,136,43805,1,8
256,64,44152,1,8
256,64,44382,2,2,B|256:360,1,280,2|4
96,120,46690,5,0
40,168,46921,1,0
96,216,47152,2,8,B|184:128,2,105
152,264,48075,2,2,B|232:184,2,105
208,312,48998,1,4
256,112,49691,5,0
256,112,49806,1,0
256,112,49921,1,4
256,112,50268,1,4
256,112,50614,1,4
256,312,51537,5,0
256,312,51652,1,0
256,312,51768,2,2,B|376:312,1,105
464,312,52460,1,2
464,240,52691,2,2,B|336:240,1,105
256,192,53383,12,2,54999
256,344,55230,5,8
256,304,55345,1,8
256,264,55461,1,4
256,120,55922,1,4
256,192,56153,1,0
256,192,56268,1,4
176,120,56614,5,0
104,120,56845,2,0,B|104:176|64:160,1,70
64,232,57307,1,2
120,320,57653,1,2
192,248,57999,1,2
232,304,58230,1,2
256,24,58692,5,4
256,96,58922,5,0
256,96,59038,1,0
256,96,59153,2,0,B|384:96,2,105
192,128,60076,1,0
168,192,60307,1,8
112,232,60538,1,0
88,296,60769,1,8
48,352,61000,1,2
144,304,61346,1,2
240,256,61692,1,2
328,200,62038,1,2
416,144,62384,1,2
416,144,62615,1,2
416,72,62846,5,4
344,72,63077,1,0
272,72,63308,1,4
200,72,63538,1,0
200,72,63654,1,4
200,176,64000,5,0
272,176,64231,1,0
344,176,64462,1,0
416,176,64692,1,2
344,248,65039,1,2
272,176,65385,1,2
200,176,65616,1,2
256,48,66077,5,4
184,48,66308,5,0
184,48,66423,1,0
184,48,66539,1,0
80,48,66885,1,0
8,48,67116,1,0
8,48,67231,1,0
328,336,68385,5,0
432,336,68731,1,0
504,336,68962,1,0
504,336,69077,1,0
256,88,70231,5,2
344,296,70578,5,2
136,144,70924,5,2
376,144,71270,5,2
168,296,71616,5,2
256,296,71847,1,2
256,192,72078,12,4,73924
120,328,74617,6,0,B|360:64,1,350,0|4
408,112,76001,1,0
448,168,76232,1,8
448,168,76348,1,8
448,240,76578,2,0,B|336:240,1,105
272,240,77155,1,0
168,240,77502,1,4
256,192,81310,5,0
256,192,81771,1,0
256,192,82002,1,0
256,192,82117,1,0
256,88,82464,5,0
320,64,82694,1,2
384,40,82925,1,0
448,16,83156,1,0
432,120,83502,1,0
360,200,83848,1,0
296,232,84079,1,2
88,192,84772,5,0
88,192,84887,1,0
88,192,85002,1,0
160,120,85349,1,0
232,192,85695,1,2
352,120,86156,1,0
352,192,86387,1,0
352,264,86618,1,2
256,192,86849,12,4,88695
256,192,88926,5,0
256,192,89157,1,4
256,192,89387,1,0
256,192,89503,1,4
336,264,89849,5,0
408,264,90080,2,0,B|408:208|448:224,1,70
448,152,90541,1,2
392,64,90888,1,2
320,136,91234,1,2
280,80,91465,1,2
256,336,91926,5,4
184,336,92157,5,0
184,336,92272,1,0
184,336,92388,1,0
80,336,92734,1,0
8,336,92965,1,0
8,336,93080,1,0
328,48,94234,5,0
432,48,94580,1,0
432,152,94927,1,0
256,296,96081,5,2
344,88,96427,5,2
136,240,96773,5,2
376,240,97119,5,2
168,88,97465,5,2
256,88,97696,1,2
256,192,97927,12,4,99773
256,336,100466,6,0,C|272:280|248:232|280:176|248:122|280:64|256:32,1,350,0|4
184,40,101850,1,0
128,80,102081,1,8
128,80,102197,1,8
120,152,102427,2,0,C|120:264,1,105
192,256,103004,1,0
256,168,103351,1,4
328,96,107159,5,4
256,192,108082,12,8,110390
256,64,110967,5,0
256,96,111082,1,0
256,128,111198,1,0
256,160,111313,1,0
256,192,111429,1,0
256,224,111544,1,0
256,256,111659,1,0
256,328,111890,1,4
