osu file format v8

[General]
AudioFilename: Revolutionary Girl Utena - Rinbu_Revolution.mp3
AudioLeadIn: 2000
PreviewTime: 24595
Countdown: 0
SampleSet: Normal
StackLeniency: 0.7
Mode: 0
LetterboxInBreaks: 1

[Editor]
DistanceSpacing: 1
BeatDivisor: 4
GridSize: 8

[Metadata]
Title:-rinbu- revolution (TV Size)
Artist:Masami Okui
Creator:Louis Cyphre
Version:Normal
Source:Revolutionary Girl Utena
Tags:

[Difficulty]
HPDrainRate:3
CircleSize:3
OverallDifficulty:3
ApproachRate:3
SliderMultiplier:1
SliderTickRate:2

[Events]
//Background and Video events
0,0,"BG.jpg"
//Break Periods
//Storyboard Layer 0 (Background)
//Storyboard Layer 1 (Fail)
//Storyboard Layer 2 (Pass)
//Storyboard Layer 3 (Foreground)
//Storyboard Sound Samples
//Background Colour Transformations
3,100,163,162,255

[TimingPoints]
722,468.49379245725,4,2,0,23,1,0
8217,-100,4,1,1,23,0,1
10429,-100,4,1,2,54,0,1
10663,-100,4,1,1,53,0,1
16054,-100,4,1,2,53,0,1
16288,-100,4,1,1,53,0,1
21335,-100,4,1,1,53,0,0
39491,-100,4,1,2,53,0,0
39726,-100,4,1,1,53,0,0
42304,-100,4,1,2,53,0,0
42538,-100,4,1,1,53,0,0
44179,-100,4,1,2,53,0,0
44413,-100,4,1,1,53,0,0
46054,-100,4,1,2,53,0,0
46288,-100,4,1,1,53,0,0
56941,-100,4,1,1,53,0,1
59179,-100,4,1,2,53,0,1
59413,-100,4,1,1,53,0,1
66679,-100,4,1,2,53,0,1
66913,-100,4,1,1,53,0,1
70059,-100,4,1,1,53,0,0
71933,-100,4,1,1,53,0,1
76991,-100,4,1,2,53,0,1
77226,-100,4,1,1,53,0,1
87744,-100,4,1,1,53,0,0

[Colours]
Combo1 : 187,0,0
Combo2 : 192,192,192
Combo3 : 28,228,234

[HitObjects]
56,288,722,2,2,C|168:288,1,100
256,288,1658,1,2
256,192,2127,1,2
256,96,2595,2,2,C|144:96,2,100
360,96,4001,1,2
256,192,4235,12,2,7046
96,200,8217,6,0,B|224:200,1,100,4|8
248,200,8920,1,0
296,200,9154,2,0,B|424:200,1,100,0|8
480,176,10091,2,0,B|480:48|344:48,1,200
256,64,11497,6,0,B|256:184,3,100,8|0|8|0
256,264,13371,2,0,B|128:264|128:128,2,200,8|8|8
304,264,15479,5,0
304,264,15713,2,0,B|448:264|448:112,1,200
352,104,17119,2,0,B|352:176|272:176,2,100,8|0|8
352,56,18290,1,0
304,56,18524,1,0
200,56,18993,6,0,B|200:160,1,100,8|0
200,256,19930,2,0,B|200:368,1,100,8|0
304,352,20867,2,0,B|304:248,1,100,8|4
256,192,21569,12,0,24146
432,80,24849,5,0
384,80,25083,2,0,B|264:80,3,100,4|8|0|8
184,80,26957,2,0,B|72:80,3,100,0|8|0|8
40,168,28831,1,0
120,232,29300,6,0,B|224:232,1,100,8|0
320,232,30237,2,0,B|464:232,1,100,8|0
416,128,31174,1,8
416,24,31642,1,0
312,24,32111,1,8
216,24,32579,2,0,B|104:24,2,100,4|8|0
216,128,33985,5,8
216,224,34453,1,0
216,320,34922,2,0,B|352:320,1,100,8|0
368,320,35624,1,0
416,320,35859,2,0,B|416:200,2,100,8|0|8
256,192,37733,6,0,B|144:192,2,100,8|0|8
360,192,39138,1,0
408,192,39372,2,0,B|408:342,1,150,0|4
312,336,40543,1,8
208,336,41012,1,0
112,328,41480,6,0,B|49:287|161:151|113:87,1,250,8|0
216,64,43120,2,0,B|216:160,1,50,0|8
312,88,43823,6,0,B|264:152|376:288|304:336,1,250
264,328,45228,2,0,B|224:390|88:278|26:324,1,250,8|0
88,184,47102,6,0,B|88:48,1,100,8|4
192,88,48039,1,8
192,88,48274,1,0
344,88,48976,2,0,B|344:208,1,100,8|0
248,192,49913,1,8
248,192,50148,1,0
336,312,50850,6,0,B|456:312,2,100,8|0|8
256,184,52490,5,0
256,136,52724,1,8
256,88,52959,1,0
256,192,53193,12,4,55770
64,192,56707,5,0
112,192,56941,2,0,B|248:192,3,100,4|8|0|8
312,192,58815,2,0,B|440:192|440:72,1,200
344,96,60220,1,8
256,48,60689,6,0,B|208:32|152:48,2,100,0|8|0
328,48,61977,2,0,B|328:144,1,75
248,232,62797,5,0
208,200,63031,1,8
160,184,63265,2,0,B|80:217|86:302,1,150,0|8
136,320,64202,6,0,B|200:352|256:320,1,125
328,320,65139,2,0,B|376:352|424:320,1,100
448,224,66076,5,0
448,176,66311,1,0
448,128,66545,2,0,B|448:48|360:48,1,100
344,48,67248,1,0
256,88,67716,6,0,B|256:288,1,200,8|8
160,264,69122,2,0,B|160:176,1,75
160,112,69824,2,0,B|160:48,1,50,0|4
256,80,70527,5,4
352,64,70996,1,0
408,144,71464,1,8
408,192,71698,6,0,L|408:304,1,100
312,288,72635,1,0
312,240,72870,2,0,B|312:128,1,100,0|8
256,56,73807,2,0,B|128:56,2,100,0|8|0
336,120,75212,1,8
360,168,75446,1,0
376,216,75681,6,0,B|376:320,1,100,0|8
272,320,76617,1,0
224,320,76852,2,0,B|112:320,1,100
104,224,77789,5,0
104,176,78023,1,8
104,128,78257,1,4
192,256,78960,1,8
288,240,79428,6,0,B|288:368,1,100,0|8
392,344,80365,2,0,B|392:244,1,100,0|8
392,144,81302,2,0,B|392:44,2,100,0|8|0
288,144,82708,6,0,B|200:56|112:144,1,200,8|8
112,240,84113,2,0,B|112:340,1,100,0|8
256,192,85050,12,4,87744
