osu file format v8

[General]
AudioFilename: Revolutionary Girl Utena - Rinbu_Revolution.mp3
AudioLeadIn: 2000
PreviewTime: 24595
Countdown: 0
SampleSet: Normal
StackLeniency: 0.7
Mode: 0
LetterboxInBreaks: 1

[Editor]
DistanceSpacing: 1.1
BeatDivisor: 4
GridSize: 8

[Metadata]
Title:-rinbu- revolution (TV Size)
Artist:Masami Okui
Creator:Louis Cyphre
Version:Insane
Source:Revolutionary Girl Utena
Tags:

[Difficulty]
HPDrainRate:5
CircleSize:5
OverallDifficulty:8
ApproachRate:8
SliderMultiplier:1.6
SliderTickRate:2

[Events]
//Background and Video events
0,0,"BG.jpg"
//Break Periods
//Storyboard Layer 0 (Background)
//Storyboard Layer 1 (Fail)
//Storyboard Layer 2 (Pass)
//Storyboard Layer 3 (Foreground)
//Storyboard Sound Samples
//Background Colour Transformations
3,100,163,162,255

[TimingPoints]
722,468.49379245725,4,2,0,20,1,0
7720,-100,4,1,1,25,0,0
8217,-100,4,1,1,25,0,1
13462,-100,4,2,1,55,0,1
15337,-100,4,1,1,55,0,1
21335,-100,4,1,1,55,0,0
21665,-100,4,2,1,53,0,0
22602,-100,4,1,1,53,0,0
23540,-100,4,2,1,53,0,0
24712,-100,4,1,1,53,0,0
32446,-200,4,1,1,53,0,0
33501,-100,4,1,1,53,0,0
53540,-100,4,1,2,53,0,0
53774,-100,4,1,1,53,0,0
56941,-100,4,1,1,53,0,1
70059,-100,4,1,1,53,0,0
71926,-100,4,1,1,53,0,1
84477,-100,4,1,2,53,0,1
84712,-100,4,1,1,53,0,1
85415,-100,4,2,1,53,0,1
86821,-100,4,1,2,53,0,1
87055,-100,4,2,2,53,0,1
87290,-100,4,1,1,53,0,1
87817,-100,4,2,2,53,0,1
88052,-100,4,2,2,48,0,1
88169,-100,4,2,2,43,0,1
88286,-100,4,2,2,38,0,1
88403,-100,4,2,2,33,0,1
88520,-100,4,2,2,28,0,1
88637,-100,4,2,2,23,0,1
88681,-100,4,2,2,23,0,0

[Colours]
Combo1 : 187,0,0
Combo2 : 192,192,192
Combo3 : 28,228,234

[HitObjects]
136,200,487,2,0,B|168:232,3,26.6666666666667,0|0|0|2
232,184,956,1,2
248,96,1190,2,0,B|288:112|336:96,1,80,10|2
408,128,1658,1,2
432,208,1893,2,0,B|408:248|408:304,1,80,0|10
320,304,2361,2,0,B|232:304,1,80,0|2
168,248,2830,5,0
104,192,3064,1,10
168,128,3298,1,0
232,184,3532,2,0,B|328:184,1,80,2|2
376,120,4001,1,10
320,56,4235,1,2
232,40,4469,1,2
152,72,4704,6,0,B|120:96|72:96,1,80,0|10
48,176,5172,2,2,B|80:200|128:200,1,80
152,280,5641,1,0
232,320,5875,1,10
312,280,6109,2,0,B|376:280,2,40,2|0|2
304,192,6578,1,0
224,232,6812,1,0
152,176,7046,2,0,B|256:152|280:48,1,160,10|0
336,144,7749,5,8
328,184,7866,1,8
296,216,7983,1,0
296,304,8217,1,4
376,336,8452,1,0
456,296,8686,1,8
376,248,8920,5,0
296,216,9154,1,0
376,168,9389,1,0
456,208,9623,2,8,B|472:168|456:120,1,80,8|0
384,72,10091,2,0,B|304:96|224:64,1,160,0|8
136,72,10794,2,0,B|96:88|88:136,1,80
200,272,11497,5,8
288,280,11731,1,0
256,200,11965,2,0,B|272:112|360:88,2,160,0|8|0
96,280,13371,1,8
48,208,13605,5,0
80,176,13722,1,0
112,144,13839,1,4
176,200,14074,1,2
264,200,14308,1,10
328,144,14542,1,2
416,144,14776,2,0,B|464:176|432:240,1,80
360,248,15245,5,8
304,320,15479,1,0
272,288,15596,1,0
248,248,15713,1,0
192,320,15948,2,0,B|152:336|104:320,1,80,0|8
48,248,16416,1,0
48,248,16533,1,0
48,248,16650,2,0,B|104:248|104:192,1,80
103,202,17002,1,0
103,202,17119,1,8
152,128,17353,6,0,B|232:128,2,80
168,216,18056,2,0,B|328:216,1,160,8|0
384,288,18759,1,0
400,200,18993,2,0,B|352:144|336:48,1,160,8|0
248,72,19695,1,0
248,72,19813,1,0
248,72,19930,1,8
168,32,20164,1,0
160,120,20398,6,0,B|184:160|160:208,1,80
164,196,20750,1,0
164,196,20867,1,8
224,264,21101,1,0
264,280,21218,1,0
304,264,21335,1,0
264,184,21569,1,0
264,96,21804,5,2
264,96,21921,1,2
264,96,22038,1,2
264,96,22155,1,2
264,96,22272,1,2
264,96,22389,1,2
264,96,22506,1,2
344,128,22741,6,0,B|432:160,1,80,8|0
376,232,23209,2,0,B|312:280,1,80
232,248,23678,1,8
192,232,23795,1,0
152,240,23912,1,2
104,240,24029,1,2
64,216,24146,1,2
40,184,24263,1,2
40,144,24380,1,2
64,104,24498,1,2
104,88,24615,1,2
192,80,24849,6,0,B|192:24,2,40,0|0|4
272,48,25317,1,0
344,96,25552,1,8
344,184,25786,1,0
272,240,26020,2,0,B|272:312|208:312,1,80
237,306,26372,1,0
237,306,26489,1,8
160,272,26723,1,0
104,200,26957,6,0,B|48:200|48:136,1,80
136,128,27426,2,0,B|192:128|192:64,1,80,8|0
264,128,27894,1,0
320,64,28128,1,0
360,144,28363,1,8
304,208,28597,2,0,B|256:256,2,40
384,248,29065,5,0
352,328,29300,1,8
272,296,29534,1,0
192,336,29768,1,0
152,256,30002,1,0
72,224,30237,6,0,B|48:176|80:120,1,80,8|0
159,66,30705,2,0,B|176:96|152:144,1,80
232,221,31174,2,0,B|216:192|240:144,1,80,8|0
312,64,31642,2,0,B|327:111|312:142,1,80
384,224,32111,2,0,B|368:193|384:145,1,80,8|0
448,64,32579,6,0,B|472:112|448:144,2,80,0|8|0
376,112,33750,1,0
304,64,33985,1,8
232,112,34219,1,0
160,64,34453,1,0
88,112,34687,2,0,B|32:112,2,40,0|0|8
160,160,35156,1,0
232,208,35390,1,0
160,256,35624,2,0,B|144:208|80:200,2,80,0|8|0
248,264,36327,2,0,B|256:312|256:352,1,80
256,344,36678,1,0
256,344,36796,1,8
344,312,37030,5,0
344,312,37147,1,0
344,312,37264,1,0
368,224,37498,1,0
368,224,37615,1,0
368,224,37733,1,8
328,144,37967,5,0
288,160,38084,1,0
344,80,38318,1,0
304,96,38435,1,0
224,128,38669,1,8
136,152,38904,1,0
56,112,39138,1,4
56,200,39372,6,0,B|112:240|112:288,2,80,0|8|0
144,192,40075,2,0,B|216:248|304:216,1,160,0|8
384,224,40778,1,0
336,296,41012,1,0
336,296,41129,1,0
336,296,41246,1,0
256,336,41480,5,8
168,336,41715,1,0
80,336,41949,1,0
120,256,42183,2,0,B|184:224|184:184,2,80,0|8|0
48,208,42886,1,0
120,160,43120,1,0
120,160,43354,2,0,B|72:112,2,40
208,168,43823,6,0,B|240:192|344:136|384:168,1,160,8|0
432,224,44526,2,0,B|504:224,2,40,0|0|8
368,288,44994,1,0
280,312,45228,1,0
192,288,45463,1,0
136,216,45697,2,0,B|120:160|144:112,1,80,12|0
224,136,46165,2,0,B|240:88|216:32,1,80
304,96,46634,1,4
368,160,46868,5,0
368,160,46985,1,0
368,160,47102,2,0,B|432:224|376:320,1,160,0|12
328,240,47805,1,0
272,304,48039,2,0,B|232:288|240:224,1,80,8|0
256,152,48508,1,0
256,152,48625,1,0
256,152,48742,1,0
168,176,48976,6,0,B|232:112|176:16,1,160,8|0
128,96,49679,1,0
72,32,49913,2,0,B|32:48|40:112,1,80,8|0
80,176,50382,1,0
80,176,50499,1,0
80,176,50616,1,0
136,240,50850,6,0,B|176:280|224:272,1,80,8|0
206,273,51202,1,0
206,273,51319,1,0
288,232,51553,1,0
368,264,51787,1,8
432,208,52022,1,0
352,176,52256,1,0
272,144,52490,5,0
336,80,52724,1,8
416,120,52959,1,0
336,80,53193,2,0,B|232:32|160:104|200:224,1,240,4|4
216,272,54130,1,0
272,216,54364,5,0
272,216,54481,1,0
272,216,54598,1,8
336,280,54833,1,0
336,280,54950,1,0
336,280,55067,1,0
400,216,55301,5,0
400,216,55418,1,0
400,216,55535,1,8
400,216,55652,1,0
400,216,55770,2,0,B|432:152|416:48,1,160,4|0
328,48,56472,1,8
240,64,56707,5,0
208,96,56824,1,0
176,128,56941,1,4
144,160,57058,1,0
112,192,57175,2,0,B|80:200|72:264|40:264,1,80,0|8
136,288,57643,5,0
168,256,57761,1,0
200,224,57878,1,0
232,192,57995,1,0
264,160,58112,2,0,B|296:152|304:96|336:88,1,80,0|8
384,160,58580,5,0
352,192,58698,1,0
320,224,58815,2,0,B|272:224|264:336|192:352,1,160,0|8
120,352,59517,1,0
64,280,59752,1,0
136,232,59986,2,0,B|184:224|184:168,1,80,0|8
96,152,60454,5,0
152,88,60689,2,0,B|200:88|200:16,1,80
199,34,61040,1,0
199,34,61157,1,8
256,96,61391,5,0
256,96,61509,1,0
256,96,61626,2,0,B|256:176|336:208,1,120
352,208,62094,1,8
328,112,62328,1,0
408,136,62563,1,4
352,208,62797,2,0,B|350:265|419:265,2,80,0|12|0
328,112,63500,1,0
264,168,63734,2,0,B|224:168,2,40,0|0|8
216,112,64202,5,0
216,112,64320,1,0
216,112,64437,1,4
128,112,64671,1,0
128,24,64905,1,8
128,24,65022,1,0
128,24,65139,21,0
128,24,65257,1,0
128,24,65374,1,0
216,24,65608,1,0
216,112,65842,1,8
128,112,66076,6,0,B|72:112|72:184,1,80,0|0
128,232,66545,1,0
216,232,66779,1,8
128,232,67013,2,0,B|128:296|192:296,1,80,0|0
248,320,67482,1,0
312,256,67716,6,0,B|360:224|360:160,1,80,0|0
272,168,68185,1,8
184,168,68419,1,0
184,168,68536,1,0
184,168,68653,5,0
216,88,68887,1,0
216,88,69004,1,0
216,88,69122,1,8
296,56,69356,1,0
376,88,69590,1,0
408,168,69824,1,0
376,248,70059,1,4
296,208,70293,5,0
216,248,70527,1,4
136,208,70761,2,0,B|88:208,2,40,0|0|8
216,248,71230,2,0,B|248:296,2,40
208,160,71698,5,0
168,136,71815,1,0
168,96,71933,1,4
256,104,72167,1,0
344,96,72401,1,8
256,104,72635,5,0
256,56,72752,1,0
288,24,72870,1,0
344,96,73104,1,0
344,96,73221,1,0
344,96,73338,1,8
256,104,73572,5,0
256,152,73689,1,0
288,184,73807,1,0
376,184,74041,1,0
448,232,74275,1,8
464,320,74509,1,0
376,296,74744,1,0
288,296,74978,1,0
208,256,75212,1,8
168,176,75446,5,0
168,176,75563,1,0
168,176,75681,1,0
168,88,75915,1,0
96,144,76149,1,8
80,232,76383,1,0
120,312,76617,1,0
200,344,76852,1,0
280,312,77086,1,8
320,232,77320,1,0
296,144,77554,5,4
256,64,77789,1,0
208,136,78023,1,8
168,56,78257,1,4
208,136,78491,1,0
256,64,78726,2,0,B|304:16,2,40,0|0|8
296,144,79194,6,0,B|336:184,2,40,0|0|0
208,136,79663,2,0,B|160:184,2,40,0|0|8
248,216,80131,2,0,B|248:280,2,40,0|0|0
160,224,80600,2,0,B|96:224,2,40,0|0|8
208,296,81068,6,0,B|208:352,2,40,0|0|0
296,296,81537,1,0
376,256,81771,1,8
416,176,82005,1,0
416,88,82239,1,0
416,176,82474,1,0
416,176,82591,1,0
416,176,82708,6,0,B|320:176|280:104,1,160,8|0
281,105,83294,1,0
281,105,83411,2,0,B|224:104,2,40,0|0|8
232,176,83879,1,0
152,136,84113,5,0
112,128,84231,1,0
72,136,84348,2,0,B|32:184|32:296,1,160
112,256,85050,1,4
136,344,85285,1,0
224,320,85519,5,2
264,312,85636,1,2
304,296,85753,1,2
344,280,85870,1,2
376,256,85987,1,2
408,224,86104,1,2
432,184,86222,1,2
448,144,86339,1,2
456,104,86456,1,10
368,104,86690,6,0,B|304:40|208:40,1,160,0|2
152,88,87393,1,0
120,120,87510,1,0
104,160,87627,1,0
104,208,87744,1,4
120,248,87861,5,2
152,280,87978,1,2
192,304,88096,1,0
232,312,88213,1,2
280,312,88330,1,0
320,304,88447,1,0
360,288,88564,1,0
392,256,88681,1,0
